osu file format v9

[General]
AudioFilename: 05 Eating Me Away.mp3
AudioLeadIn: 0
PreviewTime: 38120
Countdown: 0
SampleSet: Normal
StackLeniency: 0.7
Mode: 0
LetterboxInBreaks: 0
EpilepsyWarning: 1

[Editor]
Bookmarks: 33598,99371,157983
DistanceSpacing: 1.1
BeatDivisor: 4
GridSize: 8

[Metadata]
Title:Eating Me Away
Artist:Skillet
Creator:rust45
Version:Chewing
Source:
Tags:rock grunge christian alien youth

[Difficulty]
HPDrainRate:5
CircleSize:4
OverallDifficulty:6
ApproachRate:6
SliderMultiplier:2
SliderTickRate:2

[Events]
//Background and Video events
0,0,"album-alien-youth.jpg"
//Break Periods
2,65263,67827
2,91487,98342
2,164437,170815
//Storyboard Layer 0 (Background)
//Storyboard Layer 1 (Fail)
Sprite,Fail,Centre,"circle.png",320,240 L,30738,4 F,0,0,1908,1,0 C,30738,30738,30739,255,0,0
Sprite,Fail,TopLeft,"left.png",0,35 L,31453,1 F,2,0,119,1,0 L,31691,1 F,2,0,238,1,0 L,31930,1 F,2,0,238,1,0 L,32168,1 F,2,0,477,1,0 L,33479,1 F,2,0,119,1,0 L,33837,1 F,2,0,238,1,0 L,34075,1 F,2,0,477,1,0 L,35982,1 F,2,0,477,1,0 L,37890,1 F,2,0,477,1,0 C,31453,31453,,255,0,0
Sprite,Fail,TopLeft,"right.png",536,30 L,31572,1 F,2,0,119,1,0 L,31930,1 F,2,0,238,1,0 L,32168,1 F,2,0,477,1,0 L,33360,1 F,2,0,119,1,0 L,33598,1 F,2,0,238,1,0 L,33837,1 F,2,0,238,1,0 L,34075,1 F,2,0,477,1,0 L,35982,1 F,2,0,477,1,0 L,37890,1 F,2,0,477,1,0 C,31572,31572,,255,0,0
Sprite,Fail,TopLeft,"bottom.png",0,359 L,32168,1 F,2,0,477,1,0 L,34075,1 F,2,0,477,1,0 L,35386,1 F,2,0,119,1,0 L,35744,1 F,2,0,238,1,0 L,35982,1 F,2,0,477,1,0 L,37174,1 F,2,0,119,1,0 L,37413,1 F,2,0,238,1,0 L,37651,1 F,2,0,238,1,0 L,37890,1 F,2,0,477,1,0 C,32168,32168,,255,0,0
Sprite,Fail,TopLeft,"top.png",0,0 L,32168,1 F,2,0,477,1,0 L,34075,1 F,2,0,477,1,0 L,35267,1 F,2,0,119,1,0 L,35506,1 F,2,0,238,1,0 L,35744,1 F,2,0,238,1,0 L,35982,1 F,2,0,477,1,0 L,37294,1 F,2,0,119,1,0 L,37651,1 F,2,0,238,1,0 L,37890,1 F,2,0,477,1,0 C,32168,32168,,255,0,0
//Storyboard Layer 2 (Pass)
Sprite,Pass,Centre,"circle.png",320,240 L,30738,4 F,0,0,1908,1,0 C,30738,30738,30739,0,0,255
Sprite,Pass,TopLeft,"left.png",0,35 L,31453,1 F,2,0,119,1,0 L,31691,1 F,2,0,238,1,0 L,31930,1 F,2,0,238,1,0 L,32168,1 F,2,0,477,1,0 L,33479,1 F,2,0,119,1,0 L,33837,1 F,2,0,238,1,0 L,34075,1 F,2,0,477,1,0 L,35982,1 F,2,0,477,1,0 L,37890,1 F,2,0,477,1,0 C,31453,31453,,0,0,255
Sprite,Pass,TopLeft,"right.png",536,30 L,31572,1 F,2,0,119,1,0 L,31930,1 F,2,0,238,1,0 L,32168,1 F,2,0,477,1,0 L,33360,1 F,2,0,119,1,0 L,33598,1 F,2,0,238,1,0 L,33837,1 F,2,0,238,1,0 L,34075,1 F,2,0,477,1,0 L,35982,1 F,2,0,477,1,0 L,37890,1 F,2,0,477,1,0 C,31572,31572,,0,0,255
Sprite,Pass,TopLeft,"bottom.png",0,359 L,32168,1 F,2,0,477,1,0 L,34075,1 F,2,0,477,1,0 L,35386,1 F,2,0,119,1,0 L,35744,1 F,2,0,238,1,0 L,35982,1 F,2,0,477,1,0 L,37174,1 F,2,0,119,1,0 L,37413,1 F,2,0,238,1,0 L,37651,1 F,2,0,238,1,0 L,37890,1 F,2,0,477,1,0 C,32168,32168,,0,0,255
Sprite,Pass,TopLeft,"top.png",0,0 L,32168,1 F,2,0,477,1,0 L,34075,1 F,2,0,477,1,0 L,35267,1 F,2,0,119,1,0 L,35506,1 F,2,0,238,1,0 L,35744,1 F,2,0,238,1,0 L,35982,1 F,2,0,477,1,0 L,37294,1 F,2,0,119,1,0 L,37651,1 F,2,0,238,1,0 L,37890,1 F,2,0,477,1,0 C,32168,32168,,0,0,255
//Storyboard Layer 3 (Foreground)
//Storyboard Sound Samples
//Background Colour Transformations
3,100,0,0,0

[TimingPoints]
7848,476.795931341386,4,2,0,70,1,0
38362,-100,4,1,0,60,0,0
68741,-100,4,1,0,40,0,0
107828,-100,4,1,0,70,0,0
108781,-100,4,1,0,40,0,0
109734,-100,4,1,0,70,0,0
110688,-100,4,1,0,40,0,0
111641,-100,4,1,0,70,0,0
112743,-100,4,1,0,60,0,0
152317,-100,4,1,0,0,0,0
152555,-100,4,1,0,60,0,0
162329,-100,4,2,0,0,0,0
164475,-100,4,1,0,60,0,0
182951,-100,4,1,0,30,0,0
183189,-100,4,1,0,60,0,0

[Colours]
Combo1 : 124,124,124
Combo2 : 67,107,67

[HitObjects]
48,64,7609,1,2
48,64,7848,2,0,B|184:240,1,200
240,304,8563,2,0,B|368:144,1,200
360,40,9278,1,2
360,40,9516,2,0,B|144:304,1,300
72,72,10708,1,0
72,72,11185,1,0
464,128,12377,5,2
464,128,12615,2,0,B|256:128,1,200,0|2
352,200,13331,2,0,B|40:200,1,300
52,200,14523,1,0
52,200,14999,1,0
153,49,15476,6,0,B|353:49,1,200,0|8
353,49,16907,1,8
168,168,17383,2,2,B|176:168|176:168|184:160|184:160|184:176|184:176|192:168|192:168|200:160|200:160|200:176|200:176|208:168|208:168|216:160|216:160|216:176|216:176|224:168|224:168|232:160|232:160|232:176|232:176|240:168|240:168|248:160|248:160|248:176|248:176|256:168|256:168|264:160|264:160|264:176|264:176|272:168|272:168|280:160|280:160|280:176|280:176|288:168|288:168|296:160|296:160|296:176|296:176|304:168|304:168|312:160|312:160|312:176|312:176|320:168|320:168|328:160|328:160|328:176|328:176|344:168|344:168|352:168,1,400
256,312,19529,5,2
256,312,19767,1,0
256,312,20006,1,2
256,312,20244,1,0
256,312,20721,2,2,B|256:304|256:304|248:296|248:296|264:296|264:296|256:288|256:288|264:280|264:280|248:280|248:280|256:272|256:272|248:264|248:264|264:264|264:264|256:256|256:256|264:248|264:248|248:248|248:248|256:240|256:240|248:232|248:232|264:232|264:232|256:224|256:224|264:216|264:216|248:216|248:216,1,200,2|0
256,40,23105,5,4
104,192,23582,1,0
256,344,24059,1,4
408,192,24535,1,0
256,40,25012,1,4
408,192,25489,1,0
256,344,25966,1,4
104,192,26443,1,0
232,8,26919,6,0,B|232:232,1,200,4|0
440,104,27873,2,0,B|440:344,1,200,4|0
224,336,28827,2,0,B|224:128,1,200,4|0
64,288,29780,2,0,B|64:80,1,200,4|0
392,88,30972,5,2
440,192,31211,1,0
392,296,31449,1,2
352,192,31687,2,0,B|248:192,1,100,0|2
144,192,32164,1,0
144,192,32402,2,2,B|152:192|152:192|160:184|160:184|160:200|160:200|168:192|168:192|184:192|184:192|192:200|192:200|192:184|192:184|200:192|200:192|216:192|216:192|224:184|224:184|224:200|224:200|232:192|232:192|248:192|248:192|256:200|256:200|256:184|256:184|264:192|264:192|280:192|280:192|288:184|288:184|288:200|288:200|296:192|296:192|312:192|312:192|320:200|320:200|320:184|320:184|328:192|328:192|344:192|344:192|352:184|352:184|352:200|352:200|360:192|360:192|376:192|376:192|384:200|384:200|384:184|384:184|392:192|392:192|408:192|408:192|416:184|416:184|416:200|416:200|424:192|424:192|440:192,1,500
40,40,34786,5,2
120,120,35025,2,0,B|208:192,1,100,0|2
304,192,35502,1,0
304,192,35978,1,0
304,192,36217,1,4
256,192,36932,12,8,38362
32,192,38601,6,0,B|136:192,1,100,0|8
240,192,39078,2,0,B|240:80,1,100,0|8
352,88,39554,2,0,B|456:88,2,100,0|8|0
240,92,40270,2,8,B|72:92|44:181|72:268|247:268,2,400,8|8|8
280,192,42415,5,0
168,192,42654,1,8
56,192,42892,1,0
56,80,43130,1,8
56,80,43607,1,8
56,80,44084,2,8,B|112:120|216:136|256:72,1,200
242,88,44799,1,0
440,192,45276,1,0
328,192,45514,1,8
256,40,45991,5,8
176,120,46230,1,0
256,40,46468,1,8
336,120,46706,1,0
256,200,46945,1,8
256,312,47183,1,0
256,200,47422,1,8
56,184,47898,6,8,B|168:112|256:296|337:108|455:187,1,400
424,80,49090,1,0
424,80,49567,1,4
312,80,49806,6,0,B|200:80,1,100,8|0
104,80,50282,2,0,B|104:184,1,100,8|0
104,288,50759,2,8,B|336:288,1,200
448,192,51713,5,8
448,192,52190,1,8
336,192,52428,1,0
336,192,52905,1,0
224,192,53143,1,8
40,72,53620,6,2,B|48:312|312:312,1,400
256,192,55527,12,4,57434
256,192,57553,12,4,60772
40,192,61249,5,4
40,80,61487,1,0
40,192,61725,1,0
40,304,61964,2,8,B|40:354,2,50
136,192,62441,5,0
136,80,62679,1,0
136,192,62917,2,8,B|136:248,2,50
208,304,63394,5,0
208,192,63633,1,0
208,80,63871,2,8,B|208:24,2,50
304,192,64348,5,0
304,192,64586,1,0
416,192,64825,2,8,B|472:192,2,50
40,40,68877,5,0
152,40,69116,1,0
96,136,69354,1,8
48,232,69593,2,0,B|96:252|151:230,1,100
96,136,70069,1,0
96,136,70308,1,8
200,328,70785,5,0
312,328,71023,1,0
256,232,71261,1,8
208,136,71500,2,0,B|256:115|311:137,1,100
256,232,71977,1,0
256,232,72215,1,8
472,40,72692,5,0
360,40,72930,1,0
416,136,73169,1,8
464,232,73407,2,0,B|415:252|360:230,1,100
416,136,73884,1,0
416,136,74122,1,8
262,278,74599,5,0
200,192,74837,1,0
262,106,75076,1,8
312,192,75314,2,0,B|256:288,1,100
200,192,75791,1,0
262,106,76029,1,8
56,40,76506,5,0
32,152,76745,1,0
64,256,76983,1,8
96,152,77221,2,0,B|152:152,2,50
208,152,77698,1,0
320,152,77937,1,8
456,344,78413,5,0
480,232,78652,1,0
448,128,78890,1,8
416,232,79128,2,0,B|360:232,2,50
304,232,79605,1,0
192,232,79844,1,8
360,72,80320,5,0
256,40,80559,1,0
152,72,80797,1,8
256,104,81036,2,0,B|256:160,2,50
256,216,81512,1,0
256,328,81751,1,8
80,192,82228,5,0
128,88,82466,1,0
232,48,82704,1,8
344,72,82943,1,0
344,72,83062,1,0
344,72,83181,1,0
448,112,83420,1,0
448,112,83658,1,8
464,264,83896,5,2
352,264,84135,1,8
408,360,84373,1,8
256,192,84850,1,4
48,120,85804,5,2
160,120,86042,1,8
104,24,86280,1,8
256,192,86757,1,4
208,48,87472,6,2,B|258:25|306:49,2,100
256,264,88426,1,8
24,32,89141,1,0
24,32,89380,1,8
168,200,89856,2,0,B|344:80,1,200,0|8
400,176,90572,2,0,B|224:296,1,200,0|8
144,352,91287,1,4
40,192,99392,6,0,B|80:160|136:192,3,100,8|0|0|0
240,192,100346,2,0,B|288:216|344:192,3,100,8|0|0|0
448,192,101300,2,0,B|416:144|448:96,3,100,8|0|0|0
336,88,102253,2,0,B|288:64|232:88,3,100,8|0|0|0
128,88,103207,6,0,B|48:168,1,100,8|0
152,208,103683,2,0,B|224:128,1,100,0|0
320,184,104160,2,0,B|248:264,1,100,8|0
352,312,104637,2,8,B|424:224,1,100,0|0
480,140,105114,6,0,B|480:28,1,100,8|0
368,140,105591,2,0,B|368:20,1,100,0|0
256,140,106067,2,0,B|256:36,1,100,8|0
144,140,106544,2,0,B|144:36,1,100,0|0
256,40,107021,5,8
352,96,107259,1,0
256,40,107498,1,0
160,96,107736,1,0
256,152,107975,5,8
352,192,108213,1,0
256,152,108451,1,0
160,192,108690,1,0
256,152,108928,5,8
352,192,109167,1,0
256,152,109405,1,0
160,192,109643,1,0
256,264,109882,5,8
352,304,110120,1,0
256,264,110359,1,0
160,304,110597,1,0
256,365,110835,6,0,B|256:253,1,100,8|0
256,192,111312,2,0,B|256:80,2,100,0|0|8
256,192,112027,1,0
256,192,112266,1,0
256,192,112504,1,0
256,192,112743,12,8,114650
40,192,114888,5,0
120,264,115127,1,8
224,304,115365,1,0
336,288,115603,1,8
432,232,115842,1,0
464,128,116080,1,8
360,96,116319,1,0
240,92,116557,2,8,B|72:92|44:181|72:268|247:268,2,400,8|8|8
360,40,118703,5,0
360,152,118941,1,8
472,40,119179,1,0
360,40,119418,1,8
360,152,119656,1,0
360,264,119895,1,8
360,264,120371,2,8,C|320:288|312:224|256:288,1,200,8|8
152,288,121087,1,0
152,288,121563,1,0
152,288,121802,1,8
200,136,122279,5,8
200,248,122517,1,0
312,248,122755,1,8
312,136,122994,1,0
200,136,123232,1,8
200,248,123471,1,0
312,248,123709,1,8
65,192,124186,6,8,B|177:120|257:304|345:112|465:192,1,400
456,296,125378,1,0
456,80,125854,1,4
457,188,126093,6,0,B|345:188,1,100,0|0
248,192,126570,1,8
136,192,126808,1,0
96,296,127046,2,0,B|328:296,1,200,8|8
448,192,128000,5,8
448,192,128477,1,8
336,192,128715,1,0
336,192,129192,1,0
224,192,129430,1,8
32,104,129907,6,2,B|40:344|304:344,1,400
32,32,131814,5,4
480,32,132291,1,4
256,192,132768,1,4
256,352,133245,1,4
256,352,133483,1,4
256,352,133722,6,0,B|184:272,1,100
256,352,134198,2,0,B|336:264,1,100,8|0
191,278,134675,2,0,B|261:195,1,100
323,278,135152,2,0,B|252:198,1,100,8|0
256,128,135629,5,0
192,80,135867,1,0
256,32,136106,1,8
320,80,136344,1,0
320,160,136582,1,0
397,120,136821,1,0
320,80,137059,1,8
256,128,137298,6,0,B|236:144|208:128,2,50
144,96,137774,2,0,B|48:176,1,100,0|8
67,160,138251,1,0
67,241,138490,1,0
112,304,138728,1,0
192,336,138966,1,8
272,336,139205,5,0
304,288,139324,1,0
336,240,139443,1,0
400,192,139682,2,0,B|400:80,1,100,0|8
336,48,140158,2,0,B|272:144,1,100
208,80,140635,1,0
128,80,140874,1,8
64,144,141112,1,0
64,224,141350,5,0
152,248,141589,1,0
216,192,141827,2,0,B|280:272,2,66.6666666666667,8|0|0
216,96,142304,2,0,B|360:96|392:192,1,200,0|8
376,264,143019,1,0
320,336,143258,5,0
320,336,143496,1,0
240,336,143734,1,8
192,336,143854,1,0
144,336,143973,1,0
96,272,144211,1,0
96,192,144450,1,0
96,112,144688,1,8
96,112,144807,1,0
96,112,144926,1,0
158,47,145165,6,0,B|262:79|368:44,1,200,2|8
356,103,145880,2,0,B|262:133|158:101,1,200,2|8
155,157,146595,2,0,B|259:189|365:154,1,200,2|2
340,267,147549,1,8
285,267,147787,1,2
174,267,148264,1,8
228,269,148502,1,2
496,192,148979,5,8
432,272,149217,1,0
336,320,149456,1,8
224,320,149694,2,0,B|112:240|128:96|224:64,1,300,0|8
16,192,150886,5,8
80,96,151125,1,0
192,64,151363,1,8
304,64,151601,2,0,B|400:112|432:224|304:304,1,300,0|8
256,32,152793,5,8
256,144,153032,1,0
256,256,153270,1,8
256,368,153509,2,0,C|240:352|240:352|272:352|272:352|256:320|256:320|240:304|240:304|272:304|272:304|256:288|256:288|256:192,1,300,0|8
256,32,154701,5,8
200,128,154939,1,0
312,128,155177,1,8
256,224,155416,1,4
256,32,155893,1,4
32,80,156608,5,8
32,192,156846,1,0
144,192,157085,1,8
256,192,157323,2,0,B|256:216|256:216|272:232|272:232|239:232|239:232|255:248|255:248|296:272|296:272|224:272|224:272|256:296|256:296|256:352,1,300,0|8
480,80,158515,5,8
480,192,158753,1,0
368,192,158992,1,8
256,192,159230,2,0,B|255:168|255:168|239:152|239:152|272:152|272:152|256:136|256:136|216:112|216:112|288:112|288:112|256:88|256:88|256:32,1,300,0|8
56,192,160422,5,8
136,264,160661,1,0
240,304,160899,1,8
344,280,161137,1,0
440,232,161376,1,8
472,128,161614,1,0
360,128,161853,1,8
256,192,162329,12,0,164237
480,192,171865,5,8
480,192,172104,2,0,B|376:192,1,100,0|8
272,192,172580,2,0,B|272:304,1,100,0|8
160,296,173057,2,0,B|56:296,2,100,0|8|0
272,292,173772,2,8,B|440:292|468:203|440:116|265:116,2,400,8|8|8
232,192,175918,5,0
344,192,176156,1,8
456,192,176395,1,0
456,304,176633,1,8
456,304,177110,1,8
456,304,177587,2,8,B|400:264|296:248|256:312,1,200
270,296,178302,1,0
72,192,178779,1,0
184,192,179017,1,8
256,344,179494,5,8
336,264,179732,1,0
256,344,179971,1,8
184,264,180209,1,0
256,184,180448,1,8
256,72,180686,1,0
256,184,180924,1,8
456,200,181401,6,8,B|344:272|256:88|174:275|56:196,1,400
88,304,182593,1,0
88,304,183070,1,4
200,304,183308,6,0,B|312:304,1,100,8|0
408,304,183785,2,0,B|408:200,1,100,8|0
408,96,184262,2,8,B|176:96,1,200
64,192,185216,5,8
64,192,185692,1,8
176,192,185931,1,0
176,192,186408,1,0
288,192,186646,1,8
472,192,187123,5,8
472,192,187361,1,0
392,264,187600,1,8
288,304,187838,1,0
176,288,188076,1,8
80,232,188315,1,0
48,128,188553,1,8
152,96,188792,1,0
272,92,189030,2,8,B|440:92|468:181|440:268|265:268,2,400,8|8|8
152,40,191176,5,0
152,152,191414,1,8
40,40,191652,1,0
152,40,191891,1,8
152,152,192129,1,0
152,264,192368,1,8
152,264,192844,2,8,C|192:288|200:224|256:288,1,200
360,288,193560,1,0
360,288,194036,1,0
360,288,194275,1,8
312,136,194752,5,8
312,248,194990,1,0
200,248,195228,1,8
200,136,195467,1,0
312,136,195705,1,8
312,248,195943,1,0
200,248,196182,1,8
448,192,196659,6,8,B|336:120|256:304|168:112|48:192,1,400
56,296,197851,1,0
56,80,198327,1,4
56,192,198566,6,0,B|168:192,1,100,8|0
264,192,199043,1,8
376,192,199281,1,0
416,296,199519,2,0,B|184:296,1,200,8|8
64,192,200473,5,8
64,192,200950,1,8
176,192,201188,1,0
176,192,201665,1,0
288,192,201903,1,8
464,64,202380,6,2,B|456:304|192:304,1,400
256,192,204287,12,4,206195
