osu file format v6

[General]
AudioFilename: 05 Comatose.mp3
AudioLeadIn: 500
PreviewTime: 61973
Countdown: 0
SampleSet: Normal
StackLeniency: 0.6
Mode: 0
LetterboxInBreaks: 1

[Editor]
Bookmarks: 11317,214625
DistanceSpacing: 1
BeatDivisor: 4
GridSize: 8

[Metadata]
Title:Comatose
Artist:Skillet
Creator:Alex0686
Version:Hard
Source:Comatose
Tags:skillet comatose GbL

[Difficulty]
HPDrainRate:6
CircleSize:5
OverallDifficulty:6
SliderMultiplier:1.4
SliderTickRate:1

[Events]
//Background and Video events
0,0,"skillet2_1024.jpg"
//Break Periods
2,28458,38503
2,84929,89326
2,163635,171208
//Storyboard Layer 0 (Background)
//Storyboard Layer 1 (Fail)
//Storyboard Layer 2 (Pass)
//Storyboard Layer 3 (Foreground)
Sprite,Foreground,Centre,"white.png",320,240 F,0,39473,39562,0,0.2 F,0,39562,39914,0.2,0 F,0,39914,62812,0 F,0,62812,62856,0,0.75 F,0,62856,63562,0.75,0 F,0,63562,64223,0 F,0,64223,64267,0,0.75 F,0,64267,64973,0.75,0 F,0,64973,74106,0 F,0,74106,74150,0,0.75 F,0,74150,74856,0.75,0 F,0,74856,75517,0 F,0,75517,75562,0,0.75 F,0,75562,76267,0.75,0 F,0,76267,101635,0 F,0,101635,101679,0,0.75 F,0,101679,102385,0.75,0 F,0,102385,104459,0 F,0,104459,104503,0,0.75 F,0,104503,105209,0.75,0 F,0,105209,107282,0 F,0,107282,107326,0,0.75 F,0,107326,108032,0.75,0 F,0,108032,124929,0 F,0,124929,124973,0,0.75 F,0,124973,125679,0.75,0 F,0,125679,126341,0 F,0,126341,126385,0,0.75 F,0,126385,127091,0.75,0 F,0,127091,136223,0 F,0,136223,136267,0,0.75 F,0,136267,136973,0.75,0 F,0,136973,137635,0 F,0,137635,137679,0,0.75 F,0,137679,138385,0.75,0 F,0,138385,163356,0 F,0,163356,163444,0,0.2 F,0,163444,163797,0.2,0 F,0,163797,175753,0 F,0,175753,175797,0,0.75 F,0,175797,177164,0.75,0 F,0,177164,177209,0,0.75 F,0,177209,177870,0.75,0 F,0,177870,177914,0,0.5 F,0,177914,178620,0.5,0 F,0,178620,187047,0 F,0,187047,187091,0,0.75 F,0,187091,187797,0.75,0 F,0,187797,188459,0 F,0,188459,188503,0,0.75 F,0,188503,189209,0.75,0 F,0,189209,,0
//Storyboard Sound Samples
//Background Colour Transformations
3,100,74,140,102

[TimingPoints]
9906,352.941176470588,4,1,0,100,1,0
28258,-100,4,2,0,100,0,0
39200,-100,4,1,0,100,0,0
64964,-100,4,1,0,100,0,1
84729,-100,4,1,0,100,0,0
127082,-100,4,1,0,100,0,1
146847,-100,4,1,0,100,0,0
172170,-100,4,1,0,70,0,0
172625,-100,4,1,0,80,0,0
172788,-100,4,1,0,90,0,0
173317,-100,4,1,0,100,0,0
177906,-100,4,1,0,100,0,1
220258,-100,4,1,0,100,0,0

[Colours]
Combo1 : 110,110,110
Combo2 : 78,124,78

[HitObjects]
176,160,11317,2,0,L|24:160,2,140
456,160,12729,6,0,L|312:160,2,140
176,160,14141,5,0
320,160,14494,1,0
248,40,14847,1,0
248,40,15023,1,0
248,40,15200,1,0
248,176,15553,5,0
248,320,15905,1,0
248,176,16258,1,0
248,320,16611,1,0
312,192,16964,5,0
448,192,17317,2,0,L|376:192,2,70
320,256,18023,2,0,L|400:256,2,70
448,320,18729,2,0,L|376:320,2,70,0|0|0
320,256,19435,1,0
320,256,19611,1,0
320,184,19788,6,0,B|336:48|200:-8|56:56|72:184,2,420
200,112,22258,1,0
256,192,22611,12,2,28258
72,72,39553,6,0,B|40:40,2,35
120,120,39906,1,0
120,120,40258,1,0
256,120,40611,2,0,B|312:256,2,140
400,120,41670,1,0
400,120,42023,1,0
256,120,42376,6,0,B|200:256,2,140
400,120,43435,1,0
400,120,43611,1,0
256,120,43964,1,0
256,120,44141,2,0,B|112:120,2,140
400,120,45200,6,0,B|416:160|400:192,1,70
336,160,45553,2,0,B|336:232,1,70
272,200,45906,2,0,B|256:240|272:272,1,70
336,232,46258,2,0,B|336:304,1,70
400,280,46611,2,0,B|424:208|472:160,2,140
292,191,47670,5,0
168,128,48023,2,0,B|312:128,1,140
432,192,48729,2,0,B|288:192,1,140
168,256,49435,2,0,B|312:256,1,140
448,256,50141,5,0
448,256,50317,1,0
448,256,50494,1,0
448,256,50670,1,0
376,256,50847,6,0,B|360:136|168:296|160:144,1,280
296,152,51906,2,0,B|368:152,1,70
496,96,52435,2,0,B|424:96,1,70
288,88,52964,1,0
288,88,53141,1,0
288,88,53317,1,0
144,88,53670,6,0,B|144:160,1,70
208,128,54023,2,0,B|208:200,1,70
144,224,54376,1,0
208,264,54553,1,0
344,264,54906,2,0,B|416:264,1,70
384,200,55258,2,0,B|312:200,1,70
384,80,55788,1,0
384,80,55964,1,0
176,72,56494,6,0,B|56:144|280:232|144:320,1,280
320,192,57729,1,0
456,192,58082,1,0
456,192,58258,1,0
328,128,58611,1,0
328,128,58788,1,0
120,128,59317,5,4
120,128,59494,1,0
120,128,59670,1,0
256,128,60023,5,4
256,128,60200,1,0
256,128,60376,1,0
392,128,60729,6,0,B|464:128,1,70
440,192,61082,1,0
368,192,61258,2,0,B|296:192,1,70
328,256,61611,1,0
400,256,61788,2,0,B|480:256,1,70
440,320,62141,6,0,B|296:320,1,140
232,320,62670,1,0
160,320,62847,1,4
72,56,63553,6,0,B|216:56,1,140
280,56,64082,1,0
352,56,64258,1,4
256,320,64964,6,0,B|112:320,1,140,4|0
144,256,65494,1,0
176,192,65670,1,0
176,192,66023,2,0,B|320:192,2,140
32,192,67082,5,0
32,192,67258,1,0
32,192,67435,1,0
32,192,67611,1,0
104,192,67788,6,0,B|168:232|240:192,1,140
376,192,68494,1,0
104,136,69200,6,0,B|248:136,1,140
368,72,69906,2,0,B|224:72,1,140
256,208,70611,6,0,B|184:208,2,70
328,208,71141,1,0
400,208,71317,1,0
328,88,71670,5,0
328,88,71847,1,0
328,88,72023,1,0
328,88,72200,1,0
256,88,72376,6,0,B|256:160,1,70
184,160,72729,2,0,B|184:88,1,70
112,88,73082,2,0,B|112:160,1,70
112,224,73435,6,0,B|256:224,1,140
320,224,73964,1,0
288,288,74141,2,0,B|144:288,2,140,4|0|0
360,288,75023,2,0,B|432:288,2,70
392,224,75553,1,4
112,192,76258,6,0,B|112:48,1,140
176,176,76964,2,0,B|176:32,1,140
240,160,77670,2,0,B|240:232,2,70
240,88,78200,5,0
240,88,78376,1,0
240,88,78553,1,0
240,88,78729,1,0
240,88,78906,1,0
312,88,79082,6,0,B|480:96|488:272,1,280
344,264,80141,1,0
200,264,80494,2,0,B|48:264,1,140
88,200,81023,2,0,B|232:200,1,140
256,136,81553,1,0
256,192,81906,12,4,84729
432,96,90376,6,0,B|392:96,2,35
288,96,90906,1,0
288,168,91082,1,0
152,128,91435,1,0
152,200,91611,1,0
288,240,91964,6,0,B|288:312,1,70
352,280,92317,1,0
352,280,92494,1,0
352,280,92670,1,0
352,280,92847,1,0
456,192,93200,6,0,B|456:152,2,35
456,48,93729,1,0
456,48,93906,1,0
392,168,94258,1,0
392,168,94435,1,0
392,24,94788,6,0,B|320:24,1,70
352,88,95141,1,0
352,88,95317,1,0
352,88,95494,1,0
352,88,95670,1,0
288,120,95847,2,0,B|288:80,2,35,0|0|4
144,120,96376,6,0,B|144:192,1,70
208,168,96729,2,0,B|208:240,1,70
272,208,97082,2,0,B|272:280,2,70
336,232,97611,2,0,B|336:160,2,70
400,208,98141,1,0
120,192,98847,6,0,C|80:192,2,35
256,192,99376,2,0,C|216:192,1,35
392,192,99905,1,0
392,192,100082,1,0
464,192,100258,1,0
464,192,100435,1,0
464,192,100611,1,0
464,192,100788,1,0
464,264,100964,5,0
464,264,101141,1,0
464,264,101317,1,0
464,264,101494,1,0
392,264,101670,6,0,B|336:344|192:136|136:280,2,280,4|0|0
392,184,103258,1,0
392,104,103435,1,0
392,24,103611,2,0,B|424:40,2,35
328,64,103964,1,0
328,64,104141,1,0
328,64,104317,1,0
328,136,104494,6,0,B|280:232|152:232|96:120,2,280,4|0|0
264,112,106082,1,0
200,88,106258,1,0
136,56,106435,2,0,B|120:24,2,35
104,120,106788,1,0
80,184,106964,1,0
56,248,107141,1,0
120,232,107317,6,0,B|200:224|320:240|408:232,2,280,4|0|0
80,168,108906,1,0
152,168,109082,1,0
224,168,109258,1,0
296,168,109435,1,0
368,168,109611,1,0
440,168,109788,1,0
512,168,109964,1,0
256,192,110141,12,4,112964
256,48,113670,6,0,B|184:232|328:128|256:320,1,280
259,311,114729,1,0
400,312,115082,1,0
424,248,115258,1,0
448,184,115435,1,0
320,248,115788,6,0,B|32:248,1,280
240,176,117023,1,0
160,176,117200,1,0
200,112,117376,2,0,B|200:40,1,70
336,40,117906,1,0
336,40,118082,1,0
480,192,118611,6,0,B|440:296|304:296|264:192,1,280
368,8,119847,1,0
360,88,120023,1,0
296,48,120200,2,0,B|280:128,1,70
224,72,120553,2,0,B|208:144,1,70
152,96,120906,2,0,B|136:168,1,70
256,128,121435,5,4
256,128,121611,1,0
256,128,121788,1,0
256,264,122141,5,4
256,264,122317,1,0
256,264,122494,1,0
392,264,122847,6,0,B|416:232|400:192,1,70
336,224,123200,1,0
288,168,123376,2,0,B|320:144|360:160,2,70
216,168,123906,1,0
256,64,124258,6,0,B|184:64,1,70
208,128,124611,2,0,B|136:128,1,70
160,192,124964,1,4
256,320,125670,6,0,B|328:320,1,70
304,256,126023,2,0,B|376:256,1,70
352,192,126376,1,4
256,72,127082,5,4
256,72,127258,1,0
256,144,127435,2,0,B|112:144,2,140
328,144,128317,1,0
400,144,128494,2,0,B|376:288,2,140
328,144,129376,5,0
328,144,129553,1,0
328,144,129729,1,0
328,144,129906,2,0,B|240:240|152:64|64:184,1,280
200,232,130964,5,0
320,296,131317,2,0,B|176:296,1,140
200,232,131847,2,0,B|344:232,1,140
408,232,132376,1,0
296,144,132729,5,0
296,144,132906,1,0
224,120,133082,1,0
224,120,133258,1,0
160,144,133435,2,0,B|88:176|176:256|88:344,1,210
64,272,134141,2,0,B|64:128,2,140
64,344,135023,1,0
64,344,135200,1,0
200,312,135553,6,0,B|264:344|344:312,2,140,0|0|4
264,264,136435,1,0
264,192,136611,1,0
264,120,136788,1,0
224,48,136964,6,0,B|176:104|208:184,2,140,0|0|4
264,120,137847,1,0
336,120,138023,1,0
408,120,138200,1,0
408,192,138376,6,0,B|408:336,1,140
344,208,139082,2,0,B|344:352,1,140
280,224,139788,1,0
280,224,139964,1,0
280,152,140141,2,0,B|136:240|152:88|8:160,1,280
48,216,141023,1,0
120,216,141200,6,0,B|144:280|208:328,1,140
344,328,141906,1,0
344,184,142258,1,0
200,184,142611,2,0,B|168:152|104:152|64:184,1,140
192,248,143317,1,0
192,248,143670,1,0
256,192,144023,12,4,146847
256,80,147553,5,0
256,80,148258,1,0
224,144,148435,1,0
192,208,148611,1,0
160,272,148788,1,0
128,208,148964,2,2,B|96:136|128:64,1,140,2|0
256,80,149670,5,0
256,80,150376,1,0
288,144,150553,1,0
320,208,150729,1,0
352,272,150906,1,0
384,208,151082,2,2,B|416:136|384:64,1,140,2|0
320,96,151611,6,0,B|264:40,1,70,2|0
256,120,151964,2,0,B|200:64,1,70,2|0
192,144,152317,2,0,B|136:88,1,70,0|4
256,280,153200,6,0,B|232:112|280:200|400:128|424:8|256:0|168:24|168:80,1,420
178,53,154611,1,0
178,53,154964,1,0
256,168,155317,5,0
256,168,156023,2,0,B|376:136|400:288|304:328|232:272,1,280
168,168,157082,2,0,B|96:168,1,70,2|0
128,104,157435,2,0,B|56:104,1,70,2|0
96,40,157788,2,0,B|24:40,1,70,0|4
57,104,158141,6,0,B|-38:160|-38:280|57:336,2,280,0|0|2
200,96,159906,1,0
216,168,160082,1,0
240,232,160258,1,2
264,168,160435,1,0
280,96,160611,1,2
280,96,160788,1,0
352,96,160964,5,2
352,304,161317,1,4
144,304,161670,5,2
144,96,162023,1,4
392,191,162376,5,2
245,44,162729,1,4
98,191,163082,5,2
245,338,163435,1,4
256,160,172258,6,0,B|216:120|168:120|128:160,1,140
256,224,172964,2,0,B|296:264|344:264|384:224,1,140
320,96,173670,5,0
264,136,173847,1,0
208,176,174023,1,0
152,216,174200,2,0,B|80:216,3,70
208,272,175082,6,0,B|280:312|344:272,1,140
280,144,175788,1,4
280,144,176494,6,0,B|208:104|144:144,1,140
208,272,177200,1,4
256,192,177906,5,4
392,160,178258,2,0,B|392:232,1,70
320,240,178611,2,0,B|256:280|184:240,2,140
256,192,179494,1,0
256,120,179670,2,0,B|184:80|120:120,1,140
88,184,180200,1,0
88,184,180376,1,0
88,184,180553,1,0
88,184,180729,6,0,B|120:328|248:184|288:352,1,280
288,200,181788,1,0
424,200,182141,2,0,B|424:56,1,140
352,64,182670,2,0,B|352:208,1,140
352,204,183200,1,0
208,192,183553,6,0,B|136:216,1,70
141,214,183906,1,0
141,214,184082,2,0,B|72:184,1,70
76,186,184435,1,0
76,186,184611,2,0,B|56:112,1,70
104,72,184964,2,0,B|136:40|200:40|240:72,3,140
168,192,186376,6,0,B|168:264,1,70
232,232,186729,1,0
296,200,186906,1,0
360,168,187082,2,0,B|488:96,2,140,4|0|0
296,136,187964,1,0
232,104,188141,1,0
168,80,188317,1,0
184,144,188494,2,0,B|136:280,2,140,4|0|0
272,256,189553,5,0
272,256,189906,1,0
408,256,190258,2,0,B|376:192|288:192,1,140
296,120,190788,1,0
368,120,190964,2,0,B|416:64|496:64,1,140
488,136,191494,1,0
488,136,191670,1,0
488,136,191847,1,0
472,200,192023,6,0,B|432:304|304:304|256:200,1,280
368,120,193082,1,0
224,120,193435,2,0,B|192:64|72:64|32:128,2,210
256,192,194847,12,4,197670
256,192,198376,5,0
256,192,199082,1,0
256,192,199258,1,0
256,192,199435,1,0
256,120,199611,2,0,B|256:80,2,35
256,192,199964,1,0
256,192,200494,12,4,203317
256,192,204023,5,0
256,192,204729,1,0
256,192,205258,1,0
256,264,205435,2,0,B|256:304,2,35
256,192,205788,1,0
256,192,206141,12,4,208964
384,176,209670,5,0
384,176,210376,2,0,B|256:120|256:256|112:176,1,280
256,48,211788,5,4
256,48,211964,1,4
256,48,212141,1,4
256,48,212317,1,4
256,184,212670,5,4
256,184,212847,2,4,B|328:152|400:256|328:328|248:360|144:344|96:272|88:104|200:56|280:72|376:112|408:176|392:256,1,700,4|4
