osu file format v7

[General]
AudioFilename: 04 - Awake And Alive.mp3
AudioLeadIn: 0
PreviewTime: 42880
Countdown: 1
SampleSet: Normal
StackLeniency: 0.6
Mode: 0
LetterboxInBreaks: 1

[Editor]
DistanceSpacing: 1
BeatDivisor: 4
GridSize: 8

[Metadata]
Title:Awake And Alive
Artist:Skillet
Creator:Strawberry-kun
Version:Hard
Source:
Tags:

[Difficulty]
HPDrainRate:6
CircleSize:4
OverallDifficulty:6
SliderMultiplier:1.5
SliderTickRate:1

[Events]
//Background and Video events
0,0,"bg.jpg"
//Break Periods
2,67830,72580
//Storyboard Layer 0 (Background)
//Storyboard Layer 1 (Fail)
//Storyboard Layer 2 (Pass)
//Storyboard Layer 3 (Foreground)
//Storyboard Sound Samples
//Background Colour Transformations
3,100,192,192,192

[TimingPoints]
6130,375,4,1,0,100,1,0
7442,-100,4,2,0,100,0,0
7817,-100,4,1,0,100,0,0
10442,-100,4,2,0,100,0,0
10817,-100,4,1,0,100,0,0
13442,-100,4,2,0,100,0,0
13817,-100,4,1,0,100,0,0
16442,-100,4,2,0,100,0,0
16817,-100,4,1,0,100,0,0
17942,-100,4,2,0,100,0,0
19536,-100,4,1,0,100,0,0
20567,-100,4,1,0,70,0,0
42692,-100,4,1,0,100,0,0
43255,-100,4,1,0,0,0,0
43442,-100,4,1,0,100,0,0
43630,-100,4,1,0,100,0,1
66130,-100,4,1,0,100,0,0
66223,-100,4,1,0,0,0,0
67630,-100,4,1,0,100,0,0
74942,-100,4,2,0,100,0,0
75317,-100,4,1,0,100,0,0
77942,-100,4,2,0,100,0,0
78317,-100,4,1,0,100,0,0
80567,-100,4,1,0,80,0,0
102692,-100,4,1,0,100,0,0
103255,-100,4,1,0,0,0,0
103442,-100,4,1,0,100,0,0
103630,-100,4,1,0,100,0,1
126130,-100,4,1,0,100,0,0
172255,-100,4,1,0,0,0,0
172442,-100,4,1,0,100,0,0
172630,-100,4,1,0,100,0,1
178615,-100,4,1,0,100,0,0
178630,-100,4,1,0,100,0,1
184615,-100,4,1,0,100,0,0
184630,-100,4,1,0,100,0,1
187615,-100,4,1,0,100,0,0
187630,-100,4,1,0,100,0,1
196615,-100,4,1,0,100,0,0
196630,-100,4,1,0,100,0,1

[Colours]
Combo1 : 100,100,100
Combo2 : 255,15,15
Combo3 : 255,255,255

[HitObjects]
32,192,6130,6,0,B|104:144|176:192,1,150,8|0
172,189,6692,1,0
172,189,6880,2,0,B|325:190,1,150
472,192,7630,5,4
392,320,8005,5,0
392,320,8192,1,0
392,320,8380,2,0,B|240:320,1,150,4|0
256,168,9130,6,0,B|216:128|152:208|112:168,1,150,8|0
114,170,9692,1,0
114,170,9879,2,0,B|40:224|88:304,1,150
232,256,10630,5,4
352,168,11005,5,0
352,168,11192,1,0
352,168,11380,2,0,B|352:16,1,150,4|0
256,136,12130,6,0,B|176:128|104:136,1,150,8|0
106,135,12692,1,0
106,135,12880,2,0,B|96:232|-8:184,1,150
128,264,13630,5,4
280,264,14005,5,0
280,264,14192,1,0
280,264,14380,2,0,B|432:248,1,150,4|0
296,176,15130,6,0,B|296:88|192:88,1,150,8|0
198,88,15692,1,0
198,88,15880,2,0,B|192:184|120:104|112:192,1,150
200,312,16630,5,4
352,312,17005,5,0
352,312,17192,1,0
352,312,17380,2,0,B|304:168,1,150,4|0
200,248,18130,5,2
200,248,18317,1,0
312,248,18505,1,2
312,248,18692,1,0
312,136,18880,1,2
312,136,19067,1,0
200,136,19255,1,2
200,136,19442,1,0
256,192,19630,5,8
256,192,19817,1,0
256,192,20192,5,8
256,192,20379,1,0
408,192,20755,5,0
408,120,20942,1,0
408,192,21130,2,0,B|456:264|408:336,1,150
360,264,21692,1,0
288,264,21880,2,0,B|136:264,1,150
256,176,22630,5,0
256,104,22817,1,0
112,104,23192,1,0
184,104,23380,1,0
112,248,23755,1,0
112,176,23942,1,0
184,176,24130,5,0
40,176,24505,1,0
40,320,24880,1,0
112,320,25067,1,0
184,320,25255,1,0
328,320,25630,5,0
256,320,25817,1,0
328,176,26192,1,0
328,248,26380,1,0
472,176,26755,1,0
400,176,26942,1,0
400,104,27130,6,0,B|248:104,1,150
224,176,27692,1,0
200,248,27880,2,0,B|48:248,1,150
32,176,28442,1,0
104,176,28630,5,0
104,104,28817,1,0
104,256,29192,1,0
184,256,29380,1,0
104,328,29755,1,0
104,256,29942,1,0
104,176,30130,6,0,B|256:176,1,150
404,176,30880,2,0,B|252:176,1,150
216,320,31630,6,0,B|136:320,1,75,2|0
296,256,32005,2,0,B|376:256,1,75,2|0
216,192,32380,2,0,B|136:192,1,75,2|0
296,128,32755,2,0,B|376:128,1,75,2|0
216,64,33130,6,0,B|64:64,1,150
144,104,33692,1,0
216,144,33880,2,0,B|64:144,1,150
184,232,34630,6,0,B|264:232,1,75,2|0
320,192,35005,2,0,B|240:192,1,75,2|0
304,152,35380,2,0,B|384:152,1,75,2|0
440,112,35755,2,0,B|360:112,1,75,2|0
304,72,36130,6,0,B|248:24|160:24,1,150
168,96,36692,1,0
168,96,36786,1,0
168,96,36880,2,0,B|176:176|96:224,1,150
256,136,37630,6,0,B|256:88|304:88,1,75,2|0
312,192,38005,2,0,B|360:192|360:240,1,75,2|0
256,248,38380,2,0,B|256:296|208:296,1,75,2|0
200,192,38755,2,0,B|152:192|152:144,1,75,2|0
80,152,39130,6,0,B|0:336|224:336,1,300
368,336,40255,1,0
368,184,40630,6,0,B|328:112,1,75,2|0
331,118,41005,2,0,B|288:184,1,75,2|0
290,180,41380,2,0,B|248:112,1,75,2|0
250,116,41755,2,0,B|208:184,1,75,2|0
136,176,42130,2,0,B|64:208|152:272|72:304,1,150
224,256,42880,2,0,B|376:256,1,150
256,168,43630,6,0,B|184:112|106:175,1,150
184,216,44192,1,0
256,248,44380,2,0,B|304:368|349:235,2,150
280,176,45317,1,0
304,104,45505,2,0,B|456:104,2,150
152,104,46630,6,0,B|80:152|112:240,1,150
176,184,47192,2,0,B|248:128|208:48,2,150
328,184,48317,1,0
328,256,48505,1,0
400,256,48692,1,0
400,184,48880,1,0
328,184,49067,1,0
256,184,49255,1,0
256,112,49442,1,0
328,112,49630,6,0,B|328:24|224:24,1,150,4|0
230,24,50192,1,0
176,72,50380,2,0,B|88:200,2,150
232,120,51317,1,0
280,176,51505,1,0
280,248,51692,1,0
232,304,51880,2,0,B|144:336|176:248|88:304,1,150
8,176,52630,6,0,B|160:176,1,150
8,104,53380,2,0,B|160:104,1,150
304,136,54130,1,0
304,136,54317,1,0
304,136,54505,1,0
456,136,54880,2,0,B|496:208|456:280,1,150
304,288,55630,6,0,B|152:288,1,150,4|0
376,288,56380,1,8
256,192,56755,5,0
304,360,57130,6,0,B|152:360,1,150,4|0
376,360,57880,1,8
256,192,58255,5,0
256,48,58630,6,0,B|408:48,1,150,4|0
256,120,59380,2,0,B|104:120,1,150
104,272,60130,1,0
104,272,60505,2,0,B|256:272,2,150
256,192,61630,12,4,66130
256,192,66223,12,4,67630
64,192,73630,6,0,B|0:272|112:304,1,150,8|0
104,301,74192,1,0
104,301,74380,2,0,B|160:248|248:256,1,150
256,104,75130,5,4
280,256,75505,5,0
280,256,75692,1,0
280,256,75880,2,0,B|432:256,1,150,4|0
280,184,76630,6,0,B|128:184,1,150,8|0
130,184,77192,1,0
130,184,77380,2,0,B|72:120|136:48,1,150
256,136,78130,5,4
376,48,78505,5,0
376,48,78692,1,0
376,48,78880,2,0,B|424:192,1,150,4|0
256,192,79630,5,8
256,192,79817,1,0
256,192,80192,5,8
256,192,80380,1,0
312,328,80755,5,0
256,376,80942,1,0
200,328,81130,2,0,B|48:328,1,150
48,256,81692,1,0
120,256,81880,2,0,B|120:104,1,150
256,48,82630,5,0
328,48,82817,1,0
328,192,83192,1,0
328,120,83380,1,0
472,120,83755,1,0
400,120,83942,1,0
400,192,84130,6,0,B|408:344,1,150
256,344,84880,2,0,B|248:192,1,150
256,48,85630,5,0
184,48,85817,1,0
184,192,86192,1,0
184,120,86380,1,0
40,120,86755,1,0
112,120,86942,1,0
112,192,87130,6,0,B|120:344,1,150
272,344,87880,2,0,B|264:192,1,150
408,192,88630,5,0
480,192,88817,1,0
480,48,89192,1,0
480,120,89380,1,0
336,120,89755,1,0
408,120,89942,1,0
408,48,90130,6,0,B|256:48,1,150
107,48,90880,2,0,B|260:48,1,150
256,200,91630,6,0,B|256:120,1,75,2|0
304,248,92005,2,0,B|384:248,1,75,2|0
256,296,92380,2,0,B|256:376,1,75,2|0
208,248,92755,2,0,B|128:248,1,75,2|0
56,248,93130,6,0,B|32:176|56:96,1,150
208,104,93880,2,0,B|360:104,1,150
240,192,94630,6,0,B|288:256,1,75,2|0
208,272,95005,2,0,B|264:344,1,75,2|0
160,216,95380,2,0,B|112:152,1,75,2|0
192,136,95755,2,0,B|136:64,1,75,2|0
208,40,96130,6,0,B|360:40,1,150
408,96,96692,1,0
408,96,96786,1,0
408,96,96880,2,0,B|512:120|440:208,1,150,0|0
312,264,97630,6,0,B|232:264,1,75,2|0
237,188,98005,2,0,B|237:266,1,75,2|0
161,263,98380,2,0,B|239:263,1,75,2|0
236,339,98755,2,0,B|236:261,1,75,2|0
184,216,99130,6,0,B|-8:216|-8:32,1,300
296,40,100630,2,0,B|376:40,1,75,2|0
448,40,101005,2,0,B|464:80|448:120,1,75,2|0
376,112,101380,2,0,B|296:112,1,75,2|0
224,112,101755,2,0,B|200:192|224:264,1,150
222,259,102317,1,0
222,259,102505,1,0
344,176,102880,2,0,B|408:128|416:224|488:176,1,150
344,248,103630,6,0,B|344:344|248:344,1,150,4|0
344,176,104380,2,0,B|344:80|440:80,2,150
192,176,105505,1,0
40,176,105880,1,0
192,176,106255,1,0
40,176,106630,6,0,B|0:248|40:320,1,150
88,248,107192,2,0,B|248:248,1,150
238,248,107755,1,0
384,248,108130,1,0
464,248,108317,2,0,B|480:96,1,150
408,88,108880,2,0,B|328:88,1,75
352,160,109255,2,0,B|272:160,1,75
296,240,109630,6,0,B|144:240,1,150,4|0
368,240,110380,2,0,B|520:240,2,150
296,240,111317,2,0,B|248:176,1,75
192,232,111692,1,0
184,152,111880,2,0,B|104:168,1,75
32,168,112255,1,0
152,80,112630,6,0,B|224:56|304:80,1,150
447,80,113380,2,0,B|375:56|295:80,1,150,0|0
296,232,114130,1,0
296,160,114317,1,0
296,232,114505,2,0,B|144:232,2,150
448,232,115630,6,0,B|448:80,1,150,4|0
448,82,116192,1,0
448,82,116380,1,8
256,192,116755,5,0
64,152,117130,6,0,B|64:304,1,150,4|0
64,302,117692,1,0
64,302,117880,1,8
256,192,118255,5,0
408,192,118630,6,0,B|408:352,1,150
255,342,119380,1,0
102,342,119755,1,0
102,188,120130,1,0
102,112,120317,1,0
102,35,120505,1,0
255,35,120880,1,0
408,35,121255,1,0
256,192,121630,12,4,126130
256,192,126223,12,12,127255
224,160,127630,6,0,B|152:120|80:160,1,150
80,159,128380,1,8
288,224,128755,6,0,B|360:264|432:224,1,150
431,224,129505,1,8
256,192,129880,5,2
256,192,130067,1,0
256,192,130255,1,2
256,192,130442,1,0
336,272,130630,6,0,B|472:352,1,150
465,348,131380,1,8
176,112,131755,6,0,B|40:32,1,150
46,35,132505,1,8
256,192,132880,5,2
256,192,133067,1,0
256,192,133255,1,2
256,192,133442,1,0
128,64,133630,6,0,B|80:24|16:72|24:120,1,150
23,119,134380,1,8
384,320,134755,6,0,B|432:360|496:312|488:264,1,150
488,264,135505,1,8
256,192,135880,5,2
256,192,136067,1,0
256,192,136255,1,2
256,192,136442,1,0
80,16,136630,6,0,B|24:160,1,150
25,155,137380,1,8
432,368,137755,6,0,B|488:224,1,150
486,228,138505,1,8
256,192,138880,5,4
256,192,139255,1,0
256,40,139630,6,2,B|64:40|64:224,2,300,2|2|8
408,40,141505,1,0
408,192,141880,1,8
408,344,142255,1,0
256,344,142630,6,2,B|64:344|64:160,2,300,2|2|8
408,344,144505,1,0
408,192,144880,1,8
408,40,145255,1,0
256,40,145630,6,2,B|64:40|64:224,2,300,2|2|8
408,40,147505,1,0
408,192,147880,1,8
408,344,148255,1,0
336,192,148630,6,2,B|32:192,1,300,2|0
336,192,150130,1,0
408,192,150317,1,0
184,192,150880,1,0
32,192,151255,1,0
256,280,151630,5,0
344,192,152005,1,0
256,104,152380,1,0
168,192,152755,1,0
392,192,153130,5,0
256,328,153505,1,0
120,192,153880,1,0
256,56,154255,1,0
256,376,154630,5,4
72,192,155005,1,0
256,8,155380,1,4
440,192,155755,1,0
0,0,156130,5,4
512,0,156505,1,0
512,384,156880,1,4
0,384,157255,1,0
216,160,157630,6,0,B|168:96,1,75,2|0
296,160,158005,2,0,B|344:96,1,75,2|0
256,232,158380,2,0,B|256:384,2,150,0|2|0
256,160,159317,2,2,B|208:104|208:24|256:16|312:24|312:80,1,225,2|0
311,73,159973,1,0
311,73,160067,1,0
384,72,160255,1,0
456,72,160442,1,0
456,144,160630,6,2,B|496:184|432:240|456:288,1,150,2|0
384,320,161192,1,0
312,296,161380,1,0
160,296,161755,2,2,B|88:320|8:296,1,150,2|0
12,297,162223,1,0
12,297,162317,1,0
8,224,162505,2,0,B|80:200,1,75
96,128,162880,1,0
96,128,162973,1,0
96,128,163067,1,0
152,72,163255,6,2,B|224:48|304:72,1,150,2|0
299,70,163723,1,0
299,70,163817,1,0
368,96,164005,2,0,B|432:80|400:136,1,75,2|0
432,200,164380,1,0
432,200,164473,1,0
432,200,164567,1,0
408,272,164755,2,0,B|440:328|376:312,1,75,2|0
312,320,165130,5,0
312,320,165223,1,0
312,320,165317,1,0
240,312,165505,2,0,B|200:360|192:296,1,75,2|0
120,272,165880,1,0
120,272,165973,1,0
120,272,166067,1,0
104,200,166255,2,0,B|48:184|104:152,1,75,2|0
136,88,166630,5,0
136,88,166723,1,0
136,88,166817,1,0
208,88,167005,2,0,B|192:152|248:120,1,75,2|0
320,120,167380,2,0,B|400:120,1,75
320,192,167755,2,0,B|400:192,1,75,2|0
320,264,168130,5,0
320,264,168223,1,0
320,264,168317,1,0
248,264,168505,1,2
248,264,168598,1,0
248,264,168692,1,0
248,264,168786,1,0
248,264,168880,1,0
176,264,169067,1,0
176,264,169161,1,0
176,264,169255,6,2,B|80:296|80:192,1,150,2|8
80,193,169817,1,0
208,112,170192,1,8
208,112,170380,1,0
144,152,170567,1,0
144,152,170755,1,8
376,112,171692,5,0
376,112,171786,1,0
376,112,171880,2,0,B|400:184|376:264,1,150
248,184,172630,6,0,B|96:184,1,150,4|0
248,104,173380,2,0,B|400:104,2,150
248,264,174505,1,0
104,224,174880,2,0,B|0:168|104:120,1,150
240,168,175630,6,0,B|392:168,1,150
456,208,176192,1,0
312,240,176567,2,0,B|240:288|168:240,1,150
171,242,177130,1,0
24,240,177505,2,0,B|24:88,1,150
96,80,178067,1,0
96,80,178255,1,0
168,88,178442,1,0
240,80,178630,6,0,B|392:80,1,150,4|0
240,152,179380,2,0,B|392:152,2,150
240,224,180317,1,0
168,248,180505,1,0
224,296,180692,1,0
296,272,180880,2,0,B|448:272,1,150
320,192,181630,6,0,B|360:128|320:40,1,150,0|0
192,192,182380,2,0,B|152:128|192:40,1,150
256,184,183130,1,0
256,256,183317,1,0
256,184,183505,1,0
256,336,183880,2,0,B|408:336,1,150
184,336,184630,6,0,B|32:336,1,150,4|0
32,192,185192,1,0
32,48,185380,1,8
256,112,185755,5,4
328,336,186130,6,0,B|480:336,1,150,4|0
480,192,186693,1,0
480,48,186880,1,8
256,112,187255,5,4
216,256,187630,6,0,B|64:256,1,150,4|0
296,256,188380,2,0,B|448:256,1,150
256,192,189130,1,0
256,192,189317,1,0
256,192,189505,1,0
256,120,189692,1,0
256,120,189880,1,0
256,264,190255,1,0
256,192,190630,12,0,195130
256,0,195505,5,0
256,384,195880,5,0
256,192,196630,5,12
