osu file format v5

[General]
AudioFilename: 03. Life Is Beautiful.mp3
AudioLeadIn: 0
PreviewTime: 50758
Countdown: 2
SampleSet: Normal
StackLeniency: 0.7
Mode: 0
LetterboxInBreaks: 1
EditorBookmarks: 21436,32436,43069,53070,66069,78736,85403,96403,103736,119403,149068,159402,172735,183735,194068,207401

[Metadata]
Title:Life Is Beautiful
Artist:Sixx:A.M.
Creator:TiZ
Version:Normal
Source:
Tags:

[Difficulty]
HPDrainRate:5
CircleSize:5
OverallDifficulty:5
SliderMultiplier:1.2
SliderTickRate:1

[Events]
//Background and Video events
0,0,"heroindiaries.jpg"
1,-9800,"video.avi"
//Break Periods
2,78603,84536
2,131936,148202
//Storyboard Layer 0 (Background)
//Storyboard Layer 1 (Failing)
//Storyboard Layer 2 (Passing)
//Storyboard Layer 3 (Foreground)
//Storyboard Sound Samples
//Background Colour Transformations
3,100,163,162,255

[TimingPoints]
8070,333.333333333333,4,1,1,60,1,0
128069,333.333333333333,4,2,1,60,1,0
181402,333.333333333333,4,1,1,60,1,0

[Colours]
Combo1 : 128,128,128
Combo2 : 0,0,0
Combo3 : 128,0,0
Combo4 : 240,5,5

[HitObjects]
256,192,21403,1,0
336,192,21736,1,0
416,192,22069,1,0
416,112,22403,1,0
352,64,22736,1,0
288,112,23069,1,0
224,64,23403,1,0
160,112,23736,1,0
208,176,24069,1,0
144,224,24403,1,0
80,176,24736,1,0
80,96,25069,1,0
144,48,25403,1,0
224,48,25736,1,0
304,48,26069,2,0,C|432:48,2,120
304,128,27069,5,0
384,128,27403,1,0
464,128,27736,1,0
464,208,28069,1,0
464,288,28403,1,0
400,336,28736,1,0
320,336,29069,1,0
240,336,29403,1,0
160,336,29736,1,0
80,336,30069,1,0
48,272,30403,1,0
48,192,30736,2,0,C|48:64,3,120
128,64,32403,5,0
208,64,32736,1,0
288,64,33069,2,0,C|416:64,1,120
432,144,33736,2,0,C|432:272,3,120
352,304,35069,5,0
272,304,35403,1,0
192,304,35736,2,0,C|64:256,1,120
128,192,36403,2,0,C|256:192,3,120
320,160,37736,5,0
384,208,38069,1,0
320,256,38403,1,0
256,208,38736,1,0
176,208,39069,2,0,C|48:208,1,120
64,128,39736,2,0,C|176:80,1,120
288,64,40736,1,0
384,96,41403,2,0,C|447:206|368:288,2,240
320,144,43070,5,0
320,224,43403,1,0
320,304,43736,2,0,C|192:304,1,120
192,224,44403,2,0,C|192:96,3,120
256,64,45736,5,0
256,144,46070,1,0
336,144,46403,2,0,C|336:272,1,120
256,272,47070,2,0,C|128:272,3,120
80,208,48403,5,0
80,128,48736,1,0
144,80,49070,1,0
208,128,49403,1,0
256,192,49736,1,0
304,128,50070,1,0
352,192,50403,1,0
352,272,50736,2,0,C|112:272,1,240
112,192,51736,1,0
112,112,52070,2,0,C|352:112,1,240
336,192,53070,1,0
256,192,53403,12,0,55403
256,192,55736,5,0
336,192,56070,1,0
416,192,56403,1,0
416,112,56736,1,0
352,64,57070,2,0,B|256:112|112:48|64:256,1,360
144,272,58403,5,0
224,272,58736,1,0
304,272,59070,1,0
304,192,59403,1,0
304,112,59736,2,0,B|433:149|448:320,1,240
448,208,60736,1,0
448,128,61070,1,0
400,64,61403,6,0,B|144:64,1,240
112,128,62403,1,0
112,208,62736,2,0,B|368:208,1,240
304,272,63736,1,0
256,192,64070,12,0,65736
64,320,66069,5,0
64,240,66403,1,0
64,160,66736,1,0
64,80,67069,1,0
144,48,67403,1,0
208,96,67736,2,0,B|160:192|256:256|352:192,1,240
448,64,69069,5,0
448,144,69403,1,0
448,224,69736,1,0
448,304,70069,1,0
368,304,70403,2,0,B|288:192|368:64,2,240
272,304,72069,6,0,B|144:304|64:160,1,240
112,112,73069,1,0
176,64,73403,2,0,B|320:64|320:224,1,240
256,256,74403,1,0
256,192,74736,12,0,78403
64,64,85736,5,0
144,64,86069,1,0
224,64,86403,1,0
304,64,86736,2,0,B|304:192,1,120
224,192,87403,2,0,B|96:192,2,120
224,272,88403,5,0
304,272,88736,1,0
384,272,89069,1,0
448,208,89403,2,0,B|448:64,1,120
368,64,90069,2,0,B|288:64|224:96,2,120
368,144,91069,5,0
288,144,91403,1,0
288,224,91736,1,0
288,304,92069,1,0
208,304,92403,1,0
128,304,92736,1,0
64,256,93069,2,0,B|64:176|128:128,1,120
208,80,94069,1,0
208,192,94736,2,0,B|336:192|368:128|352:48,2,240
208,320,96736,5,0
288,320,97069,1,0
368,320,97403,1,0
448,320,97736,2,0,B|448:192,1,120
416,128,98403,2,0,B|377:55|320:48,2,120
336,160,99403,5,0
256,160,99736,1,0
176,160,100069,1,0
96,160,100403,2,0,B|96:224|176:256,1,120
240,256,101069,2,0,B|368:256,2,120
240,176,102069,5,0
240,96,102403,1,0
320,96,102736,2,0,B|448:96,2,120
368,192,104069,6,0,B|352:128|240:80|144:96,1,240
96,128,105069,1,0
96,208,105403,2,0,B|144:288|320:288,1,240
320,208,106403,1,0
256,192,106736,12,0,108736
256,192,109069,5,0
176,192,109403,1,0
176,112,109736,1,0
256,112,110069,1,0
336,112,110403,2,0,B|335:271|300:272|64:272,1,360
80,192,111736,5,0
80,112,112069,1,0
144,64,112403,1,0
224,64,112736,1,0
304,64,113069,2,0,B|432:64|432:240,1,240
400,304,114069,2,0,B|272:304,1,120
336,224,114736,6,0,B|80:224,1,240
96,144,115736,1,0
176,144,116069,2,0,B|432:144,1,240
416,224,117069,1,0
256,192,117403,12,0,119069
448,64,119403,5,0
368,64,119736,1,0
368,144,120069,1,0
448,144,120403,1,0
448,224,120736,1,0
368,224,121069,2,0,B|250:238|224:176|128:160,1,240
64,256,122403,5,0
112,320,122736,1,0
192,320,123069,1,0
272,320,123403,1,0
352,320,123736,2,0,B|448:240|400:96,2,240
336,240,125403,6,0,B|336:112|192:64,1,240
192,144,126403,1,0
192,224,126736,2,0,B|320:248|352:64,1,240
272,80,127736,1,0
256,192,128069,12,0,131736
64,320,149402,5,0
144,320,149735,1,0
224,320,150068,1,0
224,240,150402,1,0
224,160,150735,1,0
144,192,151068,1,0
64,160,151402,1,0
64,80,151735,1,0
144,80,152068,5,0
224,80,152402,1,0
304,80,152735,1,0
352,144,153068,1,0
304,208,153402,1,0
352,272,153735,1,0
432,272,154068,1,0
448,192,154402,1,0
448,112,154735,6,0,B|319:77|192:96,1,240
128,96,155735,1,0
144,176,156068,2,0,B|288:208|368:272,1,240
304,320,157068,1,0
224,320,157402,2,0,B|112:304|64:224|64:160,2,240
224,240,159068,1,0
224,160,159402,2,0,B|352:160,1,120
256,192,160068,12,0,162068
448,192,162402,5,0
368,192,162735,1,0
288,192,163068,1,0
208,192,163402,1,0
128,192,163735,2,0,B|128:64|208:64|416:64,1,360
416,144,165068,5,0
416,224,165402,1,0
416,304,165735,1,0
336,320,166068,1,0
256,320,166402,2,0,B|64:320|64:208,1,240
144,208,167402,1,0
224,208,167735,1,0
224,128,168068,6,0,B|352:128|352:304,1,240
432,288,169068,1,0
432,208,169402,2,0,B|432:80|409:48|288:64,1,240
224,64,170402,1,0
256,192,170735,12,0,172402
256,192,172735,5,0
256,272,173068,1,0
192,320,173402,1,0
112,320,173735,1,0
64,256,174068,1,0
64,176,174402,2,0,B|64:48|208:48|288:96|320:192,1,360
304,256,175735,5,0
352,320,176068,1,0
432,320,176402,1,0
448,240,176735,1,0
448,160,177068,2,0,B|384:80|192:128,2,240
384,208,178735,6,0,B|304:288|160:208,1,240
160,128,179735,1,0
224,64,180069,2,0,B|336:64|352:256,1,240
272,224,181069,1,0
256,192,181402,12,0,183402
256,192,183735,5,0
176,192,184069,1,0
96,192,184402,1,0
96,272,184735,1,0
160,320,185069,2,0,B|256:272|400:336|448:128,1,360
368,112,186402,5,0
288,112,186735,1,0
208,112,187069,1,0
208,192,187402,1,0
208,272,187735,2,0,B|79:235|64:64,1,240
64,176,188735,1,0
64,256,189069,1,0
112,320,189402,6,0,B|368:320,1,240
400,256,190402,1,0
400,176,190735,2,0,B|144:176,1,240
208,112,191735,1,0
256,192,192069,12,0,193735
448,64,194068,5,0
448,144,194402,1,0
448,224,194735,1,0
448,304,195068,1,0
368,336,195402,1,0
304,288,195735,2,0,B|352:192|256:128|160:192,1,240
64,320,197068,5,0
64,240,197402,1,0
64,160,197735,1,0
64,80,198068,1,0
144,80,198402,2,0,B|224:192|144:320,2,240
240,80,200068,6,0,B|368:80|448:224,1,240
400,272,201068,1,0
336,320,201402,2,0,B|192:320|192:160,1,240
256,128,202402,1,0
256,192,202735,12,0,206735
