osu file format v5

[General]
AudioFilename: 03. Life Is Beautiful.mp3
AudioLeadIn: 0
PreviewTime: 50758
Countdown: 2
SampleSet: Normal
StackLeniency: 0.7
Mode: 0
LetterboxInBreaks: 1
EditorBookmarks: 21436,32436,43069,53070,66069,78736,85403,96403,103736,119403,149068,159402,172735,183735,194068,207401

[Metadata]
Title:Life Is Beautiful
Artist:Sixx:A.M.
Creator:TiZ
Version:Hard
Source:
Tags:

[Difficulty]
HPDrainRate:6
CircleSize:5
OverallDifficulty:6
SliderMultiplier:1.2
SliderTickRate:1

[Events]
//Background and Video events
0,0,"heroindiaries.jpg"
1,-9800,"video.avi"
//Break Periods
2,78603,84536
2,131936,148202
//Storyboard Layer 0 (Background)
//Storyboard Layer 1 (Failing)
//Storyboard Layer 2 (Passing)
//Storyboard Layer 3 (Foreground)
//Storyboard Sound Samples
//Background Colour Transformations
3,100,163,162,255

[TimingPoints]
8070,333.333333333333,4,1,1,40,1,0
128069,333.333333333333,4,2,1,40,1,0
181402,333.333333333333,4,1,1,40,1,0

[Colours]
Combo1 : 128,128,128
Combo2 : 0,0,0
Combo3 : 128,0,0
Combo4 : 240,5,5

[HitObjects]
112,112,21403,1,0
144,160,21569,1,0
176,208,21736,1,0
208,256,21903,1,0
256,224,22069,1,0
272,176,22236,1,0
288,80,22569,2,0,B|416:80,1,120
416,128,23069,5,0
416,192,23236,1,0
384,240,23403,1,0
352,288,23569,1,0
256,288,23903,2,0,B|128:288,1,120
112,240,24403,5,0
80,192,24569,1,0
80,128,24736,1,0
128,96,24903,1,0
224,64,25236,2,0,B|352:64,1,120
400,64,25736,5,0
400,128,25903,1,0
368,176,26069,1,0
304,176,26236,2,0,B|224:176,2,60
272,224,26736,5,0
240,272,26903,1,0
272,320,27069,1,0
320,304,27236,1,0
352,256,27403,1,0
320,208,27569,1,0
320,112,27903,2,0,B|448:112,1,120
448,160,28403,5,0
448,224,28569,1,0
448,288,28736,1,0
400,320,28903,1,0
304,320,29236,2,0,B|176:320,1,120
128,320,29736,5,0
80,288,29903,1,0
64,224,30069,1,0
64,160,30236,1,0
80,64,30569,5,0
144,64,30736,1,0
176,112,30903,1,0
208,160,31070,1,0
240,208,31236,1,0
288,144,31403,1,0
320,192,31570,1,0
352,240,31736,1,0
384,288,31903,1,0
416,192,32403,5,0
416,128,32569,1,0
416,64,32736,1,0
320,64,33069,1,0
320,128,33236,1,0
320,192,33403,1,0
224,192,33736,1,0
224,128,33903,1,0
160,128,34069,1,0
160,64,34236,1,0
96,64,34403,1,0
96,128,34569,1,0
96,192,34736,1,0
96,288,35069,6,0,B|160:288,2,60
96,192,35736,2,0,B|96:128,2,60
192,192,36403,1,0
192,256,36569,1,0
256,256,36736,2,0,B|256:192,1,60
256,128,37069,2,0,B|320:128,2,60
160,128,37736,5,0
96,128,37903,1,0
96,192,38069,1,0
96,288,38403,2,0,B|224:288,1,120
272,224,39069,1,0
272,160,39236,1,0
272,96,39403,1,0
368,96,39736,6,0,B|464:96|448:192,2,120
368,160,40736,2,0,B|368:224|256:224,1,120
224,224,41403,2,0,B|224:160|112:144,1,120
80,96,42069,1,0
80,96,42236,1,0
80,96,42403,1,0
80,96,42569,1,0
80,96,42736,1,0
80,192,43069,5,0
80,256,43236,1,0
144,256,43403,1,0
192,176,43736,1,0
256,176,43903,1,0
256,112,44069,1,0
336,80,44403,1,0
368,128,44569,1,0
336,176,44736,1,0
384,208,44903,1,0
416,256,45069,1,0
368,288,45236,1,0
304,288,45403,1,0
208,288,45736,6,0,B|144:288,2,60
160,208,46403,2,0,B|160:144,2,60
256,208,47069,1,0
256,144,47236,1,0
320,144,47403,2,0,B|384:144,1,60
384,80,47736,2,0,B|320:80,2,60
432,160,48403,5,0
432,224,48569,1,0
368,224,48736,1,0
304,160,49069,2,0,B|240:160|240:256,1,120
144,240,49736,1,0
144,176,49903,1,0
144,112,50069,1,0
240,96,50403,6,0,B|368:96,2,120
176,160,51403,1,0
240,224,51736,2,0,B|112:224,2,120
336,224,52736,1,0
336,224,52903,1,0
336,224,53069,1,0
336,224,53236,1,0
256,192,53403,12,0,55403
