osu file format v14

[General]
AudioFilename: umred.mp3
AudioLeadIn: 1500
PreviewTime: 57431
Countdown: 0
SampleSet: Soft
StackLeniency: 0.7
Mode: 0
LetterboxInBreaks: 0
WidescreenStoryboard: 0

[Editor]
DistanceSpacing: 1.2
BeatDivisor: 4
GridSize: 4
TimelineZoom: 1

[Metadata]
Title:Hidamari Days
TitleUnicode:ひだまりデイズ
Artist:SisterS
ArtistUnicode:妹S
Creator:Karen
Version:Insane
Source:干物妹!うまるちゃん
Tags:Himouto! Umaruchan ending kawaiwkyik Rizia m1223961117 DreaM117er Flask IamKwaN Spring_Roll TV Size Doma Umaru
BeatmapID:757814
BeatmapSetID:342893

[Difficulty]
HPDrainRate:6
CircleSize:4
OverallDifficulty:6
ApproachRate:8
SliderMultiplier:1.6
SliderTickRate:1

[Events]
//Background and Video events
0,0,"bg.png",0,0
//Break Periods
//Storyboard Layer 0 (Background)
//Storyboard Layer 1 (Fail)
//Storyboard Layer 2 (Pass)
//Storyboard Layer 3 (Foreground)
//Storyboard Sound Samples

[TimingPoints]
1014,447.761194029851,4,2,1,70,1,0

[Colours]
Combo1 : 220,135,139
Combo2 : 255,216,221
Combo3 : 76,57,103
Combo4 : 75,156,177

[HitObjects]
121,154,1013,6,0,L|222:140,1,80,4|4,0:0|0:0,0:0:0:0:
284,189,1461,1,8,0:0:0:0:
240,274,1685,2,0,L|160:284,1,80
73,241,2133,1,0,0:0:0:0:
121,154,2357,1,8,0:0:0:0:
76,68,2581,1,0,0:0:0:0:
76,68,2693,1,0,0:0:0:0:
76,68,2805,6,0,P|31:62|-8:31,1,80
152,16,3252,1,8,0:0:0:0:
236,61,3476,2,0,P|259:96|263:165,1,80,0|0,0:0|0:0,0:0:0:0:
268,153,3812,1,0,0:0:0:0:
264,172,3924,1,0,0:0:0:0:
208,250,4148,2,0,L|315:252,1,80,8|0,0:0|0:0,0:0:0:0:
375,291,4596,6,0,P|386:252|378:214,1,80
302,341,5043,1,8,0:0:0:0:
432,365,5267,2,0,L|542:363,1,80
507,262,5715,1,0,0:0:0:0:
507,262,5827,1,0,0:0:0:0:
507,262,5939,2,0,L|500:158,1,80,8|0,0:0|0:0,0:0:0:0:
443,105,6387,5,0,0:0:0:0:
349,124,6611,1,8,0:0:0:0:
408,198,6834,1,0,0:0:0:0:
443,105,7058,1,8,0:0:0:0:
379,32,7282,1,0,0:0:0:0:
283,45,7506,1,8,0:0:0:0:
264,51,7618,1,8,0:0:0:0:
244,56,7730,1,8,0:0:0:0:
224,59,7842,1,8,0:0:0:0:
204,60,7954,1,8,0:0:0:0:
183,60,8066,1,8,0:0:0:0:
161,55,8178,6,0,P|167:98|151:150,1,80,4|0,0:0|0:0,0:0:0:0:
126,222,8625,1,8,0:0:0:0:
176,303,8849,2,0,L|284:317,2,80,0|0|0,0:0|0:0|0:0,0:0:0:0:
89,347,9521,2,0,P|50:358|11:354,1,80,8|0,0:0|0:0,0:0:0:0:
40,262,9969,5,0,0:0:0:0:
126,222,10193,1,0,0:0:0:0:
176,303,10416,1,8,0:0:0:0:
249,365,10640,2,0,P|295:373|350:356,1,80
369,280,11088,1,0,0:0:0:0:
423,200,11312,1,8,0:0:0:0:
462,287,11536,1,0,0:0:0:0:
462,287,11648,1,0,0:0:0:0:
462,287,11760,6,0,L|467:384,1,80,0|0,0:0|0:0,0:0:0:0:
369,280,12208,1,8,0:0:0:0:
423,200,12431,2,0,P|461:191|501:195,1,80
462,287,12879,1,0,0:0:0:0:
369,280,13103,6,0,P|325:201|358:126,1,160,8|0,0:0|0:0,0:0:0:0:
437,111,13775,1,8,0:0:0:0:
367,48,13999,1,8,0:0:0:0:
346,48,14111,1,8,0:0:0:0:
326,48,14222,1,8,0:0:0:0:
306,49,14334,1,8,0:0:0:0:
286,50,14446,1,8,0:0:0:0:
225,124,14670,1,8,0:0:0:0:
225,124,14782,1,8,0:0:0:0:
225,124,14894,1,8,0:0:0:0:
225,124,15006,1,8,0:0:0:0:
225,124,15118,2,0,L|220:162,3,26.6666666666667,8|8|8|12,0:0|0:0|0:0|0:0,0:0:0:0:
152,218,15566,5,0,0:0:0:0:
62,253,15790,1,2,0:3:0:0:
30,343,16014,1,0,0:0:0:0:
30,343,16125,2,0,P|96:341|150:289,1,120
152,218,16685,1,2,0:3:0:0:
74,161,16909,2,0,L|75:75,1,80,0|2,0:0|0:3,0:0:0:0:
152,23,17357,5,0,0:0:0:0:
232,74,17581,1,2,0:3:0:0:
322,42,17805,2,0,P|395:7|482:60,1,160,0|0,0:0|0:0,0:0:0:0:
493,126,18476,2,0,B|441:138|397:102|397:102|395:175,1,160,2|2,0:3|0:3,0:0:0:0:
452,236,19148,5,0,0:0:0:0:
362,270,19372,2,0,P|295:286|267:282,1,80,2|0,0:3|0:0,0:0:0:0:
244,258,19708,2,0,L|254:379,1,120,0|0,0:0|0:0,0:0:0:0:
348,362,20267,1,2,0:3:0:0:
435,321,20491,6,0,P|480:309|524:322,1,80,0|2,0:0|0:3,0:0:0:0:
348,362,20939,2,0,L|233:362,1,80,0|2,0:0|0:3,0:0:0:0:
180,321,21387,1,0,0:0:0:0:
180,321,21499,1,0,0:0:0:0:
180,321,21611,1,2,0:3:0:0:
102,264,21834,1,0,0:0:0:0:
43,340,22058,1,2,0:3:0:0:
43,340,22170,1,0,0:0:0:0:
43,340,22282,1,0,0:0:0:0:
11,249,22506,6,0,P|38:193|117:170,1,120,2|0,0:3|0:0,0:0:0:0:
136,170,22954,2,0,L|198:183,2,40,2|0|0,0:3|0:0|0:0,0:0:0:0:
98,81,23402,2,0,P|51:78|12:57,1,80,2|0,0:3|0:0,0:0:0:0:
164,15,23849,2,0,P|211:18|250:39,1,80,2|0,0:3|0:0,0:0:0:0:
301,106,24297,6,0,P|283:159|320:228,1,120,2|0,0:3|0:0,0:0:0:0:
341,249,24745,2,0,L|234:259,1,80,2|0,0:3|0:0,0:0:0:0:
188,319,25193,1,2,0:3:0:0:
271,366,25416,2,0,L|350:358,1,80,0|2,0:0|0:3,0:0:0:0:
442,328,25864,1,0,0:0:0:0:
500,251,26088,6,0,P|524:173|459:95,1,160,2|2,0:2|0:3,0:0:0:0:
428,186,26760,1,0,0:0:0:0:
354,247,26984,2,0,B|306:280|306:280|222:217,1,160,2|0,0:3|0:3,0:0:0:0:
165,143,27655,1,0,0:0:0:0:
128,54,27879,6,0,P|171:47|226:69,1,80,2|0,0:3|0:0,0:0:0:0:
165,143,28327,1,2,0:3:0:0:
86,197,28551,1,2,0:0:0:0:
86,197,28663,1,0,0:0:0:0:
86,197,28775,1,2,0:0:0:0:
34,115,28999,1,2,0:0:0:0:
165,143,29222,2,0,L|210:138,5,26.6666666666667
220,154,29670,6,0,P|227:212|214:245,1,80,4|0,0:0|0:0,0:0:0:0:
139,282,30118,2,0,L|24:292,1,80,2|0,0:3|0:0,0:0:0:0:
43,334,30454,2,0,L|182:322,1,120,0|0,0:0|0:0,0:0:0:0:
256,301,31014,1,2,0:3:0:0:
341,343,31237,6,0,L|438:352,1,80,0|2,0:0|0:3,0:0:0:0:
504,303,31685,1,0,0:0:0:0:
467,214,31909,1,2,0:3:0:0:
394,151,32133,2,0,B|354:126|330:122|330:122|391:93|414:58,1,160
489,28,32805,6,0,L|322:27,1,160,2|2,0:3|0:3,0:0:0:0:
240,64,33476,1,0,0:0:0:0:
196,149,33700,1,2,0:3:0:0:
108,110,33924,1,0,0:0:0:0:
108,110,34036,2,0,P|43:94|0:37,1,120,0|0,0:0|0:0,0:0:0:0:
94,14,34596,1,2,0:3:0:0:
178,59,34819,1,0,0:0:0:0:
196,149,35043,5,2,0:3:0:0:
145,230,35267,1,0,0:0:0:0:
145,230,35379,1,0,0:0:0:0:
145,230,35491,2,0,L|239:233,1,80,2|0,0:3|0:0,0:0:0:0:
321,232,35939,1,2,0:3:0:0:
416,245,36163,1,0,0:0:0:0:
485,311,36387,1,2,0:3:0:0:
485,311,36499,1,0,0:0:0:0:
485,311,36611,1,0,0:0:0:0:
498,155,36834,6,0,L|388:153,1,80,2|0,0:3|0:0,0:0:0:0:
324,140,37282,1,2,0:3:0:0:
238,182,37506,1,0,0:0:0:0:
252,276,37730,2,0,B|180:320|180:320|92:305,1,160,2|2,0:3|0:3,0:0:0:0:
27,253,38402,6,0,P|6:213|12:163,1,80,0|2,0:0|0:3,0:0:0:0:
101,192,38849,2,0,P|121:158|182:139,1,80,0|0,0:0|0:3,0:0:0:0:
264,221,39297,2,0,L|157:226,1,80,0|2,0:0|0:3,0:0:0:0:
234,135,39745,2,0,L|313:131,1,80,0|2,0:0|0:3,0:0:0:0:
388,193,40193,1,0,0:0:0:0:
388,193,40416,6,0,P|410:126|349:42,1,160,2|0,0:3|0:3,0:0:0:0:
313,131,41088,1,0,0:0:0:0:
359,286,41312,2,0,P|439:277|487:187,1,160,2|0,0:3|0:3,0:0:0:0:
507,123,41984,1,0,0:0:0:0:
442,51,42208,6,0,B|379:67|379:67|337:33|274:46,1,160,2|2,0:3|0:3,0:0:0:0:
248,130,42879,1,0,0:0:0:0:
248,130,42991,1,0,0:0:0:0:
248,130,43103,2,0,P|194:148|140:139,1,80,2|0,0:3|0:0,0:0:0:0:
85,106,43551,1,2,0:3:0:0:
18,37,43775,1,0,0:0:0:0:
11,177,43999,6,0,B|-3:234|-3:234|11:266|46:332,2,160,4|0|2,0:0|0:0|0:3,0:0:0:0:
189,247,45342,1,0,0:0:0:0:
361,330,45790,6,0,P|388:263|360:172,1,160,2|0,0:3|0:0,0:0:0:0:
280,137,46461,2,0,L|193:134,1,80,0|2,0:0|0:3,0:0:0:0:
105,154,46909,1,0,0:0:0:0:
11,130,47133,1,0,0:0:0:0:
48,41,47357,1,0,0:0:0:0:
105,154,47581,6,0,P|118:235|56:296,1,160,2|0,0:3|0:0,0:0:0:0:
16,369,48252,2,0,L|114:370,1,80,0|2,0:0|0:3,0:0:0:0:
176,316,48700,1,0,0:0:0:0:
267,344,48924,6,0,P|304:362|356:363,2,80,0|0|2,0:0|0:0|0:3,0:0:0:0:
280,248,49596,1,2,0:0:0:0:
355,188,49819,1,0,0:0:0:0:
427,251,50043,1,2,0:0:0:0:
280,248,50267,1,2,0:3:0:0:
352,92,50491,1,2,0:0:0:0:
355,188,50715,1,0,0:0:0:0:
355,188,50827,1,0,0:0:0:0:
355,188,50939,1,0,0:0:0:0:
280,248,51163,6,0,P|189:278|118:235,1,160,4|0,0:0|0:0,0:0:0:0:
78,174,51834,1,0,0:0:0:0:
27,255,52058,2,0,B|12:335|12:335|78:376,2,160,2|0|2,0:3|0:0|0:3,0:0:0:0:
78,174,53178,5,0,0:0:0:0:
129,92,53402,2,0,P|139:38|129:3,1,80,0|0,0:0|0:0,0:0:0:0:
78,174,53849,2,0,P|156:183|226:112,1,160,2|0,0:3|0:0,0:0:0:0:
257,47,54521,1,0,0:0:0:0:
319,119,54745,6,0,P|362:128|422:110,1,80,2|0,0:3|0:0,0:0:0:0:
463,52,55193,1,0,0:0:0:0:
500,140,55416,2,0,L|511:234,2,80,0|2|0,0:0|0:3|0:0,0:0:0:0:
463,52,56088,1,0,0:0:0:0:
397,122,56312,6,0,L|411:233,1,80,0|2,0:0|0:3,0:0:0:0:
400,297,56760,1,2,0:0:0:0:
319,350,56984,1,2,0:0:0:0:
313,255,57208,1,0,0:0:0:0:
400,297,57431,1,0,0:0:0:0:
230,210,57655,1,0,0:0:0:0:
393,201,57879,1,8,0:0:0:0:
319,350,58103,1,0,0:0:0:0:
233,305,58327,6,0,L|51:305,1,160,4|8,0:0|0:0,0:0:0:0:
15,227,58999,1,0,0:0:0:0:
69,148,59222,2,0,P|108:130|166:133,1,80,0|0,0:0|0:0,0:0:0:0:
288,185,59670,2,0,P|242:202|192:194,1,80,8|0,0:0|0:0,0:0:0:0:
232,106,60118,5,0,0:0:0:0:
304,43,60342,2,0,L|413:39,1,80,0|8,0:0|0:0,0:0:0:0:
472,78,60790,2,0,P|485:124|470:183,1,80,0|0,0:0|0:0,0:0:0:0:
400,207,61237,1,0,0:0:0:0:
318,258,61461,6,0,B|292:292|253:297|208:283|208:283|224:337,1,160,8|0,0:0|0:0,0:0:0:0:
308,356,62133,1,0,0:0:0:0:
318,258,62357,1,8,0:0:0:0:
246,193,62581,2,0,L|154:192,1,80,0|0,0:0|0:0,0:0:0:0:
116,274,63028,1,0,0:0:0:0:
50,344,63252,1,8,0:0:0:0:
20,252,63476,6,0,L|18:151,1,80
35,77,63924,1,0,0:0:0:0:
112,133,64148,2,0,L|279:140,1,160,8|0,0:0|0:0,0:0:0:0:
357,96,64819,1,0,0:0:0:0:
440,144,65043,1,8,0:0:0:0:
440,144,65155,1,0,0:0:0:0:
440,144,65267,1,0,0:0:0:0:
440,144,65379,1,0,0:0:0:0:
440,144,65491,6,0,P|446:58|384:3,1,160,4|8,0:0|0:0,0:0:0:0:
357,96,66163,1,0,0:0:0:0:
337,190,66387,2,0,L|346:293,1,80,0|0,0:0|0:0,0:0:0:0:
450,349,66834,2,0,L|443:269,1,80,8|0,0:0|0:0,0:0:0:0:
337,190,67282,5,0,0:0:0:0:
358,283,67506,1,0,0:0:0:0:
430,181,67730,1,8,0:0:0:0:
264,129,67954,2,0,P|216:120|157:146,1,80,0|0,0:0|0:0,0:0:0:0:
111,188,68402,1,0,0:0:0:0:
23,149,68625,6,0,P|-4:73|30:3,1,160,0|0,0:0|0:0,0:0:0:0:
90,78,69297,1,0,0:0:0:0:
111,188,69521,2,0,L|113:283,1,80,8|0,0:0|0:0,0:0:0:0:
20,358,69969,2,0,L|18:278,1,80,0|0,0:0|0:0,0:0:0:0:
111,188,70416,6,0,P|189:154|263:189,1,160,8|0,0:0|0:0,0:0:0:0:
317,253,71088,1,8,0:0:0:0:
412,257,71312,1,8,0:0:0:0:
412,257,71424,1,0,0:0:0:0:
412,257,71536,1,0,0:0:0:0:
455,171,71760,1,8,0:0:0:0:
436,76,71984,1,8,0:0:0:0:
358,129,72208,1,8,0:0:0:0:
358,129,72319,1,8,0:0:0:0:
358,129,72431,1,8,0:0:0:0:
358,129,72543,1,8,0:0:0:0:
358,129,72655,6,0,B|308:140|308:140|249:116|249:116|190:143,1,160,4|8,0:0|0:0,0:0:0:0:
122,180,73327,1,0,0:0:0:0:
165,265,73551,2,0,P|174:314|150:372,1,80,0|0,0:0|0:0,0:0:0:0:
80,383,73999,2,0,P|71:334|95:276,1,80,8|0,0:0|0:0,0:0:0:0:
165,265,74446,5,0,0:0:0:0:
239,325,74670,2,0,L|350:322,1,80,0|8,0:0|0:0,0:0:0:0:
374,243,75118,1,0,0:0:0:0:
464,276,75342,2,0,L|464:364,1,80
374,243,75790,6,0,P|413:194|509:186,1,160,8|0,0:0|0:0,0:0:0:0:
464,276,76461,1,0,0:0:0:0:
389,337,76685,1,8,0:0:0:0:
374,243,76909,2,0,L|369:162,1,80
371,66,77357,1,0,0:0:0:0:
282,101,77581,1,8,0:0:0:0:
202,47,77805,6,0,L|105:42,1,80,0|0,0:0|0:0,0:0:0:0:
27,60,78252,1,0,0:0:0:0:
95,127,78476,2,0,L|174:131,1,80,8|0,0:0|0:0,0:0:0:0:
251,189,78924,2,0,L|308:190,1,40
287,283,79148,2,0,L|217:282,1,40,8|0,0:0|0:0,0:0:0:0:
165,244,79372,1,8,0:0:0:0:
165,244,79484,1,8,0:0:0:0:
165,244,79596,1,8,0:0:0:0:
165,244,79708,1,8,0:0:0:0:
165,244,79819,6,0,L|-9:251,1,160,4|8,0:0|0:0,0:0:0:0:
42,339,80491,1,0,0:0:0:0:
137,343,80715,2,0,P|198:337|236:316,1,80,0|0,0:0|0:0,0:0:0:0:
293,274,81163,1,8,0:0:0:0:
381,312,81387,1,0,0:0:0:0:
350,194,81611,6,0,P|267:183|203:237,1,160,8|0,0:0|0:0,0:0:0:0:
293,274,82282,1,8,0:0:0:0:
381,312,82506,1,0,0:0:0:0:
450,245,82730,2,0,L|477:221,5,26.6666666666667,8|8|8|8|8|8,0:0|0:0|0:0|0:0|0:0|0:0,0:0:0:0:
484,198,83178,6,0,L|468:369,1,160,4|0,0:0|0:0,0:0:0:0:
381,312,83849,1,8,0:0:0:0:
350,194,84073,2,0,B|293:181|240:196|240:196|238:135,1,160,4|2,0:0|0:0,0:0:0:0:
239,127,84633,1,2,0:0:0:0:
240,107,84745,1,2,0:0:0:0:
241,87,84857,1,2,0:0:0:0:
241,66,84969,1,2,0:0:0:0:
332,38,85193,6,0,L|402:32,2,53.3333333333333,0|0|2,0:0|0:0|0:0,0:0:0:0:
