osu file format v14

[General]
AudioFilename: audio.mp3
AudioLeadIn: 0
PreviewTime: 60392
Countdown: 0
SampleSet: Soft
StackLeniency: 0.7
Mode: 0
LetterboxInBreaks: 0
WidescreenStoryboard: 0

[Editor]
DistanceSpacing: 0.9
BeatDivisor: 4
GridSize: 4
TimelineZoom: 1.9

[Metadata]
Title:Hidamari Days
TitleUnicode:ひだまりデイズ
Artist:SisterS
ArtistUnicode:妹S
Creator:-Nya-
Version:Easy
Source:干物妹!うまるちゃん
Tags:himouto! umaruchan ending full version little cloudsplash16 celsiusLK
BeatmapID:1133301
BeatmapSetID:501498

[Difficulty]
HPDrainRate:2
CircleSize:3
OverallDifficulty:2
ApproachRate:3
SliderMultiplier:1
SliderTickRate:1

[Events]
//Background and Video events
0,0,"Umaru.jpg",0,0
//Break Periods
2,156412,169101
2,202780,208504
//Storyboard Layer 0 (Background)
//Storyboard Layer 1 (Fail)
//Storyboard Layer 2 (Pass)
//Storyboard Layer 3 (Foreground)
//Storyboard Sound Samples

[TimingPoints]
392,447.761194029851,4,2,1,80,1,0
18526,-100,4,2,1,60,0,0
61287,-100,4,2,1,80,0,1
86138,-100,4,2,1,50,0,0
87929,-100,4,2,1,60,0,0
131138,-100,4,2,1,80,0,1
156212,-100,4,2,1,80,0,0
170093,-100,4,2,1,50,0,0
209944,-100,4,2,1,60,0,0
217108,-100,4,2,1,70,0,1
217220,-100,4,2,1,70,0,0
224272,-100,4,2,1,80,0,1
267033,-100,4,2,1,80,0,0
274421,-100,4,2,1,5,0,0

[Colours]
Combo1 : 184,113,255
Combo2 : 255,255,128
Combo3 : 113,184,255
Combo4 : 247,115,135

[HitObjects]
144,56,3974,6,0,B|116:84|140:144|140:144|132:204|72:232,1,200,4|0,1:0|0:0,0:0:0:0:
20,296,5317,1,8,0:0:0:0:
100,340,5765,2,0,P|132:352|256:248,1,200,0|0,0:0|0:0,0:0:0:0:
232,180,7108,1,8,0:0:0:0:
220,92,7556,6,0,P|272:100|308:132,1,100,0|0,0:0|3:0,0:0:0:0:
396,132,8451,2,0,P|433:100|482:93,1,100,0|8,0:0|0:0,0:0:0:0:
472,184,9347,2,0,B|460:288|460:288|396:376,1,200,0|0,0:0|3:0,0:0:0:0:
316,352,10690,1,0,3:0:0:0:
280,272,11138,6,0,B|292:224|344:200|344:200|336:144|376:104,1,200,4|0,1:0|0:0,0:0:0:0:
392,20,12481,1,8,0:0:0:0:
304,40,12929,2,0,L|204:72,1,100
176,156,13824,2,0,L|76:188,1,100,0|8,0:0|0:0,0:0:0:0:
40,268,14720,6,0,B|52:320|120:360|120:360|208:324,1,200
268,292,16063,1,8,0:0:0:0:
312,212,16511,2,0,P|348:248|356:304,2,100,0|0|0,0:0|3:0|3:0,0:0:0:0:
232,172,17854,2,0,P|196:136|188:80,1,100,0|4,3:0|1:0,0:0:0:0:
248,20,18750,6,0,P|356:44|364:140,1,200,8|0,0:0|3:0,0:0:0:0:
320,192,20093,1,0,0:0:0:0:
316,280,20541,2,0,L|412:320,2,100,8|0|0,0:0|0:0|3:0,0:0:0:0:
232,252,21884,6,0,B|192:272|164:328|164:328|92:260,1,200,0|0,0:0|0:0,0:0:0:0:
32,196,23227,1,0,3:0:0:0:
24,108,23675,2,0,P|56:80|128:88,1,100,0|8,0:0|0:0,0:0:0:0:
192,116,24571,2,0,P|241:117|279:86,1,100,0|0,0:0|3:0,0:0:0:0:
324,8,25466,6,0,B|400:68|400:68|440:168,1,200,0|0,0:0|0:0,0:0:0:0:
436,252,26809,1,0,3:0:0:0:
352,280,27257,2,0,P|300:256|280:204,2,100,0|8|0,0:0|0:0|0:0,0:0:0:0:
364,192,28600,1,0,3:0:0:0:
304,124,29048,6,0,P|248:124|200:152,1,100,0|8,0:0|0:0,0:0:0:0:
144,208,29944,2,0,P|80:180|120:68,1,200
192,40,31287,1,8,0:0:0:0:
280,64,31735,2,0,P|336:80|392:88,1,100,2|0,0:0|0:0,0:0:0:0:
436,156,32630,6,0,B|424:220|448:256|448:256|496:280|520:332,1,200,4|0,0:0|0:0,0:0:0:0:
436,368,33974,1,0,3:0:0:0:
348,360,34421,2,0,P|296:320|328:192,1,200,0|0,0:0|0:0,0:0:0:0:
388,144,35765,1,0,3:0:0:0:
364,56,36212,6,0,P|320:36|248:44,1,100,0|8,0:0|0:0,0:0:0:0:
204,96,37108,2,0,P|160:116|88:108,1,100,0|0,0:0|3:0,0:0:0:0:
48,180,38003,2,0,B|48:236|104:256|104:256|88:312|132:344,1,200,0|0,0:0|0:0,0:0:0:0:
220,348,39347,1,0,3:0:0:0:
308,336,39794,6,0,P|360:304|376:252,2,100,0|8|0,0:0|0:0|0:0,0:0:0:0:
288,248,41138,1,0,3:0:0:0:
272,160,41586,2,0,B|216:176|204:228|204:228|128:152,1,200,0|0,0:0|0:0,0:0:0:0:
80,84,42929,1,0,3:0:0:0:
156,36,43377,6,0,P|296:48|348:84,1,200,0|0,0:0|0:0,0:0:0:0:
400,148,44720,1,0,3:0:0:0:
420,236,45168,2,0,B|388:324|388:324|288:372,1,200,0|0,0:0|0:0,0:0:0:0:
208,340,46511,1,0,3:0:0:0:
164,260,46959,6,0,L|116:152,1,100,4|8,0:0|0:0,0:0:0:0:
208,140,47854,2,0,L|248:231,1,100,0|0,0:0|3:0,0:0:0:0:
284,316,48750,2,0,B|340:288|340:232|340:232|384:200|372:136,1,200,0|0,0:0|0:0,0:0:0:0:
320,76,50093,1,0,3:0:0:0:
232,88,50541,6,0,P|160:84|136:52,1,100,0|0,0:0|0:0,0:0:0:0:
64,112,51436,2,0,L|56:216,1,100,0|0,0:0|0:0,0:0:0:0:
72,300,52332,2,0,B|104:324|168:312|168:312|212:320|264:364,1,200,0|2,0:0|0:0,0:0:0:0:
344,368,53675,1,0,3:0:0:0:
420,320,54123,6,0,L|512:248,2,100,4|0|0,0:0|0:0|0:0,0:0:0:0:
344,272,55466,1,0,0:0:0:0:
312,188,55914,2,0,B|304:136|352:96|352:96|256:48,1,200,0|0,0:0|0:0,0:0:0:0:
184,20,57257,1,0,3:0:0:0:
124,88,57705,6,0,P|104:148|108:184,1,100,0|0,0:0|0:0,0:0:0:0:
188,220,58600,2,0,P|190:269|171:315,1,100,0|0,0:0|0:0,0:0:0:0:
96,368,59496,1,0,0:0:0:0:
44,296,59944,1,2,0:0:0:0:
52,208,60392,2,0,B|76:168|76:168|128:136,1,100,0|0,0:0|3:0,0:0:0:0:
212,128,61287,6,0,B|264:128|300:88|300:88|356:84|380:16,1,200,4|0,1:0|0:0,0:0:0:0:
460,4,62630,1,8,0:0:0:0:
476,92,63078,2,0,L|492:192,1,100,0|0,0:0|3:0,0:0:0:0:
420,244,63974,2,0,L|436:344,1,100,0|8,0:0|0:0,0:0:0:0:
352,372,64869,5,0,0:0:0:0:
288,308,65317,1,0,3:0:0:0:
284,220,65765,2,0,P|232:240|204:292,1,100,0|8,0:0|0:0,0:0:0:0:
180,360,66660,2,0,B|140:344|124:304|124:304|20:228,1,200,0|0,0:0|0:0,0:0:0:0:
24,144,68003,1,8,0:0:0:0:
100,92,68451,6,0,P|148:104|216:80,1,100,4|0,1:0|3:0,0:0:0:0:
280,60,69347,2,0,P|328:48|396:72,1,100,0|8,0:0|0:0,0:0:0:0:
440,120,70242,1,0,0:0:0:0:
452,208,70690,1,0,3:0:0:0:
404,284,71138,2,0,B|364:312|364:312|296:312,1,100,0|8,0:0|0:0,0:0:0:0:
224,312,72033,6,0,B|168:304|152:260|152:260|152:140,1,200,0|0,0:0|0:0,0:0:0:0:
156,64,73377,1,8,0:0:0:0:
244,40,73824,2,0,L|352:8,2,100,0|0|0,0:0|0:0|0:0,0:0:0:0:
216,124,75168,1,0,3:0:0:0:
213,216,75615,6,0,P|261:203|296:168,1,100,4|0,1:0|3:0,0:0:0:0:
376,128,76511,2,0,L|428:236,1,100,0|8,0:0|0:0,0:0:0:0:
496,264,77406,2,0,B|472:312|416:312|416:312|356:300|312:340,1,200,0|0,0:0|0:0,0:0:0:0:
236,364,78750,1,8,0:0:0:0:
148,364,79197,6,0,P|100:344|72:292,2,100,0|0|0,0:0|3:0|0:0,0:0:0:0:
160,276,80541,1,8,0:0:0:0:
164,188,80989,2,0,P|220:108|320:104,1,200
392,148,82332,1,0,3:0:0:0:
480,136,82780,6,0,B|484:196|440:224|440:224|480:320,1,200,4|0,1:0|0:0,0:0:0:0:
400,360,84123,1,8,0:0:0:0:
312,364,84571,2,0,P|252:336|236:300,1,100,0|0,0:0|3:0,0:0:0:0:
210,222,85466,1,0,3:0:0:0:
88,163,86138,6,0,P|191:89|305:125,1,250
331,205,87705,1,8,0:0:0:0:
417,178,88153,6,0,P|408:256|348:295,1,150
262,285,89272,1,0,0:0:0:0:
212,360,89720,2,0,B|168:328|172:276|172:276|136:232|156:192,1,150
112,147,90839,2,0,P|144:103|192:95,1,100
272,68,91735,6,0,L|364:20,1,100,0|8,0:0|0:0,0:0:0:0:
450,13,92630,1,0,0:0:0:0:
483,96,93078,1,8,0:0:0:0:
463,183,93526,2,0,B|447:231|447:231|463:295,1,100,0|8,0:0|0:0,0:0:0:0:
389,335,94421,2,0,B|341:319|341:319|277:335,1,100,0|0,0:0|3:0,0:0:0:0:
207,360,95317,6,0,B|179:312|195:260|195:260|167:208|111:200,1,200
32,210,96660,1,8,0:0:0:0:
26,120,97108,2,0,L|6:16,2,100,0|8|0,0:0|0:0|0:0,0:0:0:0:
113,141,98451,1,8,0:0:0:0:
201,124,98899,6,0,P|261:104|293:72,1,100,0|8,0:0|0:0,0:0:0:0:
377,79,99794,2,0,P|415:110|463:123,1,100,0|8,0:0|0:0,0:0:0:0:
492,208,100690,1,2,0:0:0:0:
479,297,101138,1,8,0:0:0:0:
417,362,101586,2,0,P|389:318|393:270,1,100,0|2,0:0|0:0,0:0:0:0:
375,183,102481,6,0,B|331:179|279:203|279:203|223:107,1,200,4|0,0:0|0:0,0:0:0:0:
181,39,103824,1,0,3:0:0:0:
108,92,104272,2,0,B|84:136|92:204|92:204|156:284,1,200,0|0,0:0|0:0,0:0:0:0:
216,328,105615,1,0,3:0:0:0:
300,364,106063,6,0,L|356:260,1,100,0|8,0:0|0:0,0:0:0:0:
336,188,106959,2,0,L|392:84,1,100,0|0,0:0|3:0,0:0:0:0:
432,24,107854,2,0,B|380:-8|320:32|320:32|272:16|220:40,1,200,0|0,0:0|0:0,0:0:0:0:
164,80,109197,1,0,3:0:0:0:
148,168,109645,6,0,P|96:144|76:96,2,100,0|8|0,0:0|0:0|0:0,0:0:0:0:
236,160,110989,1,0,3:0:0:0:
312,204,111436,2,0,P|336:260|344:300,1,100,0|8,3:0|0:0,0:0:0:0:
432,300,112332,2,0,P|443:251|463:205,1,100,0|0,0:0|3:0,0:0:0:0:
496,120,113227,6,0,B|436:112|400:144|400:144|380:40,1,200,0|0,0:0|3:0,0:0:0:0:
296,16,114571,1,8,0:0:0:0:
224,72,115018,2,0,P|196:96|252:232,1,200,0|0,3:0|0:0,0:0:0:0:
324,252,116362,1,0,0:0:0:0:
300,340,116809,6,0,P|256:360|196:364,1,100,4|0,0:0|0:0,0:0:0:0:
160,288,117705,2,0,P|116:268|56:264,1,100,0|0,0:0|0:0,0:0:0:0:
20,188,118600,2,0,B|24:128|80:108|80:108|84:48|144:24,1,200,0|0,0:0|0:0,0:0:0:0:
216,28,119944,1,8,0:0:0:0:
300,56,120392,6,0,B|352:96|352:136|352:136|384:192|440:204,1,200,0|0,0:0|0:0,0:0:0:0:
496,256,121735,1,0,0:0:0:0:
460,340,122183,2,0,P|404:356|348:332,2,100,0|2|2,0:0|0:0|0:0,0:0:0:0:
408,264,123526,1,0,0:0:0:0:
336,212,123974,6,0,L|240:140,1,100,4|0,0:0|0:0,0:0:0:0:
204,224,124869,2,0,L|284:284,1,100,0|0,0:0|0:0,0:0:0:0:
232,356,125765,2,0,P|144:292|64:216,1,200,0|0,0:0|0:0,0:0:0:0:
20,160,127108,1,8,0:0:0:0:
92,104,127556,6,0,P|144:60|144:24,1,100,0|0,0:0|0:0,0:0:0:0:
236,32,128451,2,0,P|247:79|289:103,1,100,0|0,0:0|0:0,0:0:0:0:
380,112,129347,2,0,L|436:208,1,100,0|0,0:0|0:0,0:0:0:0:
460,284,130242,1,0,3:0:0:0:
392,344,130690,1,0,3:0:0:0:
304,352,131138,6,0,B|220:296|220:296|176:200,1,200,4|0,1:0|0:0,0:0:0:0:
140,124,132481,1,8,0:0:0:0:
72,68,132929,2,0,P|116:40|176:44,1,100,0|0,0:0|3:0,0:0:0:0:
248,68,133824,2,0,P|297:66|338:39,1,100,0|8,0:0|0:0,0:0:0:0:
424,16,134720,6,0,B|456:64|464:124|464:124|428:212,1,200,0|0,0:0|0:0,0:0:0:0:
376,272,136063,1,8,0:0:0:0:
312,332,136511,2,0,P|288:280|304:224,1,100,0|0,0:0|3:0,0:0:0:0:
312,152,137406,1,0,0:0:0:0:
224,176,137854,1,0,0:0:0:0:
208,88,138302,6,0,P|272:16|372:36,1,200,4|0,1:0|0:0,0:0:0:0:
428,96,139645,1,8,0:0:0:0:
452,184,140093,2,0,P|464:232|464:296,1,100,0|0,0:0|3:0,0:0:0:0:
392,336,140989,2,0,P|344:348|280:348,1,100,0|8,0:0|0:0,0:0:0:0:
208,320,141884,6,0,B|192:264|216:224|216:224|188:176|220:112,1,200,0|0,0:0|0:0,0:0:0:0:
288,76,143227,1,8,0:0:0:0:
352,140,143675,2,0,L|376:248,2,100,0|0|0,0:0|3:0|0:0,0:0:0:0:
376,52,145018,1,0,3:0:0:0:
288,76,145466,6,0,B|244:72|196:36|196:36|120:112,1,200,4|0,1:0|0:0,0:0:0:0:
64,172,146809,1,8,0:0:0:0:
76,260,147257,2,0,B|88:308|136:336|136:336|184:332|240:380,1,200
316,372,148600,1,8,0:0:0:0:
404,364,149048,6,0,P|452:348|484:292,2,100,0|0|0,0:0|3:0|0:0,0:0:0:0:
400,272,150392,1,8,0:0:0:0:
344,200,150839,2,0,P|316:164|176:200,1,200
128,264,152183,1,8,0:0:0:0:
156,348,152630,5,4,1:0:0:0:
256,192,152854,12,0,154421,0:0:0:0:
256,192,156212,5,4,1:0:0:0:
148,156,170541,6,0,P|184:144|240:96,1,100,0|0,0:0|3:0,0:0:0:0:
324,104,171436,2,0,P|361:136|408:153,1,100,8|0,0:0|0:0,0:0:0:0:
492,192,172332,1,0,0:0:0:0:
480,280,172780,1,0,0:0:0:0:
408,332,173227,2,0,B|360:356|360:356|296:356,1,100,8|8,0:0|0:0,0:0:0:0:
240,304,174123,6,0,P|228:268|248:192,2,100,0|0|8,3:0|0:0|0:0,0:0:0:0:
316,256,175466,1,0,0:0:0:0:
340,168,175914,2,0,P|344:112|324:52,1,100,0|0,0:0|0:0,0:0:0:0:
244,72,176809,2,0,P|240:128|260:188,1,100,8|8,0:0|0:0,0:0:0:0:
252,260,177705,6,0,B|200:256|180:224|180:224|152:160|104:140,1,200,4|8,0:0|0:0,0:0:0:0:
16,116,179048,1,0,0:0:0:0:
20,204,179496,2,0,L|36:316,1,100,0|0,0:0|0:0,0:0:0:0:
108,352,180392,2,0,P|140:364|212:348,1,100,8|8,0:0|0:0,0:0:0:0:
264,288,181287,5,0,3:0:0:0:
320,116,182183,2,0,P|284:80|228:64,1,100,8|0,0:0|0:0,0:0:0:0:
148,64,183078,2,0,B|104:100|96:160|96:160|144:252,1,200,0|8,0:0|0:0,0:0:0:0:
192,308,184421,1,0,3:0:0:0:
272,268,184869,6,0,L|364:208,1,100,0|0,0:0|3:0,0:0:0:0:
304,140,185765,2,0,L|220:194,1,100,8|0,0:0|0:0,0:0:0:0:
132,204,186660,2,0,P|84:164|72:116,2,100,0|0|8,0:0|0:0|0:0,0:0:0:0:
160,120,188003,1,8,0:0:0:0:
220,52,188451,6,0,P|292:40|340:44,1,100,0|0,3:0|0:0,0:0:0:0:
396,84,189347,2,0,L|472:168,1,100,8|0,0:0|0:0,0:0:0:0:
480,248,190242,2,0,P|480:296|344:344,1,200,0|8,0:0|0:0,0:0:0:0:
288,296,191586,1,8,0:0:0:0:
248,216,192033,6,0,P|208:252|200:308,1,100,4|0,0:0|3:0,0:0:0:0:
108,296,192929,2,0,P|95:248|58:216,1,100,8|0,0:0|0:0,0:0:0:0:
32,132,193824,2,0,B|64:88|116:84|116:84|168:96|224:60,1,200,0|8,0:0|0:0,0:0:0:0:
292,24,195168,1,8,0:0:0:0:
360,84,195615,6,0,L|440:148,2,100,0|0|8,3:0|0:0|0:0,0:0:0:0:
280,120,196959,1,0,0:0:0:0:
244,204,197406,2,0,B|256:272|288:312|288:312|200:328,1,200,0|8,0:0|0:0,0:0:0:0:
120,344,198750,1,0,3:0:0:0:
68,268,199197,5,0,0:0:0:0:
104,92,200093,2,0,P|144:56|196:68,1,100,0|0,0:0|0:0,0:0:0:0:
244,132,200989,2,0,P|284:168|336:156,1,100,0|0,0:0|0:0,0:0:0:0:
392,100,201884,1,0,0:0:0:0:
264,48,209944,6,0,P|296:108|296:156,1,100,4|0,0:0|0:0,0:0:0:0:
244,212,210839,1,0,0:0:0:0:
156,228,211287,1,0,0:0:0:0:
76,188,211735,2,0,B|56:248|96:296|96:296|184:352,1,200,0|0,0:0|0:0,0:0:0:0:
256,368,213078,1,8,0:0:0:0:
332,320,213526,6,0,L|420:252,1,100,0|0,3:0|0:0,0:0:0:0:
380,176,214421,2,0,L|468:108,1,100,0|0,0:0|3:0,0:0:0:0:
444,28,215317,2,0,B|380:28|336:56|336:56|248:28,1,200,0|0,0:0|0:0,0:0:0:0:
164,12,216660,1,0,3:0:0:0:
112,84,217108,6,0,P|96:116|172:248,1,200,4|0,1:0|0:0,0:0:0:0:
256,252,218451,1,0,0:0:0:0:
332,204,218899,2,0,P|344:244|320:320,1,100,0|0,0:0|0:0,0:0:0:0:
256,348,219794,2,0,L|156:368,1,100,0|0,0:0|0:0,0:0:0:0:
68,356,220690,6,0,B|40:304|72:260|72:260|40:200|72:156,1,200,0|0,0:0|0:0,0:0:0:0:
112,92,222033,1,0,0:0:0:0:
192,52,222481,1,0,3:0:0:0:
460,292,224272,6,0,P|444:324|376:360,1,100,4|0,1:0|3:0,0:0:0:0:
304,336,225168,1,0,0:0:0:0:
312,248,225615,1,8,0:0:0:0:
324,160,226063,2,0,B|264:152|224:216|224:216|196:128,1,200,0|0,0:0|0:0,0:0:0:0:
164,60,227406,1,8,0:0:0:0:
88,108,227854,6,0,P|68:172|76:220,1,100,0|0,0:0|3:0,0:0:0:0:
136,264,228750,2,0,P|156:328|148:376,1,100,0|8,0:0|0:0,0:0:0:0:
244,368,229645,2,0,B|340:344|340:344|432:260,1,200,0|0,0:0|0:0,0:0:0:0:
452,196,230989,1,0,3:0:0:0:
420,112,231436,6,0,P|400:80|332:52,2,100,4|0|0,1:0|3:0|0:0,0:0:0:0:
336,140,232780,1,8,0:0:0:0:
256,180,233227,2,0,B|204:168|184:120|184:120|160:168|92:184,1,200,0|0,0:0|0:0,0:0:0:0:
36,236,234571,1,8,0:0:0:0:
84,312,235018,6,0,L|184:376,1,100,0|0,0:0|3:0,0:0:0:0:
236,304,235914,2,0,L|151:250,1,100,0|8,0:0|0:0,0:0:0:0:
88,188,236809,2,0,P|108:124|236:104,1,200,0|0,0:0|0:0,0:0:0:0:
296,156,238153,1,0,3:0:0:0:
376,196,238600,6,0,P|332:240|280:244,1,100,4|0,1:0|3:0,0:0:0:0:
216,284,239496,2,0,L|156:376,1,100,0|8,0:0|0:0,0:0:0:0:
80,332,240392,2,0,B|36:300|48:244|48:244|-4:144,1,200,0|0,0:0|3:0,0:0:0:0:
16,68,241735,1,0,3:0:0:0:
104,72,242183,6,0,B|164:80|200:60|200:60|260:64|296:120,1,200,4|0,1:0|0:0,0:0:0:0:
312,192,243526,1,8,0:0:0:0:
324,280,243974,2,0,P|372:260|396:216,1,100,0|0,0:0|3:0,0:0:0:0:
392,128,244869,2,0,P|366:85|320:67,1,100,0|8,0:0|0:0,0:0:0:0:
240,108,245765,6,0,P|204:140|52:216,1,200,0|0,0:0|0:0,0:0:0:0:
28,292,247108,1,8,0:0:0:0:
100,344,247556,2,0,P|144:364|204:352,1,100,0|0,0:0|3:0,0:0:0:0:
272,312,248451,2,0,P|316:292|376:304,1,100,0|0,0:0|3:0,0:0:0:0:
448,340,249347,6,0,B|468:280|436:244|436:244|392:196|392:152,1,200,4|0,1:0|0:0,0:0:0:0:
420,72,250690,1,8,0:0:0:0:
336,36,251138,2,0,P|284:28|228:52,2,100,0|0|0,0:0|3:0|0:0,0:0:0:0:
292,116,252481,1,8,0:0:0:0:
240,192,252929,6,0,B|196:240|196:240|120:248|112:328,1,200,0|0,0:0|0:0,0:0:0:0:
196,364,254272,1,8,0:0:0:0:
284,352,254720,2,0,P|344:328|368:296,1,100,0|0,0:0|3:0,0:0:0:0:
384,212,255615,2,0,P|417:176|465:161,1,100,0|0,0:0|3:0,0:0:0:0:
472,72,256511,6,0,B|380:32|380:32|272:32,1,200,4|0,1:0|0:0,0:0:0:0:
192,52,257854,1,8,0:0:0:0:
156,136,258302,2,0,P|148:176|164:256,1,100,0|0,0:0|3:0,0:0:0:0:
196,316,259197,1,0,0:0:0:0:
284,336,259645,1,8,0:0:0:0:
360,288,260093,6,0,B|352:220|352:220|304:176|304:176|292:100,1,200,0|0,0:0|0:0,0:0:0:0:
244,36,261436,1,8,0:0:0:0:
160,64,261884,2,0,P|104:144|132:248,1,200,0|0,0:0|0:0,0:0:0:0:
196,292,263227,1,0,3:0:0:0:
256,228,263675,6,0,L|248:120,2,100,4|0|0,1:0|3:0|0:0,0:0:0:0:
296,308,265018,1,8,0:0:0:0:
380,276,265466,2,0,P|412:208|400:172,1,100,0|0,0:0|3:0,0:0:0:0:
384,100,266362,1,0,3:0:0:0:
256,56,267033,6,0,B|220:72|216:148|216:148|136:192|224:248|168:344,1,300,4|0,1:0|0:0,0:0:0:0:
88,308,268824,2,0,B|64:256|80:208|80:208|40:132|40:132|80:24,1,300,0|0,0:0|0:0,0:0:0:0:
168,12,270615,1,0,3:0:0:0:
256,192,270839,12,0,274421,0:0:0:0:
