osu file format v12

[General]
AudioFilename: 07 Crying.mp3
AudioLeadIn: 0
PreviewTime: 48895
Countdown: 1
SampleSet: Soft
StackLeniency: 0.7
Mode: 0
LetterboxInBreaks: 1
WidescreenStoryboard: 1

[Editor]
Bookmarks: 74305,96893,190071
DistanceSpacing: 1.8
BeatDivisor: 4
GridSize: 4

[Metadata]
Title:Crying
TitleUnicode:Crying
Artist:Sistar
ArtistUnicode:Sistar
Creator:Lizbeth
Version:Walking
Source:
Tags:
BeatmapID:313710
BeatmapSetID:115147

[Difficulty]
HPDrainRate:5
CircleSize:4
OverallDifficulty:4
ApproachRate:4
SliderMultiplier:0.9
SliderTickRate:1

[Events]
//Background and Video events
0,0,"wide.jpg",0,0
//Break Periods
2,71330,72634
2,142071,148869
//Storyboard Layer 0 (Background)
//Storyboard Layer 1 (Fail)
//Storyboard Layer 2 (Pass)
//Storyboard Layer 3 (Foreground)
//Storyboard Sound Samples
//Background Colour Transformations
3,100,163,162,255

[TimingPoints]
3719,705.882352941176,4,2,0,50,1,0
48895,-76.9230769230769,4,2,0,50,0,1
71483,-100,4,2,0,50,0,0
119483,-71.4285714285714,4,2,0,50,0,1
142071,-100,4,2,0,50,0,0
167483,-71.4285714285714,4,2,0,50,0,1
190071,-100,4,2,0,40,0,0
191483,-100,4,2,0,30,0,0
191836,-100,4,2,0,40,0,0
194307,-100,4,2,0,30,0,0
194660,-100,4,2,0,40,0,0
197130,-100,4,2,0,30,0,0
197483,-100,4,2,0,40,0,0
201366,-100,4,2,0,30,0,0

[Colours]
Combo1 : 147,0,0
Combo2 : 255,255,255
Combo3 : 0,55,111

[HitObjects]
168,56,3718,2,0,P|128:72|92:124,1,90,8|8,0:0|0:0,0:0:0:0:
88,188,4777,1,0,0:0:0:0:
116,264,5130,1,0,0:0:0:0:
196,268,5483,2,0,P|196:300|180:320,1,45,0|8,0:0|0:0,0:0:0:0:
332,232,6542,6,0,P|300:196|296:136,1,90,0|8,0:0|0:0,0:0:0:0:
348,96,7601,1,0,0:0:0:0:
300,32,7954,1,0,0:0:0:0:
240,84,8307,1,0,0:0:0:0:
200,152,8660,6,0,L|100:128,2,90,8|0|8,0:0|0:0|0:0,0:0:0:0:
240,224,10424,1,0,0:0:0:0:
228,304,10777,1,0,0:0:0:0:
160,348,11130,2,0,L|100:356,1,45,0|8,0:0|0:0,0:0:0:0:
56,204,12189,6,0,P|60:152|92:108,1,90,0|8,0:0|0:0,0:0:0:0:
224,196,13601,2,0,P|220:248|188:292,1,90,0|8,0:0|0:0,0:0:0:0:
356,332,15013,6,0,L|452:328,1,90,4|8,0:0|0:0,0:0:0:0:
468,252,16071,1,0,0:0:0:0:
464,172,16424,1,0,0:0:0:0:
428,100,16777,2,0,L|380:72,1,45,0|8,0:0|0:0,0:0:0:0:
296,208,17836,6,0,P|288:264|252:300,1,90,0|8,0:0|0:0,0:0:0:0:
192,320,18895,1,0,0:0:0:0:
112,304,19248,1,0,0:0:0:0:
72,232,19601,2,0,P|64:204|72:176,1,45,0|8,0:0|0:0,0:0:0:0:
112,120,20307,5,0,0:0:0:0:
160,188,20660,2,0,P|220:192|256:172,1,90,0|8,0:0|0:0,0:0:0:0:
240,100,21718,2,0,P|260:80|284:72,1,45,0|0,0:0|0:0,0:0:0:0:
356,60,22424,2,0,P|388:60|416:72,1,45,0|8,0:0|0:0,0:0:0:0:
456,216,23483,6,0,P|456:276|428:316,1,90,4|8,0:0|0:0,0:0:0:0:
280,300,24895,2,0,L|232:296,3,45,0|0|0|0,0:0|0:0|0:0|0:0,0:0:0:0:
244,216,26307,6,0,P|192:236|148:228,1,90,4|10,0:0|0:0,0:0:0:0:
32,128,27718,1,2,0:0:0:0:
184,68,28424,1,10,0:0:0:0:
252,112,28777,5,0,0:0:0:0:
328,88,29130,2,0,P|376:80|420:104,1,90,0|10,0:0|0:0,0:0:0:0:
488,240,30542,1,2,0:0:0:0:
328,244,31248,1,10,0:0:0:0:
252,272,31601,6,0,L|236:320,1,45,0|0,0:0|0:0,0:0:0:0:
156,324,32307,1,2,0:0:0:0:
88,276,32660,1,10,0:0:0:0:
116,200,33013,6,0,L|96:144,1,45,0|0,0:0|0:0,0:0:0:0:
120,80,33718,1,2,0:0:0:0:
196,52,34071,1,10,0:0:0:0:
344,120,34777,6,0,L|448:108,1,90,0|8,0:0|0:0,0:0:0:0:
376,260,36189,2,0,L|276:272,1,90,0|8,0:0|0:0,0:0:0:0:
128,244,37601,6,0,P|112:204|124:144,1,90,4|10,0:0|0:0,0:0:0:0:
236,48,39013,1,2,0:0:0:0:
312,192,39718,1,10,0:0:0:0:
380,340,40424,6,0,P|332:336|284:304,1,90,0|10,0:0|0:0,0:0:0:0:
244,164,41836,1,2,0:0:0:0:
164,304,42542,1,10,0:0:0:0:
120,236,42895,6,0,P|132:204|128:184,1,45,0|0,0:0|0:0,0:0:0:0:
92,124,43601,2,0,L|96:80,1,45,0|8,0:0|0:0,0:0:0:0:
176,64,44307,6,0,P|180:88|208:112,1,45,0|0,0:0|0:0,0:0:0:0:
272,88,45013,2,0,L|328:104,1,45,0|8,0:0|0:0,0:0:0:0:
424,220,46071,6,0,P|412:280|380:312,3,90,4|8|0|8,0:0|0:0|0:0|0:0,0:0:0:0:
316,324,48542,1,0,0:0:0:0:
224,320,48895,6,0,P|168:352|108:352,1,116.999994644165,4|8,0:0|0:0,0:0:0:0:
148,264,49954,1,0,0:0:0:0:
136,172,50307,2,0,L|264:180,1,116.999994644165,0|8,0:0|0:0,0:0:0:0:
424,100,51718,2,0,L|296:92,1,116.999994644165,0|8,0:0|0:0,0:0:0:0:
308,188,52777,5,0,0:0:0:0:
240,252,53130,2,0,P|268:304|328:328,1,116.999994644165,0|8,0:0|0:0,0:0:0:0:
364,144,54542,2,0,P|336:92|276:64,1,116.999994644165,0|8,0:0|0:0,0:0:0:0:
208,116,55601,1,0,0:0:0:0:
124,72,55954,6,0,P|64:88|24:144,1,116.999994644165,0|8,0:0|0:0,0:0:0:0:
116,164,57013,1,0,0:0:0:0:
132,256,57366,2,0,P|196:256|248:304,1,116.999994644165,0|8,0:0|0:0,0:0:0:0:
416,232,58777,2,0,P|352:216|308:164,1,116.999994644165,0|8,0:0|0:0,0:0:0:0:
268,100,59836,1,0,0:0:0:0:
176,96,60189,6,0,B|120:120|108:204,1,116.999994644165,4|8,0:0|0:0,0:0:0:0:
132,280,61248,1,0,0:0:0:0:
216,236,61601,2,0,P|276:216|348:236,1,116.999994644165,0|8,0:0|0:0,0:0:0:0:
492,316,63013,2,0,P|432:336|360:316,1,116.999994644165,0|8,0:0|0:0,0:0:0:0:
308,268,64071,5,0,0:0:0:0:
264,184,64424,1,0,0:0:0:0:
184,136,64777,1,0,0:0:0:0:
92,160,65130,1,8,0:0:0:0:
44,240,65483,1,0,0:0:0:0:
92,320,65836,2,0,P|144:288|204:288,2,116.999994644165,0|8|0,0:0|0:0|0:0,0:0:0:0:
276,296,67954,5,8,0:0:0:0:
340,228,68307,1,0,0:0:0:0:
408,164,68660,2,0,P|380:112|328:80,1,116.999994644165,0|8,0:0|0:0,0:0:0:0:
340,228,70071,2,0,P|368:280|420:312,1,116.999994644165,0|8,0:0|0:0,0:0:0:0:
415,310,71130,1,0,0:0:0:0:
96,112,73954,5,0,0:0:0:0:
116,192,74307,2,0,P|144:236|188:264,1,90,4|8,0:0|0:0,0:0:0:0:
244,212,75366,1,0,0:0:0:0:
292,276,75718,2,0,L|392:280,1,90,0|8,0:0|0:0,0:0:0:0:
424,124,77130,6,0,P|384:152|340:156,1,90,0|8,0:0|0:0,0:0:0:0:
264,140,78189,1,0,0:0:0:0:
184,124,78542,2,0,P|136:144|100:180,1,90,0|8,0:0|0:0,0:0:0:0:
80,244,79601,1,0,0:0:0:0:
132,304,79954,6,0,B|184:292|240:304,1,90,0|8,0:0|0:0,0:0:0:0:
304,300,81013,1,0,0:0:0:0:
372,256,81366,2,0,L|408:344,1,90,0|8,0:0|0:0,0:0:0:0:
460,188,82777,2,0,L|428:100,1,90,0|8,0:0|0:0,0:0:0:0:
296,48,84189,5,0,0:0:0:0:
228,92,84542,1,0,0:0:0:0:
300,132,84895,1,8,0:0:0:0:
152,200,85601,6,0,L|168:304,1,90,4|8,0:0|0:0,0:0:0:0:
100,336,86660,2,0,L|88:276,1,45,0|0,0:0|0:0,0:0:0:0:
72,212,87366,1,0,0:0:0:0:
16,152,87718,1,8,0:0:0:0:
96,132,88071,1,0,0:0:0:0:
176,116,88424,6,0,P|228:124|276:104,1,90,0|8,0:0|0:0,0:0:0:0:
344,100,89483,2,0,L|336:160,1,45,0|0,0:0|0:0,0:0:0:0:
324,220,90189,1,0,0:0:0:0:
340,300,90542,1,8,0:0:0:0:
264,272,90895,1,0,0:0:0:0:
188,240,91248,6,0,P|192:268|188:304,1,45,0|0,0:0|0:0,0:0:0:0:
112,280,91954,2,0,P|108:308|96:328,1,45,8|0,0:0|0:0,0:0:0:0:
24,300,92660,2,0,P|12:328|0:340,2,45,0|0|8,0:0|0:0|0:0,0:0:0:0:
28,220,93718,1,0,0:0:0:0:
48,140,94071,1,0,0:0:0:0:
200,80,94777,6,0,P|204:132|216:172,1,90,8|0,0:0|0:0,0:0:0:0:
236,248,95836,1,0,0:0:0:0:
316,256,96189,2,0,P|344:276|356:300,1,45,8|0,0:0|0:0,0:0:0:0:
420,328,96895,6,0,P|432:284|464:252,1,90,4|8,0:0|0:0,0:0:0:0:
412,100,98307,1,0,0:0:0:0:
308,224,99013,1,8,0:0:0:0:
248,280,99366,5,0,0:0:0:0:
184,232,99718,2,0,P|144:196|96:192,1,90,0|8,0:0|0:0,0:0:0:0:
84,352,101130,1,0,0:0:0:0:
16,204,101836,1,8,0:0:0:0:
32,124,102189,6,0,P|60:112|68:96,1,45,0|0,0:0|0:0,0:0:0:0:
104,28,102895,1,0,0:0:0:0:
144,100,103248,1,8,0:0:0:0:
188,32,103601,6,0,P|208:16|244:16,1,45,0|0,0:0|0:0,0:0:0:0:
244,92,104307,1,0,0:0:0:0:
308,40,104660,1,8,0:0:0:0:
436,140,105366,6,0,P|460:196|452:232,1,90,0|8,0:0|0:0,0:0:0:0:
324,316,106777,2,0,P|300:260|312:216,1,90,0|8,0:0|0:0,0:0:0:0:
268,160,107836,5,0,0:0:0:0:
228,92,108189,1,4,0:0:0:0:
72,44,108895,1,8,0:0:0:0:
88,204,109601,1,0,0:0:0:0:
236,264,110307,1,8,0:0:0:0:
292,324,110660,5,0,0:0:0:0:
372,316,111013,1,0,0:0:0:0:
440,168,111718,1,8,0:0:0:0:
308,76,112424,1,0,0:0:0:0:
236,220,113130,1,8,0:0:0:0:
164,260,113483,6,0,L|144:208,1,45,0|0,0:0|0:0,0:0:0:0:
172,140,114189,2,0,L|152:96,1,45,0|8,0:0|0:0,0:0:0:0:
236,92,114895,6,0,L|288:88,1,45,0|0,0:0|0:0,0:0:0:0:
328,152,115601,2,0,L|380:148,1,45,0|8,0:0|0:0,0:0:0:0:
452,164,116307,5,0,0:0:0:0:
436,244,116660,2,0,P|436:280|460:332,3,90,0|8|0|8,0:0|0:0|0:0|0:0,0:0:0:0:
232,332,119483,6,0,L|104:312,1,125.999996154785,4|8,0:0|0:0,0:0:0:0:
28,252,120542,1,0,0:0:0:0:
44,152,120895,2,0,L|176:176,1,125.999996154785,0|8,0:0|0:0,0:0:0:0:
248,116,121954,1,0,0:0:0:0:
288,208,122307,6,0,P|344:156|356:96,1,125.999996154785,0|8,0:0|0:0,0:0:0:0:
448,68,123366,1,0,0:0:0:0:
432,168,123718,2,0,L|448:296,1,125.999996154785,0|8,0:0|0:0,0:0:0:0:
356,340,124777,1,0,0:0:0:0:
264,300,125130,6,0,P|196:328|120:328,1,125.999996154785,0|8,0:0|0:0,0:0:0:0:
20,172,126542,2,0,P|88:144|164:144,1,125.999996154785,0|8,0:0|0:0,0:0:0:0:
236,176,127601,1,0,0:0:0:0:
316,240,127954,6,0,L|332:100,1,125.999996154785,0|8,0:0|0:0,0:0:0:0:
504,216,129366,2,0,L|488:360,1,125.999996154785,0|8,0:0|0:0,0:0:0:0:
308,256,130777,6,0,P|240:284|172:264,1,125.999996154785,4|8,0:0|0:0,0:0:0:0:
104,324,131836,1,0,0:0:0:0:
40,244,132189,2,0,L|68:116,1,125.999996154785,0|8,0:0|0:0,0:0:0:0:
168,112,133248,1,0,0:0:0:0:
180,212,133601,2,0,P|248:184|280:132,1,125.999996154785,0|8,0:0|0:0,0:0:0:0:
336,60,134660,5,0,0:0:0:0:
416,120,135013,1,0,0:0:0:0:
416,220,135366,1,0,0:0:0:0:
352,296,135718,1,8,0:0:0:0:
256,328,136071,1,0,0:0:0:0:
156,320,136424,2,0,P|104:300|64:240,2,125.999996154785,0|8|0,0:0|0:0|0:0,0:0:0:0:
136,120,138542,5,8,0:0:0:0:
212,56,138895,1,0,0:0:0:0:
244,152,139248,2,0,L|384:196,1,125.999996154785,0|8,0:0|0:0,0:0:0:0:
192,296,140660,2,0,L|56:252,1,125.999996154785,0|8,0:0|0:0,0:0:0:0:
152,328,150189,5,0,0:0:0:0:
128,252,150542,2,0,L|112:192,1,45,0|0,0:0|0:0,0:0:0:0:
188,168,151248,2,0,L|204:232,1,45,0|0,0:0|0:0,0:0:0:0:
268,168,151954,2,0,L|252:108,1,45,0|0,0:0|0:0,0:0:0:0:
328,84,152660,2,0,L|344:148,1,45,0|0,0:0|0:0,0:0:0:0:
420,108,153366,6,0,P|464:144|468:192,1,90,0|0,0:0|0:0,0:0:0:0:
392,192,154424,2,0,P|412:248|456:264,1,90,0|0,0:0|0:0,0:0:0:0:
436,261,155483,1,0,0:0:0:0:
280,300,156189,6,0,P|248:328|196:324,1,90,0|0,0:0|0:0,0:0:0:0:
216,248,157248,2,0,P|168:248|136:280,1,90,0|0,0:0|0:0,0:0:0:0:
138,275,158307,1,0,0:0:0:0:
84,120,159013,6,0,P|120:100|184:100,1,90,0|0,0:0|0:0,0:0:0:0:
228,148,160071,1,0,0:0:0:0:
288,200,160424,2,0,P|332:204|384:184,1,90,0|0,0:0|0:0,0:0:0:0:
472,320,161836,6,0,L|376:356,2,90,0|0|0,0:0|0:0|0:0,0:0:0:0:
448,244,163601,5,0,0:0:0:0:
420,168,163954,1,0,0:0:0:0:
388,92,164307,1,0,0:0:0:0:
256,192,164660,12,0,166777,0:0:0:0:
96,148,167483,6,0,P|116:80|168:48,1,125.999996154785,4|8,0:0|0:0,0:0:0:0:
248,100,168542,1,0,0:0:0:0:
320,28,168895,2,0,L|400:128,1,125.999996154785,0|8,0:0|0:0,0:0:0:0:
460,208,169954,1,0,0:0:0:0:
360,232,170307,6,0,P|308:268|296:332,1,125.999996154785,0|8,0:0|0:0,0:0:0:0:
196,300,171366,1,0,0:0:0:0:
104,344,171718,2,0,L|44:224,1,125.999996154785,0|8,0:0|0:0,0:0:0:0:
148,56,173130,2,0,L|212:172,1,125.999996154785,0|8,0:0|0:0,0:0:0:0:
288,104,174189,5,0,0:0:0:0:
312,200,174542,2,0,P|320:236|360:264,2,62.9999980773926,0|0|8,0:0|0:0|0:0,0:0:0:0:
412,200,175601,1,0,0:0:0:0:
444,296,175954,2,0,P|500:252|508:180,1,125.999996154785,0|8,0:0|0:0,0:0:0:0:
372,56,177366,2,0,P|316:100|308:172,1,125.999996154785,0|8,0:0|0:0,0:0:0:0:
188,316,178777,6,0,P|120:272|104:212,1,125.999996154785,4|8,0:0|0:0,0:0:0:0:
124,132,179836,1,0,0:0:0:0:
204,192,180189,2,0,L|244:136,1,62.9999980773926,0|0,0:0|0:0,0:0:0:0:
312,212,180895,2,0,L|400:184,1,62.9999980773926,8|0,0:0|0:0,0:0:0:0:
384,292,181601,2,0,L|516:308,1,125.999996154785,0|8,0:0|0:0,0:0:0:0:
480,212,182660,5,0,0:0:0:0:
436,120,183013,1,0,0:0:0:0:
376,200,183366,1,0,0:0:0:0:
332,108,183718,1,8,0:0:0:0:
272,188,184071,1,0,0:0:0:0:
224,100,184424,2,0,P|152:84|92:104,2,125.999996154785,0|8|0,0:0|0:0|0:0,0:0:0:0:
116,272,186542,5,8,0:0:0:0:
204,220,186895,1,0,0:0:0:0:
208,320,187248,2,0,P|288:332|344:308,1,125.999996154785,0|8,0:0|0:0,0:0:0:0:
440,148,188660,2,0,P|360:136|308:160,1,125.999996154785,0|8,0:0|0:0,0:0:0:0:
184,100,190071,6,0,L|136:196,1,90,4|0,0:0|0:0,0:0:0:0:
216,216,191130,2,0,L|228:280,1,45,0|2,0:0|0:0,0:0:0:0:
352,360,192189,5,0,0:0:0:0:
376,284,192542,1,0,0:0:0:0:
400,208,192895,2,0,L|348:172,1,45,0|0,0:0|0:0,0:0:0:0:
424,128,193601,1,0,0:0:0:0:
452,52,193954,2,0,L|504:88,1,45,0|2,0:0|0:0,0:0:0:0:
348,52,195013,5,0,0:0:0:0:
276,92,195366,1,0,0:0:0:0:
204,128,195718,2,0,L|156:104,1,45,0|0,0:0|0:0,0:0:0:0:
140,188,196424,1,0,0:0:0:0:
88,248,196777,2,0,L|128:272,1,45,0|2,0:0|0:0,0:0:0:0:
376,124,198542,5,0,0:0:0:0:
420,280,199248,2,0,P|376:320|292:328,1,135,0|0,0:0|0:0,0:0:0:0:
284,252,200660,2,0,L|272:152,1,90,0|2,0:0|0:0,0:0:0:0:
