osu file format v14

[General]
AudioFilename: BELIAL.mp3
AudioLeadIn: 0
PreviewTime: -1
Countdown: 1
SampleSet: Normal
StackLeniency: 0.7
Mode: 1
LetterboxInBreaks: 1
WidescreenStoryboard: 1

[Editor]
Bookmarks: 14718,26869,51173,65231,75484,87636,154464
DistanceSpacing: 1
BeatDivisor: 4
GridSize: 4
TimelineZoom: 2.999999

[Metadata]
Title:BELIAL
TitleUnicode:BELIAL
Artist:Siruhei, Rib:y(uhki)
ArtistUnicode:しるへい, Rib:y(uhki)
Creator:Ekoro
Version:Sorcery Light
Source:東方Project
Tags:kim hull silent difference heian alien houjuu nue th12 extra stage boss c82 comiket 82
BeatmapID:1147117
BeatmapSetID:477558

[Difficulty]
HPDrainRate:6
CircleSize:4.2
OverallDifficulty:7.5
ApproachRate:5
SliderMultiplier:1.4
SliderTickRate:1

[Events]
//Background and Video events
0,0,"1c717444c5d5879c055dfa0c7455c44579dc990e.jpg",0,0
//Break Periods
//Storyboard Layer 0 (Background)
//Storyboard Layer 1 (Fail)
//Storyboard Layer 2 (Pass)
//Storyboard Layer 3 (Foreground)
//Storyboard Sound Samples

[TimingPoints]
1048,379.746835443038,4,1,1,70,1,0
1048,-73.5294117647059,4,1,1,70,0,0
14718,189.873417721519,4,1,1,70,1,0
14718,-100,4,1,1,70,0,0
26900,189.873417721519,4,1,1,70,1,0
37510,189.873417721519,4,1,1,70,1,0
39028,-100,4,1,1,70,0,0
51180,-100,4,1,1,70,0,1
63332,-100,4,1,1,70,0,0
74820,-104.166666666667,4,1,1,70,0,0
74915,-108.695652173913,4,1,1,70,0,0
75010,-113.636363636364,4,1,1,70,0,0
75104,-119.047619047619,4,1,1,70,0,0
75199,-125,4,1,1,70,0,0
75294,-131.578947368421,4,1,1,70,0,0
75389,-138.888888888889,4,1,1,70,0,0
75484,-147.058823529412,4,1,1,70,0,0
86782,-100,4,1,1,70,0,0
99123,-104.166666666667,4,1,1,70,0,0
99218,-108.695652173913,4,1,1,70,0,0
99313,-113.636363636364,4,1,1,70,0,0
99408,-119.047619047619,4,1,1,70,0,0
99503,-125,4,1,1,70,0,0
99598,-131.578947368421,4,1,1,70,0,0
99693,-138.888888888889,4,1,1,70,0,0
99788,379.746835443038,4,1,1,70,1,0
99788,-73.5294117647059,4,1,1,70,0,0
111180,189.873417721519,4,1,1,70,1,0
111939,-83.3333333333333,4,1,1,70,0,1
122572,-100,4,1,1,70,0,0
154471,-83.3333333333333,4,1,1,70,0,1
160547,-100,4,1,1,70,0,0
185705,-104.166666666667,4,1,1,70,0,0
185800,-108.695652173913,4,1,1,70,0,0
185895,-113.636363636364,4,1,1,70,0,0
185990,-119.047619047619,4,1,1,70,0,0
186085,-125,4,1,1,70,0,0
186180,-131.578947368421,4,1,1,70,0,0
186274,-138.888888888889,4,1,1,70,0,0
186369,-147.058823529412,4,1,1,70,0,0
197667,-100,4,1,1,70,0,0
235642,-104.166666666667,4,1,1,70,0,0
235736,-108.695652173913,4,1,1,70,0,0
235831,-113.636363636364,4,1,1,70,0,0
235926,-119.047619047619,4,1,1,70,0,0
236021,-125,4,1,1,70,0,0
236095,200,4,1,1,70,1,0
236095,-131.578947368421,4,1,1,70,0,0
236245,-138.888888888889,4,1,1,70,0,0
236480,379.746835443038,4,1,1,70,1,0
236480,-73.5294117647059,4,1,1,70,0,0
248631,189.873417721519,4,1,1,70,1,0
254706,-83.3333333333333,4,1,1,70,0,1
260735,-83.3333333333333,4,1,1,70,0,0
260782,-83.3333333333333,4,1,1,70,0,1
260830,-100,4,1,1,70,0,0

[Colours]
Combo1 : 170,0,0
Combo2 : 231,231,152
Combo3 : 255,255,128
Combo4 : 213,128,43
Combo5 : 255,169,128
Combo6 : 64,0,0

[HitObjects]
256,192,1048,5,12,0:0:0:0:
256,192,1807,1,0,0:0:0:0:
256,192,2187,1,0,0:0:0:0:
256,192,2377,1,0,0:0:0:0:
256,192,2566,1,12,0:0:0:0:
256,192,3326,1,0,0:0:0:0:
256,192,3516,1,0,0:0:0:0:
256,192,3706,1,8,0:0:0:0:
256,192,3896,1,8,0:0:0:0:
256,192,4085,1,4,0:0:0:0:
256,192,4845,1,8,0:0:0:0:
256,192,5225,1,0,0:0:0:0:
256,192,5415,1,0,0:0:0:0:
256,192,5604,1,12,0:0:0:0:
256,192,6174,1,0,0:0:0:0:
256,192,6269,1,8,0:0:0:0:
256,192,6364,1,0,0:0:0:0:
256,192,6459,1,0,0:0:0:0:
256,192,6554,1,8,0:0:0:0:
256,192,6649,1,0,0:0:0:0:
256,192,6744,1,8,0:0:0:0:
256,192,6839,1,8,0:0:0:0:
256,192,6934,1,8,0:0:0:0:
256,192,7029,1,8,0:0:0:0:
256,192,7123,1,0,0:0:0:0:
256,192,7218,1,0,0:0:0:0:
256,192,7313,1,8,0:0:0:0:
256,192,7408,1,8,0:0:0:0:
256,192,7503,1,0,0:0:0:0:
256,192,7598,1,0,0:0:0:0:
256,192,7693,1,8,0:0:0:0:
256,192,7788,1,8,0:0:0:0:
256,192,7883,1,0,0:0:0:0:
256,192,7978,1,0,0:0:0:0:
256,192,8073,1,8,0:0:0:0:
256,192,8168,1,0,0:0:0:0:
256,192,8263,1,8,0:0:0:0:
256,192,8358,1,8,0:0:0:0:
256,192,8453,1,0,0:0:0:0:
256,192,8548,1,8,0:0:0:0:
256,192,8642,1,0,0:0:0:0:
256,192,8737,1,0,0:0:0:0:
256,192,8832,1,8,0:0:0:0:
256,192,8927,1,0,0:0:0:0:
256,192,9022,1,8,0:0:0:0:
256,192,9117,1,0,0:0:0:0:
256,192,9212,1,8,0:0:0:0:
256,192,9307,1,8,0:0:0:0:
256,192,9402,1,8,0:0:0:0:
256,192,9497,1,0,0:0:0:0:
256,192,9592,1,8,0:0:0:0:
256,192,9687,1,0,0:0:0:0:
256,192,9782,1,8,0:0:0:0:
256,192,9877,1,0,0:0:0:0:
256,192,9972,1,8,0:0:0:0:
256,192,10066,1,8,0:0:0:0:
256,192,10161,1,0,0:0:0:0:
256,192,10256,1,0,0:0:0:0:
256,192,10351,1,8,0:0:0:0:
256,192,10446,1,8,0:0:0:0:
256,192,10541,1,0,0:0:0:0:
256,192,10636,1,0,0:0:0:0:
256,192,10731,1,8,0:0:0:0:
256,192,10826,1,8,0:0:0:0:
256,192,10921,1,0,0:0:0:0:
256,192,11016,1,0,0:0:0:0:
256,192,11111,1,8,0:0:0:0:
256,192,11206,1,0,0:0:0:0:
256,192,11301,1,8,0:0:0:0:
256,192,11396,1,8,0:0:0:0:
256,192,11491,1,0,0:0:0:0:
256,192,11585,1,8,0:0:0:0:
256,192,11680,1,0,0:0:0:0:
256,192,11775,1,0,0:0:0:0:
256,192,11870,1,8,0:0:0:0:
256,192,11965,1,8,0:0:0:0:
256,192,12060,1,8,0:0:0:0:
256,192,12155,1,0,0:0:0:0:
256,192,12250,1,8,0:0:0:0:
256,192,12345,1,0,0:0:0:0:
256,192,12440,1,8,0:0:0:0:
256,192,12535,1,0,0:0:0:0:
256,192,12630,1,8,0:0:0:0:
256,192,12725,1,8,0:0:0:0:
256,192,12820,1,8,0:0:0:0:
256,192,12915,1,0,0:0:0:0:
256,192,13010,1,8,0:0:0:0:
256,192,13199,1,0,0:0:0:0:
256,192,14718,1,12,0:0:0:0:
256,192,14812,1,0,0:0:0:0:
256,192,14860,1,0,0:0:0:0:
256,192,14907,1,8,0:0:0:0:
256,192,15002,1,0,0:0:0:0:
256,192,15097,1,8,0:0:0:0:
256,192,15145,1,8,0:0:0:0:
256,192,15192,1,0,0:0:0:0:
256,192,15240,1,0,0:0:0:0:
256,192,15287,1,8,0:0:0:0:
256,192,15382,1,0,0:0:0:0:
256,192,15477,1,8,0:0:0:0:
256,192,15524,1,8,0:0:0:0:
256,192,15571,1,0,0:0:0:0:
256,192,15667,1,8,0:0:0:0:
256,192,15714,1,8,0:0:0:0:
256,192,15761,1,0,0:0:0:0:
256,192,15856,1,8,0:0:0:0:
256,192,15951,1,0,0:0:0:0:
256,192,15999,1,0,0:0:0:0:
256,192,16046,1,8,0:0:0:0:
256,192,16094,1,8,0:0:0:0:
256,192,16141,1,0,0:0:0:0:
256,192,16236,1,8,0:0:0:0:
256,192,16331,1,0,0:0:0:0:
256,192,16379,1,0,0:0:0:0:
256,192,16426,1,8,0:0:0:0:
256,192,16521,1,0,0:0:0:0:
256,192,16616,1,8,0:0:0:0:
256,192,16664,1,8,0:0:0:0:
256,192,16711,1,0,0:0:0:0:
256,192,16759,1,0,0:0:0:0:
256,192,16806,1,8,0:0:0:0:
256,192,16901,1,0,0:0:0:0:
256,192,16996,1,8,0:0:0:0:
256,192,17043,1,8,0:0:0:0:
256,192,17091,1,8,0:0:0:0:
256,192,17186,1,0,0:0:0:0:
256,192,17233,1,0,0:0:0:0:
256,192,17281,1,0,0:0:0:0:
256,192,17376,1,8,0:0:0:0:
256,192,17423,1,8,0:0:0:0:
256,192,17471,1,0,0:0:0:0:
256,192,17518,1,0,0:0:0:0:
256,192,17566,1,8,0:0:0:0:
256,192,17613,1,8,0:0:0:0:
256,192,17661,1,0,0:0:0:0:
256,192,17755,1,12,0:0:0:0:
256,192,17850,1,0,0:0:0:0:
256,192,17898,1,0,0:0:0:0:
256,192,17945,1,8,0:0:0:0:
256,192,18040,1,0,0:0:0:0:
256,192,18135,1,8,0:0:0:0:
256,192,18183,1,8,0:0:0:0:
256,192,18230,1,0,0:0:0:0:
256,192,18325,1,8,0:0:0:0:
256,192,18420,1,0,0:0:0:0:
256,192,18515,1,8,0:0:0:0:
256,192,18562,1,8,0:0:0:0:
256,192,18610,1,8,0:0:0:0:
256,192,18705,1,0,0:0:0:0:
256,192,18752,1,0,0:0:0:0:
256,192,18800,1,0,0:0:0:0:
256,192,18895,1,8,0:0:0:0:
256,192,18942,1,8,0:0:0:0:
256,192,18990,1,0,0:0:0:0:
256,192,19037,1,0,0:0:0:0:
256,192,19085,1,8,0:0:0:0:
256,192,19180,1,0,0:0:0:0:
256,192,19274,1,8,0:0:0:0:
256,192,19322,1,8,0:0:0:0:
256,192,19369,1,8,0:0:0:0:
256,192,19417,1,8,0:0:0:0:
256,192,19464,1,0,0:0:0:0:
256,192,19559,1,0,0:0:0:0:
256,192,19654,1,8,0:0:0:0:
256,192,19702,1,8,0:0:0:0:
256,192,19749,1,0,0:0:0:0:
256,192,19844,1,8,0:0:0:0:
256,192,19892,1,8,0:0:0:0:
256,192,19939,1,0,0:0:0:0:
256,192,20034,1,8,0:0:0:0:
256,192,20081,1,8,0:0:0:0:
256,192,20129,1,8,0:0:0:0:
256,192,20176,1,8,0:0:0:0:
256,192,20224,1,0,0:0:0:0:
256,192,20319,1,0,0:0:0:0:
256,192,20414,1,0,0:0:0:0:
256,192,20461,1,0,0:0:0:0:
256,192,20509,1,0,0:0:0:0:
256,192,20556,1,0,0:0:0:0:
256,192,20604,1,8,0:0:0:0:
256,192,20699,1,0,0:0:0:0:
256,192,20793,1,0,0:0:0:0:
256,192,20841,1,0,0:0:0:0:
256,192,20888,1,0,0:0:0:0:
256,192,20983,1,12,0:0:0:0:
256,192,21078,1,0,0:0:0:0:
256,192,21126,1,0,0:0:0:0:
256,192,21173,1,8,0:0:0:0:
256,192,21268,1,0,0:0:0:0:
256,192,21363,1,8,0:0:0:0:
256,192,21411,1,8,0:0:0:0:
256,192,21458,1,0,0:0:0:0:
256,192,21553,1,8,0:0:0:0:
256,192,21648,1,0,0:0:0:0:
256,192,21695,1,0,0:0:0:0:
256,192,21743,1,8,0:0:0:0:
256,192,21838,1,0,0:0:0:0:
256,192,21933,1,8,0:0:0:0:
256,192,21980,1,8,0:0:0:0:
256,192,22028,1,0,0:0:0:0:
256,192,22075,1,0,0:0:0:0:
256,192,22123,1,8,0:0:0:0:
256,192,22218,1,0,0:0:0:0:
256,192,22312,1,8,0:0:0:0:
256,192,22407,1,0,0:0:0:0:
256,192,22455,1,0,0:0:0:0:
256,192,22502,1,8,0:0:0:0:
256,192,22597,1,0,0:0:0:0:
256,192,22692,1,8,0:0:0:0:
256,192,22740,1,8,0:0:0:0:
256,192,22787,1,0,0:0:0:0:
256,192,22882,1,8,0:0:0:0:
256,192,22977,1,0,0:0:0:0:
256,192,23072,1,8,0:0:0:0:
256,192,23119,1,8,0:0:0:0:
256,192,23167,1,8,0:0:0:0:
256,192,23262,1,0,0:0:0:0:
256,192,23309,1,0,0:0:0:0:
256,192,23357,1,0,0:0:0:0:
256,192,23452,1,8,0:0:0:0:
256,192,23499,1,8,0:0:0:0:
256,192,23547,1,0,0:0:0:0:
256,192,23594,1,0,0:0:0:0:
256,192,23642,1,8,0:0:0:0:
256,192,23689,1,8,0:0:0:0:
256,192,23736,1,0,0:0:0:0:
256,192,23831,1,12,0:0:0:0:
256,192,23926,1,0,0:0:0:0:
256,192,23974,1,0,0:0:0:0:
256,192,24021,1,8,0:0:0:0:
256,192,24116,1,0,0:0:0:0:
256,192,24211,1,8,0:0:0:0:
256,192,24259,1,8,0:0:0:0:
256,192,24306,1,0,0:0:0:0:
256,192,24401,1,8,0:0:0:0:
256,192,24496,1,0,0:0:0:0:
256,192,24591,1,8,0:0:0:0:
256,192,24638,1,8,0:0:0:0:
256,192,24686,1,8,0:0:0:0:
256,192,24781,1,0,0:0:0:0:
256,192,24828,1,0,0:0:0:0:
256,192,24876,1,0,0:0:0:0:
256,192,24971,1,8,0:0:0:0:
256,192,25018,1,8,0:0:0:0:
256,192,25066,1,0,0:0:0:0:
256,192,25113,1,0,0:0:0:0:
256,192,25161,1,8,0:0:0:0:
256,192,25256,1,0,0:0:0:0:
256,192,25350,1,12,0:0:0:0:
256,192,25540,1,0,0:0:0:0:
256,192,25730,1,8,0:0:0:0:
256,192,25920,1,0,0:0:0:0:
256,192,26110,1,0,0:0:0:0:
256,192,26300,1,0,0:0:0:0:
256,192,26395,1,0,0:0:0:0:
256,192,26490,1,0,0:0:0:0:
256,192,26680,1,8,0:0:0:0:
256,192,26900,1,0,0:0:0:0:
256,192,26947,1,0,0:0:0:0:
256,192,26994,1,0,0:0:0:0:
256,192,27089,1,8,0:0:0:0:
256,192,27184,1,0,0:0:0:0:
256,192,27279,1,8,0:0:0:0:
256,192,27374,1,0,0:0:0:0:
256,192,27469,1,8,0:0:0:0:
256,192,27564,1,8,0:0:0:0:
256,192,27659,1,0,0:0:0:0:
256,192,27706,1,0,0:0:0:0:
256,192,27754,1,0,0:0:0:0:
256,192,27849,1,8,0:0:0:0:
256,192,27944,1,0,0:0:0:0:
256,192,28039,1,8,0:0:0:0:
256,192,28134,1,8,0:0:0:0:
256,192,28229,1,0,0:0:0:0:
256,192,28324,1,0,0:0:0:0:
256,192,28418,1,8,0:0:0:0:
256,192,28513,1,0,0:0:0:0:
256,192,28561,1,0,0:0:0:0:
256,192,28608,1,8,0:0:0:0:
256,192,28703,1,0,0:0:0:0:
256,192,28798,1,8,0:0:0:0:
256,192,28846,1,8,0:0:0:0:
256,192,28893,1,0,0:0:0:0:
256,192,28988,1,8,0:0:0:0:
256,192,29083,1,0,0:0:0:0:
256,192,29178,1,8,0:0:0:0:
256,192,29225,1,8,0:0:0:0:
256,192,29273,1,8,0:0:0:0:
256,192,29368,1,0,0:0:0:0:
256,192,29463,1,8,0:0:0:0:
256,192,29558,1,0,0:0:0:0:
256,192,29653,1,0,0:0:0:0:
256,192,29748,1,8,0:0:0:0:
256,192,29843,1,0,0:0:0:0:
256,192,29937,1,8,0:0:0:0:
256,192,29985,1,8,0:0:0:0:
256,192,30032,1,0,0:0:0:0:
256,192,30127,1,8,0:0:0:0:
256,192,30175,1,8,0:0:0:0:
256,192,30222,1,0,0:0:0:0:
256,192,30317,1,8,0:0:0:0:
256,192,30412,1,0,0:0:0:0:
256,192,30460,1,0,0:0:0:0:
256,192,30507,1,8,0:0:0:0:
256,192,30602,1,0,0:0:0:0:
256,192,30697,1,8,0:0:0:0:
256,192,30744,1,8,0:0:0:0:
256,192,30792,1,0,0:0:0:0:
256,192,30887,1,8,0:0:0:0:
256,192,30982,1,0,0:0:0:0:
256,192,31029,1,0,0:0:0:0:
256,192,31077,1,0,0:0:0:0:
256,192,31172,1,0,0:0:0:0:
256,192,31267,1,8,0:0:0:0:
256,192,31362,1,0,0:0:0:0:
256,192,31456,1,8,0:0:0:0:
256,192,31504,1,8,0:0:0:0:
256,192,31551,1,0,0:0:0:0:
256,192,31646,1,8,0:0:0:0:
256,192,31741,1,0,0:0:0:0:
256,192,31836,1,8,0:0:0:0:
256,192,31884,1,8,0:0:0:0:
256,192,31931,1,0,0:0:0:0:
256,192,32026,1,8,0:0:0:0:
256,192,32121,1,0,0:0:0:0:
256,192,32216,1,8,0:0:0:0:
256,192,32263,1,8,0:0:0:0:
256,192,32311,1,8,0:0:0:0:
256,192,32406,1,0,0:0:0:0:
256,192,32501,1,8,0:0:0:0:
256,192,32596,1,0,0:0:0:0:
256,192,32691,1,0,0:0:0:0:
256,192,32786,1,8,0:0:0:0:
256,192,32881,1,0,0:0:0:0:
256,192,32975,1,0,0:0:0:0:
256,192,33023,1,0,0:0:0:0:
256,192,33070,1,0,0:0:0:0:
256,192,33118,1,0,0:0:0:0:
256,192,33165,1,8,0:0:0:0:
256,192,33260,1,0,0:0:0:0:
256,192,33355,1,8,0:0:0:0:
256,192,33450,1,0,0:0:0:0:
256,192,33545,1,8,0:0:0:0:
256,192,33640,1,8,0:0:0:0:
256,192,33735,1,0,0:0:0:0:
256,192,33782,1,0,0:0:0:0:
256,192,33830,1,0,0:0:0:0:
256,192,33925,1,8,0:0:0:0:
256,192,34020,1,0,0:0:0:0:
256,192,34115,1,8,0:0:0:0:
256,192,34162,1,8,0:0:0:0:
256,192,34210,1,8,0:0:0:0:
256,192,34257,1,8,0:0:0:0:
256,192,34305,1,0,0:0:0:0:
256,192,34400,1,0,0:0:0:0:
256,192,34494,1,0,0:0:0:0:
256,192,34542,1,0,0:0:0:0:
256,192,34589,1,0,0:0:0:0:
256,192,34637,1,0,0:0:0:0:
256,192,34684,1,8,0:0:0:0:
256,192,34779,1,0,0:0:0:0:
256,192,34874,1,8,0:0:0:0:
256,192,34969,1,0,0:0:0:0:
256,192,35017,1,0,0:0:0:0:
256,192,35064,1,8,0:0:0:0:
256,192,35159,1,0,0:0:0:0:
256,192,35254,1,8,0:0:0:0:
256,192,35349,1,0,0:0:0:0:
256,192,35444,1,0,0:0:0:0:
256,192,35539,1,8,0:0:0:0:
256,192,35634,1,8,0:0:0:0:
256,192,35729,1,0,0:0:0:0:
256,192,35824,1,8,0:0:0:0:
256,192,35918,1,0,0:0:0:0:
256,192,36013,1,0,0:0:0:0:
256,192,36061,1,0,0:0:0:0:
256,192,36108,1,0,0:0:0:0:
256,192,36156,1,0,0:0:0:0:
256,192,36203,1,8,0:0:0:0:
256,192,36298,1,0,0:0:0:0:
256,192,36393,1,8,0:0:0:0:
256,192,36488,1,0,0:0:0:0:
256,192,36583,1,8,0:0:0:0:
256,192,36678,1,8,0:0:0:0:
256,192,36773,1,0,0:0:0:0:
256,192,36868,1,0,0:0:0:0:
256,192,36963,1,8,0:0:0:0:
256,192,37010,1,8,0:0:0:0:
256,192,37058,1,0,0:0:0:0:
256,192,37153,1,8,0:0:0:0:
256,192,37200,1,8,0:0:0:0:
256,192,37248,1,0,0:0:0:0:
256,192,37343,1,8,0:0:0:0:
256,192,37437,1,8,0:0:0:0:
256,192,37510,1,0,0:0:0:0:
256,192,37604,1,0,0:0:0:0:
256,192,37699,1,0,0:0:0:0:
256,192,37794,1,0,0:0:0:0:
256,192,38079,1,0,0:0:0:0:
256,192,38269,1,8,0:0:0:0:
256,192,38364,1,8,0:0:0:0:
256,192,38459,1,0,0:0:0:0:
256,192,38554,1,0,0:0:0:0:
256,192,38649,1,0,0:0:0:0:
256,192,38744,1,0,0:0:0:0:
256,192,38839,1,8,0:0:0:0:
256,192,38886,1,8,0:0:0:0:
256,192,38934,1,8,0:0:0:0:
256,192,39028,1,4,0:0:0:0:
256,192,39123,1,0,0:0:0:0:
256,192,39171,1,0,0:0:0:0:
256,192,39218,1,8,0:0:0:0:
256,192,39313,1,0,0:0:0:0:
256,192,39408,1,8,0:0:0:0:
256,192,39456,1,8,0:0:0:0:
256,192,39503,1,0,0:0:0:0:
256,192,39551,1,0,0:0:0:0:
256,192,39598,1,8,0:0:0:0:
256,192,39693,1,0,0:0:0:0:
256,192,39788,1,8,0:0:0:0:
256,192,39835,1,8,0:0:0:0:
256,192,39883,1,0,0:0:0:0:
256,192,39978,1,8,0:0:0:0:
256,192,40025,1,8,0:0:0:0:
256,192,40073,1,0,0:0:0:0:
256,192,40168,1,8,0:0:0:0:
256,192,40263,1,0,0:0:0:0:
256,192,40310,1,0,0:0:0:0:
256,192,40358,1,8,0:0:0:0:
256,192,40405,1,8,0:0:0:0:
256,192,40453,1,0,0:0:0:0:
256,192,40547,1,8,0:0:0:0:
256,192,40642,1,0,0:0:0:0:
256,192,40690,1,0,0:0:0:0:
256,192,40737,1,8,0:0:0:0:
256,192,40832,1,0,0:0:0:0:
256,192,40927,1,8,0:0:0:0:
256,192,41022,1,0,0:0:0:0:
256,192,41070,1,0,0:0:0:0:
256,192,41117,1,8,0:0:0:0:
256,192,41212,1,0,0:0:0:0:
256,192,41307,1,8,0:0:0:0:
256,192,41402,1,0,0:0:0:0:
256,192,41449,1,0,0:0:0:0:
256,192,41497,1,8,0:0:0:0:
256,192,41544,1,0,0:0:0:0:
256,192,41592,1,8,0:0:0:0:
256,192,41639,1,0,0:0:0:0:
256,192,41687,1,8,0:0:0:0:
256,192,41782,1,0,0:0:0:0:
256,192,41877,1,8,0:0:0:0:
256,192,41924,1,8,0:0:0:0:
256,192,41972,1,8,0:0:0:0:
256,192,42019,1,8,0:0:0:0:
256,192,42066,1,0,0:0:0:0:
256,192,42161,1,0,0:0:0:0:
256,192,42209,1,0,0:0:0:0:
256,192,42256,1,8,0:0:0:0:
256,192,42351,1,0,0:0:0:0:
256,192,42446,1,8,0:0:0:0:
256,192,42494,1,8,0:0:0:0:
256,192,42541,1,0,0:0:0:0:
256,192,42589,1,8,0:0:0:0:
256,192,42636,1,0,0:0:0:0:
256,192,42731,1,8,0:0:0:0:
256,192,42826,1,0,0:0:0:0:
256,192,42921,1,0,0:0:0:0:
256,192,42968,1,0,0:0:0:0:
256,192,43016,1,8,0:0:0:0:
256,192,43111,1,0,0:0:0:0:
256,192,43206,1,8,0:0:0:0:
256,192,43253,1,8,0:0:0:0:
256,192,43301,1,0,0:0:0:0:
256,192,43348,1,0,0:0:0:0:
256,192,43396,1,8,0:0:0:0:
256,192,43491,1,0,0:0:0:0:
256,192,43585,1,8,0:0:0:0:
256,192,43680,1,0,0:0:0:0:
256,192,43728,1,0,0:0:0:0:
256,192,43775,1,8,0:0:0:0:
256,192,43870,1,0,0:0:0:0:
256,192,43965,1,8,0:0:0:0:
256,192,44060,1,0,0:0:0:0:
256,192,44108,1,0,0:0:0:0:
256,192,44155,1,8,0:0:0:0:
256,192,44250,1,0,0:0:0:0:
256,192,44345,1,8,0:0:0:0:
256,192,44392,1,8,0:0:0:0:
256,192,44440,1,8,0:0:0:0:
256,192,44487,1,8,0:0:0:0:
256,192,44535,1,0,0:0:0:0:
256,192,44630,1,8,0:0:0:0:
256,192,44725,1,0,0:0:0:0:
256,192,44820,1,0,0:0:0:0:
256,192,44867,1,0,0:0:0:0:
256,192,44915,1,8,0:0:0:0:
256,192,44962,1,8,0:0:0:0:
256,192,45010,1,0,0:0:0:0:
256,192,45104,1,12,0:0:0:0:
256,192,45199,1,0,0:0:0:0:
256,192,45247,1,0,0:0:0:0:
256,192,45294,1,8,0:0:0:0:
256,192,45389,1,0,0:0:0:0:
256,192,45484,1,8,0:0:0:0:
256,192,45532,1,8,0:0:0:0:
256,192,45579,1,0,0:0:0:0:
256,192,45627,1,0,0:0:0:0:
256,192,45674,1,8,0:0:0:0:
256,192,45769,1,0,0:0:0:0:
256,192,45864,1,8,0:0:0:0:
256,192,45911,1,8,0:0:0:0:
256,192,45959,1,0,0:0:0:0:
256,192,46054,1,8,0:0:0:0:
256,192,46149,1,0,0:0:0:0:
256,192,46196,1,0,0:0:0:0:
256,192,46244,1,8,0:0:0:0:
256,192,46339,1,0,0:0:0:0:
256,192,46434,1,8,0:0:0:0:
256,192,46481,1,8,0:0:0:0:
256,192,46528,1,0,0:0:0:0:
256,192,46623,1,8,0:0:0:0:
256,192,46718,1,0,0:0:0:0:
256,192,46766,1,0,0:0:0:0:
256,192,46813,1,8,0:0:0:0:
256,192,46861,1,8,0:0:0:0:
256,192,46908,1,0,0:0:0:0:
256,192,47003,1,8,0:0:0:0:
256,192,47098,1,0,0:0:0:0:
256,192,47146,1,0,0:0:0:0:
256,192,47193,1,8,0:0:0:0:
256,192,47288,1,0,0:0:0:0:
256,192,47383,1,8,0:0:0:0:
256,192,47478,1,0,0:0:0:0:
256,192,47525,1,0,0:0:0:0:
256,192,47573,1,8,0:0:0:0:
256,192,47620,1,0,0:0:0:0:
256,192,47668,1,8,0:0:0:0:
256,192,47715,1,0,0:0:0:0:
256,192,47763,1,8,0:0:0:0:
256,192,47810,1,8,0:0:0:0:
256,192,47858,1,0,0:0:0:0:
256,192,47953,1,8,0:0:0:0:
256,192,48000,1,8,0:0:0:0:
256,192,48047,1,8,0:0:0:0:
256,192,48095,1,8,0:0:0:0:
256,192,48142,1,0,0:0:0:0:
256,192,48237,1,0,0:0:0:0:
256,192,48285,1,0,0:0:0:0:
256,192,48332,1,8,0:0:0:0:
256,192,48427,1,0,0:0:0:0:
256,192,48522,1,8,0:0:0:0:
256,192,48570,1,8,0:0:0:0:
256,192,48617,1,0,0:0:0:0:
256,192,48665,1,0,0:0:0:0:
256,192,48712,1,8,0:0:0:0:
256,192,48807,1,0,0:0:0:0:
256,192,48902,1,8,0:0:0:0:
256,192,48997,1,0,0:0:0:0:
256,192,49044,1,0,0:0:0:0:
256,192,49092,1,8,0:0:0:0:
256,192,49139,1,0,0:0:0:0:
256,192,49187,1,8,0:0:0:0:
256,192,49234,1,8,0:0:0:0:
256,192,49282,1,0,0:0:0:0:
256,192,49377,1,0,0:0:0:0:
256,192,49424,1,0,0:0:0:0:
256,192,49472,1,8,0:0:0:0:
256,192,49566,1,0,0:0:0:0:
256,192,49661,1,4,0:0:0:0:
256,192,49851,1,0,0:0:0:0:
256,192,50041,1,0,0:0:0:0:
256,192,50231,1,8,0:0:0:0:
256,192,50421,1,0,0:0:0:0:
256,192,50516,1,0,0:0:0:0:
256,192,50611,1,0,0:0:0:0:
256,192,50706,1,0,0:0:0:0:
256,192,50801,1,0,0:0:0:0:
256,192,50991,1,8,0:0:0:0:
256,192,51180,5,8,0:0:0:0:
256,192,51228,1,8,0:0:0:0:
256,192,51275,1,8,0:0:0:0:
256,192,51323,1,8,0:0:0:0:
256,192,51370,1,0,0:0:0:0:
256,192,51418,1,0,0:0:0:0:
256,192,51465,1,0,0:0:0:0:
256,192,51513,1,0,0:0:0:0:
256,192,51560,1,8,0:0:0:0:
256,192,51608,1,8,0:0:0:0:
256,192,51655,1,0,0:0:0:0:
256,192,51703,1,0,0:0:0:0:
256,192,51750,1,8,0:0:0:0:
256,192,51797,1,8,0:0:0:0:
256,192,51845,1,0,0:0:0:0:
256,192,51892,1,0,0:0:0:0:
256,192,51940,1,8,0:0:0:0:
256,192,51987,1,8,0:0:0:0:
256,192,52035,1,8,0:0:0:0:
256,192,52082,1,8,0:0:0:0:
256,192,52130,1,0,0:0:0:0:
256,192,52177,1,0,0:0:0:0:
256,192,52225,1,0,0:0:0:0:
256,192,52272,1,0,0:0:0:0:
256,192,52320,1,8,0:0:0:0:
256,192,52367,1,0,0:0:0:0:
256,192,52415,1,0,0:0:0:0:
256,192,52462,1,0,0:0:0:0:
256,192,52510,1,8,0:0:0:0:
256,192,52557,1,8,0:0:0:0:
256,192,52604,1,0,0:0:0:0:
256,192,52652,1,0,0:0:0:0:
256,192,52699,1,8,0:0:0:0:
256,192,52747,1,8,0:0:0:0:
256,192,52794,1,8,0:0:0:0:
256,192,52842,1,8,0:0:0:0:
256,192,52889,1,0,0:0:0:0:
256,192,52937,1,0,0:0:0:0:
256,192,52984,1,0,0:0:0:0:
256,192,53032,1,0,0:0:0:0:
256,192,53079,1,8,0:0:0:0:
256,192,53127,1,8,0:0:0:0:
256,192,53174,1,0,0:0:0:0:
256,192,53222,1,0,0:0:0:0:
256,192,53269,1,8,0:0:0:0:
256,192,53316,1,0,0:0:0:0:
256,192,53364,1,8,0:0:0:0:
256,192,53411,1,0,0:0:0:0:
256,192,53459,1,8,0:0:0:0:
256,192,53506,1,8,0:0:0:0:
256,192,53554,1,8,0:0:0:0:
256,192,53601,1,8,0:0:0:0:
256,192,53649,1,0,0:0:0:0:
256,192,53696,1,0,0:0:0:0:
256,192,53744,1,0,0:0:0:0:
256,192,53791,1,0,0:0:0:0:
256,192,53839,1,8,0:0:0:0:
256,192,53886,1,8,0:0:0:0:
256,192,53934,1,0,0:0:0:0:
256,192,53981,1,8,0:0:0:0:
256,192,54028,1,0,0:0:0:0:
256,192,54123,1,0,0:0:0:0:
256,192,54218,1,8,0:0:0:0:
256,192,54266,1,8,0:0:0:0:
256,192,54313,1,0,0:0:0:0:
256,192,54361,1,0,0:0:0:0:
256,192,54408,1,8,0:0:0:0:
256,192,54456,1,8,0:0:0:0:
256,192,54503,1,0,0:0:0:0:
256,192,54551,1,0,0:0:0:0:
256,192,54598,1,8,0:0:0:0:
256,192,54646,1,8,0:0:0:0:
256,192,54693,1,8,0:0:0:0:
256,192,54741,1,8,0:0:0:0:
256,192,54788,1,0,0:0:0:0:
256,192,54835,1,0,0:0:0:0:
256,192,54883,1,0,0:0:0:0:
256,192,54930,1,0,0:0:0:0:
256,192,54978,1,8,0:0:0:0:
256,192,55025,1,0,0:0:0:0:
256,192,55073,1,0,0:0:0:0:
256,192,55120,1,0,0:0:0:0:
256,192,55168,1,8,0:0:0:0:
256,192,55215,1,8,0:0:0:0:
256,192,55263,1,8,0:0:0:0:
256,192,55310,1,8,0:0:0:0:
256,192,55358,1,0,0:0:0:0:
256,192,55405,1,0,0:0:0:0:
256,192,55453,1,0,0:0:0:0:
256,192,55500,1,0,0:0:0:0:
256,192,55547,1,8,0:0:0:0:
256,192,55595,1,8,0:0:0:0:
256,192,55642,1,0,0:0:0:0:
256,192,55690,1,0,0:0:0:0:
256,192,55737,1,8,0:0:0:0:
256,192,55785,1,8,0:0:0:0:
256,192,55832,1,8,0:0:0:0:
256,192,55880,1,8,0:0:0:0:
256,192,55927,1,0,0:0:0:0:
256,192,55975,1,0,0:0:0:0:
256,192,56022,1,0,0:0:0:0:
256,192,56070,1,0,0:0:0:0:
256,192,56117,1,8,0:0:0:0:
256,192,56165,1,8,0:0:0:0:
256,192,56212,1,8,0:0:0:0:
256,192,56260,1,8,0:0:0:0:
256,192,56307,1,0,0:0:0:0:
256,192,56354,1,0,0:0:0:0:
256,192,56402,1,0,0:0:0:0:
256,192,56449,1,0,0:0:0:0:
256,192,56497,1,8,0:0:0:0:
256,192,56545,1,0,0:0:0:0:
256,192,56592,1,0,0:0:0:0:
256,192,56640,1,0,0:0:0:0:
256,192,56687,1,8,0:0:0:0:
256,192,56735,1,8,0:0:0:0:
256,192,56782,1,0,0:0:0:0:
256,192,56830,1,0,0:0:0:0:
256,192,56877,1,8,0:0:0:0:
256,192,56925,1,8,0:0:0:0:
256,192,56972,1,8,0:0:0:0:
256,192,57020,1,8,0:0:0:0:
256,192,57067,1,0,0:0:0:0:
256,192,57162,1,0,0:0:0:0:
256,192,57256,1,8,0:0:0:0:
256,192,57304,1,8,0:0:0:0:
256,192,57351,1,8,0:0:0:0:
256,192,57399,1,8,0:0:0:0:
256,192,57446,1,0,0:0:0:0:
256,192,57494,1,0,0:0:0:0:
256,192,57541,1,0,0:0:0:0:
256,192,57589,1,0,0:0:0:0:
256,192,57636,1,8,0:0:0:0:
256,192,57684,1,8,0:0:0:0:
256,192,57731,1,0,0:0:0:0:
256,192,57778,1,0,0:0:0:0:
256,192,57826,1,8,0:0:0:0:
256,192,57873,1,8,0:0:0:0:
256,192,57921,1,0,0:0:0:0:
256,192,57968,1,0,0:0:0:0:
256,192,58016,1,8,0:0:0:0:
256,192,58063,1,8,0:0:0:0:
256,192,58111,1,8,0:0:0:0:
256,192,58158,1,8,0:0:0:0:
256,192,58206,1,0,0:0:0:0:
256,192,58253,1,0,0:0:0:0:
256,192,58301,1,0,0:0:0:0:
256,192,58348,1,0,0:0:0:0:
256,192,58396,1,8,0:0:0:0:
256,192,58443,1,0,0:0:0:0:
256,192,58491,1,0,0:0:0:0:
256,192,58538,1,0,0:0:0:0:
256,192,58585,1,8,0:0:0:0:
256,192,58633,1,8,0:0:0:0:
256,192,58680,1,0,0:0:0:0:
256,192,58728,1,0,0:0:0:0:
256,192,58775,1,8,0:0:0:0:
256,192,58823,1,8,0:0:0:0:
256,192,58870,1,8,0:0:0:0:
256,192,58918,1,8,0:0:0:0:
256,192,58965,1,0,0:0:0:0:
256,192,59013,1,0,0:0:0:0:
256,192,59060,1,0,0:0:0:0:
256,192,59108,1,0,0:0:0:0:
256,192,59155,1,8,0:0:0:0:
256,192,59203,1,0,0:0:0:0:
256,192,59250,1,0,0:0:0:0:
256,192,59297,1,0,0:0:0:0:
256,192,59345,1,8,0:0:0:0:
256,192,59392,1,8,0:0:0:0:
256,192,59440,1,0,0:0:0:0:
256,192,59487,1,0,0:0:0:0:
256,192,59535,1,8,0:0:0:0:
256,192,59582,1,8,0:0:0:0:
256,192,59630,1,8,0:0:0:0:
256,192,59677,1,8,0:0:0:0:
256,192,59725,1,0,0:0:0:0:
256,192,59772,1,0,0:0:0:0:
256,192,59820,1,0,0:0:0:0:
256,192,59867,1,0,0:0:0:0:
256,192,59915,1,8,0:0:0:0:
256,192,59962,1,8,0:0:0:0:
256,192,60010,1,0,0:0:0:0:
256,192,60057,1,8,0:0:0:0:
256,192,60104,1,0,0:0:0:0:
256,192,60199,1,0,0:0:0:0:
256,192,60294,1,8,0:0:0:0:
256,192,60342,1,8,0:0:0:0:
256,192,60389,1,8,0:0:0:0:
256,192,60437,1,8,0:0:0:0:
256,192,60484,1,0,0:0:0:0:
256,192,60532,1,0,0:0:0:0:
256,192,60579,1,0,0:0:0:0:
256,192,60627,1,0,0:0:0:0:
256,192,60674,1,8,0:0:0:0:
256,192,60722,1,8,0:0:0:0:
256,192,60769,1,8,0:0:0:0:
256,192,60816,1,8,0:0:0:0:
256,192,60864,1,0,0:0:0:0:
256,192,60911,1,0,0:0:0:0:
256,192,60959,1,0,0:0:0:0:
256,192,61006,1,0,0:0:0:0:
256,192,61054,1,8,0:0:0:0:
256,192,61149,1,0,0:0:0:0:
256,192,61244,1,8,0:0:0:0:
256,192,61339,1,8,0:0:0:0:
256,192,61434,1,0,0:0:0:0:
256,192,61623,1,8,0:0:0:0:
256,192,61813,1,12,0:0:0:0:
256,192,62383,5,0,0:0:0:0:
256,192,62478,1,0,0:0:0:0:
256,192,62573,1,8,0:0:0:0:
256,192,62668,1,0,0:0:0:0:
256,192,62763,1,0,0:0:0:0:
256,192,62858,1,8,0:0:0:0:
256,192,62953,1,0,0:0:0:0:
256,192,63047,1,8,0:0:0:0:
256,192,63142,1,8,0:0:0:0:
256,192,63237,1,8,0:0:0:0:
256,192,63332,1,12,0:0:0:0:
256,192,63427,1,0,0:0:0:0:
256,192,63475,1,0,0:0:0:0:
256,192,63522,1,8,0:0:0:0:
256,192,63617,1,0,0:0:0:0:
256,192,63712,1,8,0:0:0:0:
256,192,63760,1,8,0:0:0:0:
256,192,63807,1,0,0:0:0:0:
256,192,63854,1,0,0:0:0:0:
256,192,63902,1,8,0:0:0:0:
256,192,63997,1,0,0:0:0:0:
256,192,64092,1,8,0:0:0:0:
256,192,64139,1,8,0:0:0:0:
256,192,64187,1,0,0:0:0:0:
256,192,64282,1,8,0:0:0:0:
256,192,64329,1,8,0:0:0:0:
256,192,64377,1,0,0:0:0:0:
256,192,64472,1,8,0:0:0:0:
256,192,64566,1,0,0:0:0:0:
256,192,64614,1,0,0:0:0:0:
256,192,64661,1,8,0:0:0:0:
256,192,64709,1,8,0:0:0:0:
256,192,64756,1,0,0:0:0:0:
256,192,64851,1,8,0:0:0:0:
256,192,64899,1,8,0:0:0:0:
256,192,64946,1,0,0:0:0:0:
256,192,65041,1,8,0:0:0:0:
256,192,65136,1,0,0:0:0:0:
256,192,65231,1,8,0:0:0:0:
256,192,65278,1,8,0:0:0:0:
256,192,65326,1,0,0:0:0:0:
256,192,65421,1,8,0:0:0:0:
256,192,65516,1,0,0:0:0:0:
256,192,65611,1,8,0:0:0:0:
256,192,65658,1,8,0:0:0:0:
256,192,65706,1,8,0:0:0:0:
256,192,65753,1,8,0:0:0:0:
256,192,65801,1,0,0:0:0:0:
256,192,65896,1,8,0:0:0:0:
256,192,65991,1,0,0:0:0:0:
256,192,66085,1,0,0:0:0:0:
256,192,66133,1,0,0:0:0:0:
256,192,66180,1,8,0:0:0:0:
256,192,66275,1,0,0:0:0:0:
256,192,66370,1,12,0:0:0:0:
256,192,66465,1,0,0:0:0:0:
256,192,66513,1,0,0:0:0:0:
256,192,66560,1,8,0:0:0:0:
256,192,66655,1,0,0:0:0:0:
256,192,66750,1,8,0:0:0:0:
256,192,66797,1,8,0:0:0:0:
256,192,66844,1,0,0:0:0:0:
256,192,66939,1,8,0:0:0:0:
256,192,66987,1,8,0:0:0:0:
256,192,67034,1,0,0:0:0:0:
256,192,67130,1,8,0:0:0:0:
256,192,67225,1,0,0:0:0:0:
256,192,67273,1,0,0:0:0:0:
256,192,67320,1,8,0:0:0:0:
256,192,67415,1,0,0:0:0:0:
256,192,67510,1,8,0:0:0:0:
256,192,67557,1,8,0:0:0:0:
256,192,67604,1,0,0:0:0:0:
256,192,67699,1,8,0:0:0:0:
256,192,67794,1,0,0:0:0:0:
256,192,67889,1,8,0:0:0:0:
256,192,67937,1,8,0:0:0:0:
256,192,67984,1,0,0:0:0:0:
256,192,68079,1,8,0:0:0:0:
256,192,68174,1,0,0:0:0:0:
256,192,68269,1,8,0:0:0:0:
256,192,68316,1,8,0:0:0:0:
256,192,68364,1,8,0:0:0:0:
256,192,68411,1,8,0:0:0:0:
256,192,68459,1,0,0:0:0:0:
256,192,68554,1,0,0:0:0:0:
256,192,68649,1,8,0:0:0:0:
256,192,68696,1,8,0:0:0:0:
256,192,68744,1,8,0:0:0:0:
256,192,68839,1,0,0:0:0:0:
256,192,68934,1,8,0:0:0:0:
256,192,68981,1,8,0:0:0:0:
256,192,69028,1,0,0:0:0:0:
256,192,69123,1,0,0:0:0:0:
256,192,69218,1,8,0:0:0:0:
256,192,69266,1,8,0:0:0:0:
256,192,69313,1,0,0:0:0:0:
256,192,69408,1,12,0:0:0:0:
256,192,69503,1,0,0:0:0:0:
256,192,69551,1,0,0:0:0:0:
256,192,69598,1,8,0:0:0:0:
256,192,69693,1,0,0:0:0:0:
256,192,69788,1,8,0:0:0:0:
256,192,69835,1,8,0:0:0:0:
256,192,69883,1,0,0:0:0:0:
256,192,69978,1,8,0:0:0:0:
256,192,70025,1,0,0:0:0:0:
256,192,70073,1,0,0:0:0:0:
256,192,70120,1,0,0:0:0:0:
256,192,70168,1,8,0:0:0:0:
256,192,70263,1,0,0:0:0:0:
256,192,70358,1,8,0:0:0:0:
256,192,70453,1,0,0:0:0:0:
256,192,70500,1,0,0:0:0:0:
256,192,70547,1,8,0:0:0:0:
256,192,70642,1,0,0:0:0:0:
256,192,70737,1,8,0:0:0:0:
256,192,70832,1,0,0:0:0:0:
256,192,70927,1,8,0:0:0:0:
256,192,70975,1,8,0:0:0:0:
256,192,71022,1,0,0:0:0:0:
256,192,71117,1,8,0:0:0:0:
256,192,71212,1,0,0:0:0:0:
256,192,71260,1,0,0:0:0:0:
256,192,71307,1,8,0:0:0:0:
256,192,71354,1,8,0:0:0:0:
256,192,71402,1,0,0:0:0:0:
256,192,71497,1,8,0:0:0:0:
256,192,71592,1,0,0:0:0:0:
256,192,71639,1,0,0:0:0:0:
256,192,71687,1,8,0:0:0:0:
256,192,71734,1,8,0:0:0:0:
256,192,71782,1,0,0:0:0:0:
256,192,71829,1,0,0:0:0:0:
256,192,71877,1,8,0:0:0:0:
256,192,71924,1,0,0:0:0:0:
256,192,71972,1,8,0:0:0:0:
256,192,72019,1,8,0:0:0:0:
256,192,72066,1,0,0:0:0:0:
256,192,72161,1,0,0:0:0:0:
256,192,72209,1,0,0:0:0:0:
256,192,72256,1,8,0:0:0:0:
256,192,72351,1,0,0:0:0:0:
256,192,72383,1,0,0:0:0:0:
256,192,72415,1,0,0:0:0:0:
256,192,72446,1,8,0:0:0:0:
256,192,72541,1,0,0:0:0:0:
256,192,72636,1,8,0:0:0:0:
256,192,72731,1,0,0:0:0:0:
256,192,72778,1,0,0:0:0:0:
256,192,72826,1,8,0:0:0:0:
256,192,72921,1,0,0:0:0:0:
256,192,73016,1,8,0:0:0:0:
256,192,73063,1,8,0:0:0:0:
256,192,73111,1,0,0:0:0:0:
256,192,73158,1,0,0:0:0:0:
256,192,73206,1,8,0:0:0:0:
256,192,73301,1,0,0:0:0:0:
256,192,73348,1,0,0:0:0:0:
256,192,73396,1,8,0:0:0:0:
256,192,73491,1,0,0:0:0:0:
256,192,73585,1,8,0:0:0:0:
256,192,73633,1,0,0:0:0:0:
256,192,73680,1,0,0:0:0:0:
256,192,73728,1,0,0:0:0:0:
256,192,73775,1,8,0:0:0:0:
256,192,73823,1,8,0:0:0:0:
256,192,73870,1,0,0:0:0:0:
256,192,73965,1,12,0:0:0:0:
256,192,74155,1,0,0:0:0:0:
256,192,74250,1,0,0:0:0:0:
256,192,74345,1,8,0:0:0:0:
256,192,74535,1,8,0:0:0:0:
256,192,74725,1,8,0:0:0:0:
256,192,74820,1,8,0:0:0:0:
256,192,74915,1,0,0:0:0:0:
256,192,75010,1,0,0:0:0:0:
256,192,75104,1,0,0:0:0:0:
256,192,75199,1,0,0:0:0:0:
256,192,75294,1,0,0:0:0:0:
256,192,75389,1,0,0:0:0:0:
256,192,75484,1,12,0:0:0:0:
256,192,75579,1,0,0:0:0:0:
256,192,75674,1,0,0:0:0:0:
256,192,75769,1,0,0:0:0:0:
256,192,75864,1,0,0:0:0:0:
256,192,75959,1,0,0:0:0:0:
256,192,76054,1,0,0:0:0:0:
256,192,76149,1,0,0:0:0:0:
256,192,76244,1,8,0:0:0:0:
256,192,76434,1,0,0:0:0:0:
256,192,76528,1,8,0:0:0:0:
256,192,76623,1,0,0:0:0:0:
256,192,76718,1,0,0:0:0:0:
256,192,76813,1,8,0:0:0:0:
256,192,77003,1,0,0:0:0:0:
256,192,77193,1,8,0:0:0:0:
256,192,77288,1,8,0:0:0:0:
256,192,77383,1,0,0:0:0:0:
256,192,77478,1,8,0:0:0:0:
256,192,77573,1,8,0:0:0:0:
256,192,77668,1,8,0:0:0:0:
256,192,77763,1,0,0:0:0:0:
256,192,77858,1,0,0:0:0:0:
256,192,77953,1,8,0:0:0:0:
256,192,78047,1,0,0:0:0:0:
256,192,78142,1,0,0:0:0:0:
256,192,78237,1,8,0:0:0:0:
256,192,78332,1,0,0:0:0:0:
256,192,78522,1,12,0:0:0:0:
256,192,78712,1,0,0:0:0:0:
256,192,78807,1,0,0:0:0:0:
256,192,78902,1,0,0:0:0:0:
256,192,78997,1,0,0:0:0:0:
256,192,79092,1,0,0:0:0:0:
256,192,79187,1,0,0:0:0:0:
256,192,79282,1,8,0:0:0:0:
256,192,79377,1,8,0:0:0:0:
256,192,79472,1,0,0:0:0:0:
256,192,79566,1,8,0:0:0:0:
256,192,79661,1,0,0:0:0:0:
256,192,79756,1,0,0:0:0:0:
256,192,79851,1,8,0:0:0:0:
256,192,80041,1,8,0:0:0:0:
256,192,80231,1,0,0:0:0:0:
256,192,80326,1,0,0:0:0:0:
256,192,80421,1,8,0:0:0:0:
256,192,80516,1,0,0:0:0:0:
256,192,80611,1,0,0:0:0:0:
256,192,80706,1,0,0:0:0:0:
256,192,80801,1,8,0:0:0:0:
256,192,80896,1,0,0:0:0:0:
256,192,80991,1,0,0:0:0:0:
256,192,81085,1,8,0:0:0:0:
256,192,81180,1,0,0:0:0:0:
256,192,81275,1,0,0:0:0:0:
256,192,81370,1,8,0:0:0:0:
256,192,81560,1,12,0:0:0:0:
256,192,81750,1,0,0:0:0:0:
256,192,81845,1,0,0:0:0:0:
256,192,81940,1,8,0:0:0:0:
256,192,82035,1,8,0:0:0:0:
256,192,82130,1,0,0:0:0:0:
256,192,82225,1,0,0:0:0:0:
256,192,82320,1,0,0:0:0:0:
256,192,82510,1,8,0:0:0:0:
256,192,82604,1,0,0:0:0:0:
256,192,82794,1,0,0:0:0:0:
256,192,82889,1,0,0:0:0:0:
256,192,83079,1,12,0:0:0:0:
256,192,83269,1,0,0:0:0:0:
256,192,83364,1,0,0:0:0:0:
256,192,83459,1,8,0:0:0:0:
256,192,83554,1,0,0:0:0:0:
256,192,83649,1,0,0:0:0:0:
256,192,83744,1,0,0:0:0:0:
256,192,83839,1,8,0:0:0:0:
256,192,83934,1,8,0:0:0:0:
256,192,84028,1,0,0:0:0:0:
256,192,84123,1,8,0:0:0:0:
256,192,84218,1,0,0:0:0:0:
256,192,84408,1,8,0:0:0:0:
256,192,84598,1,4,0:0:0:0:
256,192,84693,1,0,0:0:0:0:
256,192,84883,1,0,0:0:0:0:
256,192,84978,1,8,0:0:0:0:
256,192,85073,1,8,0:0:0:0:
256,192,85168,1,0,0:0:0:0:
256,192,85263,1,0,0:0:0:0:
256,192,85358,1,0,0:0:0:0:
256,192,85547,1,8,0:0:0:0:
256,192,85642,1,8,0:0:0:0:
256,192,85737,1,0,0:0:0:0:
256,192,85832,1,0,0:0:0:0:
256,192,85927,1,8,0:0:0:0:
256,192,86022,1,0,0:0:0:0:
256,192,86117,1,12,0:0:0:0:
256,192,86497,1,0,0:0:0:0:
256,192,86687,1,0,0:0:0:0:
256,192,86782,1,0,0:0:0:0:
256,192,86829,1,0,0:0:0:0:
256,192,86877,1,8,0:0:0:0:
256,192,86924,1,8,0:0:0:0:
256,192,86972,1,8,0:0:0:0:
256,192,87019,1,8,0:0:0:0:
256,192,87066,1,0,0:0:0:0:
256,192,87114,1,0,0:0:0:0:
256,192,87161,1,8,0:0:0:0:
256,192,87209,1,8,0:0:0:0:
256,192,87256,1,8,0:0:0:0:
256,192,87304,1,8,0:0:0:0:
256,192,87351,1,0,0:0:0:0:
256,192,87399,1,0,0:0:0:0:
256,192,87446,1,8,0:0:0:0:
256,192,87541,1,0,0:0:0:0:
256,192,87636,1,12,0:0:0:0:
256,192,87731,1,0,0:0:0:0:
256,192,87778,1,0,0:0:0:0:
256,192,87826,1,8,0:0:0:0:
256,192,87921,1,0,0:0:0:0:
256,192,88016,1,8,0:0:0:0:
256,192,88111,1,0,0:0:0:0:
256,192,88206,1,8,0:0:0:0:
256,192,88253,1,8,0:0:0:0:
256,192,88301,1,0,0:0:0:0:
256,192,88396,1,8,0:0:0:0:
256,192,88443,1,8,0:0:0:0:
256,192,88491,1,0,0:0:0:0:
256,192,88585,1,8,0:0:0:0:
256,192,88680,1,0,0:0:0:0:
256,192,88728,1,0,0:0:0:0:
256,192,88775,1,8,0:0:0:0:
256,192,88870,1,0,0:0:0:0:
256,192,88965,1,8,0:0:0:0:
256,192,89013,1,8,0:0:0:0:
256,192,89060,1,8,0:0:0:0:
256,192,89108,1,8,0:0:0:0:
256,192,89155,1,0,0:0:0:0:
256,192,89250,1,0,0:0:0:0:
256,192,89297,1,0,0:0:0:0:
256,192,89345,1,8,0:0:0:0:
256,192,89440,1,0,0:0:0:0:
256,192,89535,1,8,0:0:0:0:
256,192,89630,1,0,0:0:0:0:
256,192,89725,1,8,0:0:0:0:
256,192,89772,1,8,0:0:0:0:
256,192,89820,1,8,0:0:0:0:
256,192,89915,1,0,0:0:0:0:
256,192,90010,1,0,0:0:0:0:
256,192,90104,1,8,0:0:0:0:
256,192,90152,1,8,0:0:0:0:
256,192,90199,1,8,0:0:0:0:
256,192,90294,1,0,0:0:0:0:
256,192,90389,1,0,0:0:0:0:
256,192,90484,1,8,0:0:0:0:
256,192,90532,1,8,0:0:0:0:
256,192,90579,1,8,0:0:0:0:
256,192,90627,1,8,0:0:0:0:
256,192,90674,1,0,0:0:0:0:
256,192,90769,1,0,0:0:0:0:
256,192,90816,1,0,0:0:0:0:
256,192,90864,1,8,0:0:0:0:
256,192,90959,1,0,0:0:0:0:
256,192,91054,1,8,0:0:0:0:
256,192,91149,1,0,0:0:0:0:
256,192,91244,1,8,0:0:0:0:
256,192,91339,1,8,0:0:0:0:
256,192,91434,1,0,0:0:0:0:
256,192,91481,1,0,0:0:0:0:
256,192,91528,1,0,0:0:0:0:
256,192,91623,1,8,0:0:0:0:
256,192,91718,1,0,0:0:0:0:
256,192,91813,1,0,0:0:0:0:
256,192,91861,1,0,0:0:0:0:
256,192,91908,1,0,0:0:0:0:
256,192,92003,1,8,0:0:0:0:
256,192,92051,1,8,0:0:0:0:
256,192,92098,1,8,0:0:0:0:
256,192,92193,1,0,0:0:0:0:
256,192,92241,1,0,0:0:0:0:
256,192,92288,1,0,0:0:0:0:
256,192,92335,1,0,0:0:0:0:
256,192,92383,1,8,0:0:0:0:
256,192,92478,1,0,0:0:0:0:
256,192,92573,1,8,0:0:0:0:
256,192,92668,1,0,0:0:0:0:
256,192,92763,1,8,0:0:0:0:
256,192,92858,1,8,0:0:0:0:
256,192,92953,1,0,0:0:0:0:
256,192,93000,1,0,0:0:0:0:
256,192,93047,1,0,0:0:0:0:
256,192,93142,1,8,0:0:0:0:
256,192,93237,1,8,0:0:0:0:
256,192,93332,1,0,0:0:0:0:
256,192,93380,1,0,0:0:0:0:
256,192,93427,1,0,0:0:0:0:
256,192,93522,1,8,0:0:0:0:
256,192,93617,1,8,0:0:0:0:
256,192,93712,1,4,0:0:0:0:
256,192,93807,1,0,0:0:0:0:
256,192,93854,1,0,0:0:0:0:
256,192,93902,1,8,0:0:0:0:
256,192,93997,1,0,0:0:0:0:
256,192,94092,1,8,0:0:0:0:
256,192,94187,1,0,0:0:0:0:
256,192,94282,1,8,0:0:0:0:
256,192,94329,1,8,0:0:0:0:
256,192,94377,1,0,0:0:0:0:
256,192,94472,1,8,0:0:0:0:
256,192,94519,1,8,0:0:0:0:
256,192,94566,1,0,0:0:0:0:
256,192,94661,1,8,0:0:0:0:
256,192,94756,1,0,0:0:0:0:
256,192,94804,1,0,0:0:0:0:
256,192,94851,1,8,0:0:0:0:
256,192,94946,1,0,0:0:0:0:
256,192,95041,1,8,0:0:0:0:
256,192,95136,1,0,0:0:0:0:
256,192,95231,1,0,0:0:0:0:
256,192,95278,1,8,0:0:0:0:
256,192,95326,1,0,0:0:0:0:
256,192,95373,1,0,0:0:0:0:
256,192,95421,1,8,0:0:0:0:
256,192,95516,1,0,0:0:0:0:
256,192,95611,1,8,0:0:0:0:
256,192,95706,1,0,0:0:0:0:
256,192,95753,1,0,0:0:0:0:
256,192,95801,1,8,0:0:0:0:
256,192,95896,1,0,0:0:0:0:
256,192,95991,1,0,0:0:0:0:
256,192,96038,1,0,0:0:0:0:
256,192,96085,1,0,0:0:0:0:
256,192,96180,1,8,0:0:0:0:
256,192,96275,1,0,0:0:0:0:
256,192,96370,1,0,0:0:0:0:
256,192,96418,1,0,0:0:0:0:
256,192,96465,1,0,0:0:0:0:
256,192,96560,1,8,0:0:0:0:
256,192,96608,1,8,0:0:0:0:
256,192,96655,1,8,0:0:0:0:
256,192,96703,1,8,0:0:0:0:
256,192,96750,1,0,0:0:0:0:
256,192,96845,1,8,0:0:0:0:
256,192,96892,1,8,0:0:0:0:
256,192,96940,1,0,0:0:0:0:
256,192,97035,1,8,0:0:0:0:
256,192,97130,1,0,0:0:0:0:
256,192,97177,1,0,0:0:0:0:
256,192,97225,1,8,0:0:0:0:
256,192,97272,1,8,0:0:0:0:
256,192,97320,1,0,0:0:0:0:
256,192,97415,1,8,0:0:0:0:
256,192,97510,1,0,0:0:0:0:
256,192,97557,1,0,0:0:0:0:
256,192,97604,1,8,0:0:0:0:
256,192,97652,1,8,0:0:0:0:
256,192,97699,1,0,0:0:0:0:
256,192,97747,1,0,0:0:0:0:
256,192,97794,1,8,0:0:0:0:
256,192,97889,1,0,0:0:0:0:
256,192,97984,1,8,0:0:0:0:
256,192,98032,1,8,0:0:0:0:
256,192,98079,1,8,0:0:0:0:
256,192,98174,1,8,0:0:0:0:
256,192,98269,1,0,0:0:0:0:
256,192,98459,1,8,0:0:0:0:
256,192,98649,1,0,0:0:0:0:
256,192,98839,1,0,0:0:0:0:
256,192,99028,1,8,0:0:0:0:
256,192,99123,1,0,0:0:0:0:
256,192,99218,1,0,0:0:0:0:
256,192,99313,1,0,0:0:0:0:
256,192,99408,1,0,0:0:0:0:
256,192,99503,1,0,0:0:0:0:
256,192,99598,1,8,0:0:0:0:
256,192,99693,1,8,0:0:0:0:
256,192,99788,1,0,0:0:0:0:
256,192,100167,1,0,0:0:0:0:
256,192,100547,1,0,0:0:0:0:
256,192,100927,1,0,0:0:0:0:
256,192,101306,1,0,0:0:0:0:
256,192,101686,1,0,0:0:0:0:
256,192,102066,1,0,0:0:0:0:
256,192,102256,1,8,0:0:0:0:
256,192,102446,1,0,0:0:0:0:
256,192,102636,1,8,0:0:0:0:
256,192,102825,1,0,0:0:0:0:
256,192,103204,1,0,0:0:0:0:
256,192,103584,1,0,0:0:0:0:
256,192,103964,1,0,0:0:0:0:
256,192,104343,1,0,0:0:0:0:
256,192,104723,1,0,0:0:0:0:
256,192,105103,1,8,0:0:0:0:
256,192,105293,1,8,0:0:0:0:
256,192,105483,1,0,0:0:0:0:
256,192,105673,1,8,0:0:0:0:
256,192,105863,1,0,0:0:0:0:
256,192,106242,1,0,0:0:0:0:
256,192,106622,1,0,0:0:0:0:
256,192,107002,1,0,0:0:0:0:
256,192,107381,1,0,0:0:0:0:
256,192,107761,1,0,0:0:0:0:
256,192,108141,1,0,0:0:0:0:
256,192,108521,1,8,0:0:0:0:
256,192,108901,1,0,0:0:0:0:
256,192,109281,1,0,0:0:0:0:
256,192,109661,1,0,0:0:0:0:
256,192,110041,1,0,0:0:0:0:
256,192,110420,1,0,0:0:0:0:
256,192,110800,1,0,0:0:0:0:
256,192,110990,1,0,0:0:0:0:
256,192,111180,5,8,0:0:0:0:
256,192,111274,1,0,0:0:0:0:
256,192,111322,1,0,0:0:0:0:
256,192,111369,1,0,0:0:0:0:
256,192,111464,1,8,0:0:0:0:
256,192,111559,1,0,0:0:0:0:
256,192,111939,1,12,0:0:0:0:
256,192,112034,1,0,0:0:0:0:
256,192,112081,1,0,0:0:0:0:
256,192,112129,1,8,0:0:0:0:
256,192,112224,1,0,0:0:0:0:
256,192,112319,1,8,0:0:0:0:
256,192,112366,1,8,0:0:0:0:
256,192,112414,1,0,0:0:0:0:
256,192,112461,1,0,0:0:0:0:
256,192,112509,1,8,0:0:0:0:
256,192,112604,1,0,0:0:0:0:
256,192,112699,1,8,0:0:0:0:
256,192,112746,1,8,0:0:0:0:
256,192,112794,1,0,0:0:0:0:
256,192,112889,1,8,0:0:0:0:
256,192,112936,1,8,0:0:0:0:
256,192,112984,1,0,0:0:0:0:
256,192,113079,1,8,0:0:0:0:
256,192,113173,1,0,0:0:0:0:
256,192,113221,1,0,0:0:0:0:
256,192,113268,1,8,0:0:0:0:
256,192,113316,1,8,0:0:0:0:
256,192,113363,1,0,0:0:0:0:
256,192,113458,1,8,0:0:0:0:
256,192,113553,1,0,0:0:0:0:
256,192,113600,1,0,0:0:0:0:
256,192,113648,1,8,0:0:0:0:
256,192,113743,1,0,0:0:0:0:
256,192,113790,1,0,0:0:0:0:
256,192,113838,1,8,0:0:0:0:
256,192,113933,1,0,0:0:0:0:
256,192,113980,1,0,0:0:0:0:
256,192,114028,1,8,0:0:0:0:
256,192,114123,1,0,0:0:0:0:
256,192,114170,1,0,0:0:0:0:
256,192,114217,1,8,0:0:0:0:
256,192,114265,1,8,0:0:0:0:
256,192,114312,1,0,0:0:0:0:
256,192,114360,1,0,0:0:0:0:
256,192,114407,1,8,0:0:0:0:
256,192,114455,1,8,0:0:0:0:
256,192,114502,1,0,0:0:0:0:
256,192,114550,1,0,0:0:0:0:
256,192,114597,1,8,0:0:0:0:
256,192,114645,1,8,0:0:0:0:
256,192,114692,1,0,0:0:0:0:
256,192,114740,1,0,0:0:0:0:
256,192,114787,1,8,0:0:0:0:
256,192,114835,1,0,0:0:0:0:
256,192,114882,1,8,0:0:0:0:
256,192,114930,1,0,0:0:0:0:
256,192,114977,1,8,0:0:0:0:
256,192,115072,1,0,0:0:0:0:
256,192,115119,1,0,0:0:0:0:
256,192,115167,1,8,0:0:0:0:
256,192,115262,1,0,0:0:0:0:
256,192,115357,1,8,0:0:0:0:
256,192,115404,1,8,0:0:0:0:
256,192,115452,1,0,0:0:0:0:
256,192,115499,1,0,0:0:0:0:
256,192,115547,1,8,0:0:0:0:
256,192,115642,1,0,0:0:0:0:
256,192,115736,1,8,0:0:0:0:
256,192,115831,1,0,0:0:0:0:
256,192,115878,1,0,0:0:0:0:
256,192,115926,1,8,0:0:0:0:
256,192,116021,1,0,0:0:0:0:
256,192,116116,1,8,0:0:0:0:
256,192,116163,1,8,0:0:0:0:
256,192,116211,1,0,0:0:0:0:
256,192,116258,1,0,0:0:0:0:
256,192,116306,1,8,0:0:0:0:
256,192,116401,1,0,0:0:0:0:
256,192,116496,1,8,0:0:0:0:
256,192,116591,1,0,0:0:0:0:
256,192,116638,1,0,0:0:0:0:
256,192,116686,1,8,0:0:0:0:
256,192,116781,1,0,0:0:0:0:
256,192,116828,1,0,0:0:0:0:
256,192,116876,1,8,0:0:0:0:
256,192,116971,1,0,0:0:0:0:
256,192,117018,1,0,0:0:0:0:
256,192,117066,1,8,0:0:0:0:
256,192,117161,1,0,0:0:0:0:
256,192,117255,1,8,0:0:0:0:
256,192,117303,1,8,0:0:0:0:
256,192,117350,1,0,0:0:0:0:
256,192,117445,1,8,0:0:0:0:
256,192,117493,1,8,0:0:0:0:
256,192,117540,1,0,0:0:0:0:
256,192,117635,1,8,0:0:0:0:
256,192,117683,1,0,0:0:0:0:
256,192,117730,1,8,0:0:0:0:
256,192,117778,1,0,0:0:0:0:
256,192,117825,1,8,0:0:0:0:
256,192,117873,1,8,0:0:0:0:
256,192,117920,1,0,0:0:0:0:
256,192,117967,1,0,0:0:0:0:
256,192,118015,1,8,0:0:0:0:
256,192,118110,1,0,0:0:0:0:
256,192,118157,1,0,0:0:0:0:
256,192,118205,1,8,0:0:0:0:
256,192,118300,1,0,0:0:0:0:
256,192,118395,1,8,0:0:0:0:
256,192,118442,1,8,0:0:0:0:
256,192,118490,1,0,0:0:0:0:
256,192,118585,1,8,0:0:0:0:
256,192,118632,1,8,0:0:0:0:
256,192,118680,1,0,0:0:0:0:
256,192,118774,1,8,0:0:0:0:
256,192,118869,1,0,0:0:0:0:
256,192,118916,1,0,0:0:0:0:
256,192,118964,1,8,0:0:0:0:
256,192,119059,1,0,0:0:0:0:
256,192,119154,1,8,0:0:0:0:
256,192,119201,1,8,0:0:0:0:
256,192,119249,1,0,0:0:0:0:
256,192,119344,1,8,0:0:0:0:
256,192,119391,1,8,0:0:0:0:
256,192,119439,1,0,0:0:0:0:
256,192,119534,1,8,0:0:0:0:
256,192,119629,1,0,0:0:0:0:
256,192,119676,1,0,0:0:0:0:
256,192,119724,1,8,0:0:0:0:
256,192,119771,1,8,0:0:0:0:
256,192,119819,1,0,0:0:0:0:
256,192,119914,1,8,0:0:0:0:
256,192,120009,1,0,0:0:0:0:
256,192,120056,1,0,0:0:0:0:
256,192,120104,1,8,0:0:0:0:
256,192,120198,1,0,0:0:0:0:
256,192,120293,1,8,0:0:0:0:
256,192,120388,1,0,0:0:0:0:
256,192,120436,1,0,0:0:0:0:
256,192,120483,1,8,0:0:0:0:
256,192,120531,1,0,0:0:0:0:
256,192,120578,1,8,0:0:0:0:
256,192,120626,1,0,0:0:0:0:
256,192,120673,1,8,0:0:0:0:
256,192,120721,1,8,0:0:0:0:
256,192,120768,1,0,0:0:0:0:
256,192,120816,1,0,0:0:0:0:
256,192,120863,1,8,0:0:0:0:
256,192,120911,1,0,0:0:0:0:
256,192,120958,1,0,0:0:0:0:
256,192,121005,1,0,0:0:0:0:
256,192,121053,1,8,0:0:0:0:
256,192,121148,1,0,0:0:0:0:
256,192,121195,1,0,0:0:0:0:
256,192,121243,1,8,0:0:0:0:
256,192,121338,1,0,0:0:0:0:
256,192,121433,1,8,0:0:0:0:
256,192,121528,1,0,0:0:0:0:
256,192,121575,1,0,0:0:0:0:
256,192,121623,1,8,0:0:0:0:
256,192,121717,1,0,0:0:0:0:
256,192,121812,1,8,0:0:0:0:
256,192,121907,1,0,0:0:0:0:
256,192,121955,1,0,0:0:0:0:
256,192,122002,1,8,0:0:0:0:
256,192,122050,1,0,0:0:0:0:
256,192,122097,1,8,0:0:0:0:
256,192,122145,1,8,0:0:0:0:
256,192,122192,1,0,0:0:0:0:
256,192,122287,1,8,0:0:0:0:
256,192,122335,1,8,0:0:0:0:
256,192,122382,1,0,0:0:0:0:
256,192,122477,1,8,0:0:0:0:
256,192,122572,1,4,0:0:0:0:
256,192,122762,1,0,0:0:0:0:
256,192,122857,1,0,0:0:0:0:
256,192,122952,1,0,0:0:0:0:
256,192,123142,1,8,0:0:0:0:
256,192,123331,1,0,0:0:0:0:
256,192,123426,1,0,0:0:0:0:
256,192,123521,1,0,0:0:0:0:
256,192,123616,1,0,0:0:0:0:
256,192,123711,1,0,0:0:0:0:
256,192,123806,1,0,0:0:0:0:
256,192,123901,1,8,0:0:0:0:
256,192,124091,5,4,0:0:0:0:
256,192,124186,1,0,0:0:0:0:
256,192,124281,1,8,0:0:0:0:
256,192,124376,1,0,0:0:0:0:
256,192,124471,1,8,0:0:0:0:
256,192,124566,1,0,0:0:0:0:
256,192,124661,1,8,0:0:0:0:
256,192,124755,1,0,0:0:0:0:
256,192,124850,1,8,0:0:0:0:
256,192,124945,1,8,0:0:0:0:
256,192,125040,1,0,0:0:0:0:
256,192,125135,1,8,0:0:0:0:
256,192,125230,1,0,0:0:0:0:
256,192,125325,1,0,0:0:0:0:
256,192,125420,1,0,0:0:0:0:
256,192,125515,1,8,0:0:0:0:
256,192,125610,1,8,0:0:0:0:
256,192,125657,1,8,0:0:0:0:
256,192,125705,1,0,0:0:0:0:
256,192,125800,1,8,0:0:0:0:
256,192,125895,1,0,0:0:0:0:
256,192,125990,1,8,0:0:0:0:
256,192,126085,1,0,0:0:0:0:
256,192,126180,1,0,0:0:0:0:
256,192,126274,1,0,0:0:0:0:
256,192,126369,1,8,0:0:0:0:
256,192,126464,1,0,0:0:0:0:
256,192,126559,1,0,0:0:0:0:
256,192,126654,1,0,0:0:0:0:
256,192,126749,1,8,0:0:0:0:
256,192,126844,1,0,0:0:0:0:
256,192,126939,1,8,0:0:0:0:
256,192,127034,1,0,0:0:0:0:
256,192,127129,1,0,0:0:0:0:
256,192,127224,1,8,0:0:0:0:
256,192,127319,1,0,0:0:0:0:
256,192,127414,1,0,0:0:0:0:
256,192,127509,1,0,0:0:0:0:
256,192,127604,1,0,0:0:0:0:
256,192,127698,1,0,0:0:0:0:
256,192,127793,1,8,0:0:0:0:
256,192,127888,1,0,0:0:0:0:
256,192,127983,1,0,0:0:0:0:
256,192,128078,1,0,0:0:0:0:
256,192,128173,1,0,0:0:0:0:
256,192,128268,1,0,0:0:0:0:
256,192,128363,1,8,0:0:0:0:
256,192,128458,1,0,0:0:0:0:
256,192,128553,1,0,0:0:0:0:
256,192,128648,1,8,0:0:0:0:
256,192,128695,1,8,0:0:0:0:
256,192,128743,1,0,0:0:0:0:
256,192,128838,1,0,0:0:0:0:
256,192,128933,1,0,0:0:0:0:
256,192,129028,1,0,0:0:0:0:
256,192,129123,1,0,0:0:0:0:
256,192,129217,1,8,0:0:0:0:
256,192,129312,1,0,0:0:0:0:
256,192,129407,1,8,0:0:0:0:
256,192,129455,1,8,0:0:0:0:
256,192,129502,1,8,0:0:0:0:
256,192,129597,1,0,0:0:0:0:
256,192,129692,1,0,0:0:0:0:
256,192,129787,1,8,0:0:0:0:
256,192,129835,1,8,0:0:0:0:
256,192,129882,1,8,0:0:0:0:
256,192,129977,1,0,0:0:0:0:
256,192,130072,1,0,0:0:0:0:
256,192,130167,1,12,0:0:0:0:
256,192,130262,1,0,0:0:0:0:
256,192,130357,1,0,0:0:0:0:
256,192,130452,1,0,0:0:0:0:
256,192,130547,1,0,0:0:0:0:
256,192,130642,1,0,0:0:0:0:
256,192,130737,1,0,0:0:0:0:
256,192,130831,1,8,0:0:0:0:
256,192,130926,1,0,0:0:0:0:
256,192,131021,1,0,0:0:0:0:
256,192,131116,1,0,0:0:0:0:
256,192,131211,1,0,0:0:0:0:
256,192,131306,1,0,0:0:0:0:
256,192,131401,1,8,0:0:0:0:
256,192,131496,1,0,0:0:0:0:
256,192,131591,1,0,0:0:0:0:
256,192,131686,1,0,0:0:0:0:
256,192,131781,1,8,0:0:0:0:
256,192,131876,1,8,0:0:0:0:
256,192,131971,1,0,0:0:0:0:
256,192,132066,1,8,0:0:0:0:
256,192,132161,1,0,0:0:0:0:
256,192,132256,1,0,0:0:0:0:
256,192,132350,1,8,0:0:0:0:
256,192,132445,1,0,0:0:0:0:
256,192,132540,1,0,0:0:0:0:
256,192,132635,1,0,0:0:0:0:
256,192,132730,1,0,0:0:0:0:
256,192,132825,1,8,0:0:0:0:
256,192,132920,1,0,0:0:0:0:
256,192,133015,1,0,0:0:0:0:
256,192,133110,1,0,0:0:0:0:
256,192,133205,1,12,0:0:0:0:
256,192,133300,1,8,0:0:0:0:
256,192,133347,1,8,0:0:0:0:
256,192,133395,1,0,0:0:0:0:
256,192,133490,1,8,0:0:0:0:
256,192,133585,1,0,0:0:0:0:
256,192,133632,1,0,0:0:0:0:
256,192,133680,1,8,0:0:0:0:
256,192,133727,1,8,0:0:0:0:
256,192,133774,1,0,0:0:0:0:
256,192,133869,1,8,0:0:0:0:
256,192,133964,1,0,0:0:0:0:
256,192,134011,1,0,0:0:0:0:
256,192,134059,1,8,0:0:0:0:
256,192,134106,1,8,0:0:0:0:
256,192,134153,1,0,0:0:0:0:
256,192,134202,1,0,0:0:0:0:
256,192,134248,1,8,0:0:0:0:
256,192,134344,1,0,0:0:0:0:
256,192,134391,1,0,0:0:0:0:
256,192,134439,1,8,0:0:0:0:
256,192,134486,1,8,0:0:0:0:
256,192,134533,1,0,0:0:0:0:
256,192,134582,1,0,0:0:0:0:
256,192,134628,1,8,0:0:0:0:
256,192,134724,1,0,0:0:0:0:
256,192,134819,1,0,0:0:0:0:
256,192,134914,1,8,0:0:0:0:
256,192,135009,1,8,0:0:0:0:
256,192,135104,1,0,0:0:0:0:
256,192,135198,1,0,0:0:0:0:
256,192,135293,1,0,0:0:0:0:
256,192,135483,1,8,0:0:0:0:
256,192,135578,1,0,0:0:0:0:
256,192,135673,1,0,0:0:0:0:
256,192,135768,1,8,0:0:0:0:
256,192,135863,1,0,0:0:0:0:
256,192,135958,1,8,0:0:0:0:
256,192,136053,1,8,0:0:0:0:
256,192,136148,1,0,0:0:0:0:
256,192,136243,1,12,0:0:0:0:
256,192,136338,1,0,0:0:0:0:
256,192,136433,1,0,0:0:0:0:
256,192,136528,1,0,0:0:0:0:
256,192,136623,1,8,0:0:0:0:
256,192,136717,1,0,0:0:0:0:
256,192,136812,1,0,0:0:0:0:
256,192,136907,1,0,0:0:0:0:
256,192,137002,1,8,0:0:0:0:
256,192,137097,1,8,0:0:0:0:
256,192,137192,1,0,0:0:0:0:
256,192,137287,1,0,0:0:0:0:
256,192,137382,1,8,0:0:0:0:
256,192,137477,1,0,0:0:0:0:
256,192,137572,1,8,0:0:0:0:
256,192,137667,1,0,0:0:0:0:
256,192,137762,1,12,0:0:0:0:
256,192,137857,1,8,0:0:0:0:
256,192,137952,1,0,0:0:0:0:
256,192,138047,1,0,0:0:0:0:
256,192,138142,1,8,0:0:0:0:
256,192,138236,1,0,0:0:0:0:
256,192,138331,1,8,0:0:0:0:
256,192,138426,1,0,0:0:0:0:
256,192,138521,1,8,0:0:0:0:
256,192,138616,1,8,0:0:0:0:
256,192,138711,1,0,0:0:0:0:
256,192,138806,1,0,0:0:0:0:
256,192,138901,1,8,0:0:0:0:
256,192,138996,1,0,0:0:0:0:
256,192,139091,1,0,0:0:0:0:
256,192,139186,1,0,0:0:0:0:
256,192,139281,1,12,0:0:0:0:
256,192,139376,1,8,0:0:0:0:
256,192,139471,1,0,0:0:0:0:
256,192,139566,1,8,0:0:0:0:
256,192,139661,1,0,0:0:0:0:
256,192,139755,1,8,0:0:0:0:
256,192,139850,1,0,0:0:0:0:
256,192,139945,1,0,0:0:0:0:
256,192,140040,1,8,0:0:0:0:
256,192,140135,1,8,0:0:0:0:
256,192,140230,1,8,0:0:0:0:
256,192,140325,1,8,0:0:0:0:
256,192,140420,1,0,0:0:0:0:
256,192,140515,1,8,0:0:0:0:
256,192,140610,1,8,0:0:0:0:
256,192,140705,1,8,0:0:0:0:
256,192,140800,1,4,0:0:0:0:
256,192,140895,1,0,0:0:0:0:
256,192,140990,1,8,0:0:0:0:
256,192,141085,1,0,0:0:0:0:
256,192,141180,1,8,0:0:0:0:
256,192,141274,1,8,0:0:0:0:
256,192,141369,1,0,0:0:0:0:
256,192,141464,1,0,0:0:0:0:
256,192,141559,1,8,0:0:0:0:
256,192,141654,1,0,0:0:0:0:
256,192,141749,1,0,0:0:0:0:
256,192,141844,1,0,0:0:0:0:
256,192,141939,1,8,0:0:0:0:
256,192,142034,1,0,0:0:0:0:
256,192,142129,1,0,0:0:0:0:
256,192,142224,1,0,0:0:0:0:
256,192,142319,1,12,0:0:0:0:
256,192,142509,1,0,0:0:0:0:
256,192,142604,1,0,0:0:0:0:
256,192,142698,1,8,0:0:0:0:
256,192,142793,1,8,0:0:0:0:
256,192,142888,1,0,0:0:0:0:
256,192,142983,1,0,0:0:0:0:
256,192,143078,1,8,0:0:0:0:
256,192,143173,1,0,0:0:0:0:
256,192,143268,1,0,0:0:0:0:
256,192,143363,1,8,0:0:0:0:
256,192,143458,1,8,0:0:0:0:
256,192,143553,1,0,0:0:0:0:
256,192,143648,1,8,0:0:0:0:
256,192,143743,1,0,0:0:0:0:
256,192,143838,1,12,0:0:0:0:
256,192,143933,1,0,0:0:0:0:
256,192,144028,1,0,0:0:0:0:
256,192,144123,1,8,0:0:0:0:
256,192,144217,1,8,0:0:0:0:
256,192,144312,1,0,0:0:0:0:
256,192,144407,1,8,0:0:0:0:
256,192,144502,1,0,0:0:0:0:
256,192,144597,1,8,0:0:0:0:
256,192,144692,1,8,0:0:0:0:
256,192,144787,1,0,0:0:0:0:
256,192,144882,1,8,0:0:0:0:
256,192,144977,1,0,0:0:0:0:
256,192,145072,1,0,0:0:0:0:
256,192,145167,1,8,0:0:0:0:
256,192,145262,1,0,0:0:0:0:
256,192,145357,1,12,0:0:0:0:
256,192,145547,1,0,0:0:0:0:
256,192,145642,1,0,0:0:0:0:
256,192,145736,1,8,0:0:0:0:
256,192,145831,1,0,0:0:0:0:
256,192,145926,1,8,0:0:0:0:
256,192,146021,1,8,0:0:0:0:
256,192,146116,1,8,0:0:0:0:
256,192,146211,1,0,0:0:0:0:
256,192,146306,1,0,0:0:0:0:
256,192,146401,1,0,0:0:0:0:
256,192,146496,1,8,0:0:0:0:
256,192,146591,1,8,0:0:0:0:
256,192,146686,1,0,0:0:0:0:
256,192,146876,1,0,0:0:0:0:
256,192,147066,1,12,0:0:0:0:
256,192,147255,1,0,0:0:0:0:
256,192,147445,1,0,0:0:0:0:
256,192,147540,1,0,0:0:0:0:
256,192,147635,1,8,0:0:0:0:
256,192,147825,1,0,0:0:0:0:
256,192,147920,1,8,0:0:0:0:
256,192,148015,1,0,0:0:0:0:
256,192,148205,1,0,0:0:0:0:
256,192,148395,1,4,0:0:0:0:
256,192,148490,1,0,0:0:0:0:
256,192,148585,1,0,0:0:0:0:
256,192,148680,1,0,0:0:0:0:
256,192,148774,1,8,0:0:0:0:
256,192,148964,1,0,0:0:0:0:
256,192,149059,1,0,0:0:0:0:
256,192,149154,1,0,0:0:0:0:
256,192,149344,1,8,0:0:0:0:
256,192,149439,1,8,0:0:0:0:
256,192,149534,1,0,0:0:0:0:
256,192,149629,1,0,0:0:0:0:
256,192,149724,1,8,0:0:0:0:
256,192,149819,1,0,0:0:0:0:
256,192,149914,1,12,0:0:0:0:
256,192,150009,1,0,0:0:0:0:
256,192,150104,1,0,0:0:0:0:
256,192,150198,1,0,0:0:0:0:
256,192,150293,1,8,0:0:0:0:
256,192,150483,1,0,0:0:0:0:
256,192,150578,1,0,0:0:0:0:
256,192,150673,1,0,0:0:0:0:
256,192,150863,1,8,0:0:0:0:
256,192,150958,1,8,0:0:0:0:
256,192,151053,1,8,0:0:0:0:
256,192,151148,1,0,0:0:0:0:
256,192,151243,1,8,0:0:0:0:
256,192,151338,1,8,0:0:0:0:
256,192,151433,1,4,0:0:0:0:
256,192,151528,1,0,0:0:0:0:
256,192,151623,1,0,0:0:0:0:
256,192,151717,1,0,0:0:0:0:
256,192,151812,1,8,0:0:0:0:
256,192,151907,1,0,0:0:0:0:
256,192,152002,1,0,0:0:0:0:
256,192,152097,1,0,0:0:0:0:
256,192,152192,1,8,0:0:0:0:
256,192,152287,1,0,0:0:0:0:
256,192,152382,1,8,0:0:0:0:
256,192,152477,1,8,0:0:0:0:
256,192,152572,1,8,0:0:0:0:
256,192,152667,1,0,0:0:0:0:
256,192,152762,1,8,0:0:0:0:
256,192,152857,1,8,0:0:0:0:
256,192,152952,1,4,0:0:0:0:
256,192,153047,1,0,0:0:0:0:
256,192,153142,1,0,0:0:0:0:
256,192,153236,1,0,0:0:0:0:
256,192,153331,1,8,0:0:0:0:
256,192,153426,1,0,0:0:0:0:
256,192,153521,1,0,0:0:0:0:
256,192,153616,1,0,0:0:0:0:
256,192,153711,1,8,0:0:0:0:
256,192,153806,1,0,0:0:0:0:
256,192,153901,1,8,0:0:0:0:
256,192,153996,1,8,0:0:0:0:
256,192,154091,1,0,0:0:0:0:
256,192,154186,1,0,0:0:0:0:
256,192,154281,1,8,0:0:0:0:
256,192,154376,1,0,0:0:0:0:
256,192,154471,1,0,0:0:0:0:
256,192,154518,1,0,0:0:0:0:
256,192,154566,1,0,0:0:0:0:
256,192,154613,1,0,0:0:0:0:
256,192,154661,1,8,0:0:0:0:
256,192,154708,1,8,0:0:0:0:
256,192,154755,1,8,0:0:0:0:
256,192,154803,1,8,0:0:0:0:
256,192,154850,1,0,0:0:0:0:
256,192,154898,1,0,0:0:0:0:
256,192,154945,1,8,0:0:0:0:
256,192,154993,1,8,0:0:0:0:
256,192,155040,1,0,0:0:0:0:
256,192,155088,1,8,0:0:0:0:
256,192,155135,1,8,0:0:0:0:
256,192,155183,1,8,0:0:0:0:
256,192,155230,1,0,0:0:0:0:
256,192,155277,1,0,0:0:0:0:
256,192,155325,1,0,0:0:0:0:
256,192,155372,1,0,0:0:0:0:
256,192,155420,1,8,0:0:0:0:
256,192,155467,1,8,0:0:0:0:
256,192,155514,1,8,0:0:0:0:
256,192,155562,1,8,0:0:0:0:
256,192,155609,1,0,0:0:0:0:
256,192,155657,1,0,0:0:0:0:
256,192,155704,1,8,0:0:0:0:
256,192,155752,1,8,0:0:0:0:
256,192,155799,1,0,0:0:0:0:
256,192,155847,1,8,0:0:0:0:
256,192,155894,1,8,0:0:0:0:
256,192,155942,1,8,0:0:0:0:
256,192,155990,1,0,0:0:0:0:
256,192,156037,1,0,0:0:0:0:
256,192,156085,1,0,0:0:0:0:
256,192,156132,1,0,0:0:0:0:
256,192,156180,1,8,0:0:0:0:
256,192,156227,1,0,0:0:0:0:
256,192,156274,1,0,0:0:0:0:
256,192,156322,1,0,0:0:0:0:
256,192,156369,1,8,0:0:0:0:
256,192,156417,1,8,0:0:0:0:
256,192,156464,1,0,0:0:0:0:
256,192,156512,1,0,0:0:0:0:
256,192,156559,1,8,0:0:0:0:
256,192,156607,1,0,0:0:0:0:
256,192,156654,1,0,0:0:0:0:
256,192,156702,1,0,0:0:0:0:
256,192,156749,1,8,0:0:0:0:
256,192,156797,1,8,0:0:0:0:
256,192,156844,1,0,0:0:0:0:
256,192,156892,1,0,0:0:0:0:
256,192,156939,1,8,0:0:0:0:
256,192,156986,1,8,0:0:0:0:
256,192,157034,1,0,0:0:0:0:
256,192,157081,1,0,0:0:0:0:
256,192,157129,1,8,0:0:0:0:
256,192,157176,1,8,0:0:0:0:
256,192,157224,1,8,0:0:0:0:
256,192,157271,1,8,0:0:0:0:
256,192,157319,1,0,0:0:0:0:
256,192,157366,1,0,0:0:0:0:
256,192,157414,1,0,0:0:0:0:
256,192,157461,1,0,0:0:0:0:
256,192,157509,1,8,0:0:0:0:
256,192,157556,1,8,0:0:0:0:
256,192,157604,1,8,0:0:0:0:
256,192,157651,1,8,0:0:0:0:
256,192,157698,1,0,0:0:0:0:
256,192,157746,1,0,0:0:0:0:
256,192,157793,1,0,0:0:0:0:
256,192,157841,1,0,0:0:0:0:
256,192,157888,1,8,0:0:0:0:
256,192,157936,1,0,0:0:0:0:
256,192,157983,1,0,0:0:0:0:
256,192,158031,1,0,0:0:0:0:
256,192,158078,1,8,0:0:0:0:
256,192,158126,1,8,0:0:0:0:
256,192,158173,1,0,0:0:0:0:
256,192,158221,1,0,0:0:0:0:
256,192,158268,1,8,0:0:0:0:
256,192,158316,1,8,0:0:0:0:
256,192,158363,1,8,0:0:0:0:
256,192,158411,1,8,0:0:0:0:
256,192,158458,1,0,0:0:0:0:
256,192,158505,1,0,0:0:0:0:
256,192,158553,1,0,0:0:0:0:
256,192,158600,1,0,0:0:0:0:
256,192,158648,1,8,0:0:0:0:
256,192,158695,1,0,0:0:0:0:
256,192,158743,1,0,0:0:0:0:
256,192,158790,1,0,0:0:0:0:
256,192,158838,1,8,0:0:0:0:
256,192,158885,1,8,0:0:0:0:
256,192,158933,1,0,0:0:0:0:
256,192,158980,1,0,0:0:0:0:
256,192,159028,1,8,0:0:0:0:
256,192,159075,1,8,0:0:0:0:
256,192,159123,1,8,0:0:0:0:
256,192,159170,1,8,0:0:0:0:
256,192,159217,1,0,0:0:0:0:
256,192,159265,1,0,0:0:0:0:
256,192,159312,1,0,0:0:0:0:
256,192,159360,1,0,0:0:0:0:
256,192,159407,1,8,0:0:0:0:
256,192,159454,1,8,0:0:0:0:
256,192,159502,1,8,0:0:0:0:
256,192,159549,1,8,0:0:0:0:
256,192,159596,1,0,0:0:0:0:
256,192,159644,1,0,0:0:0:0:
256,192,159691,1,0,0:0:0:0:
256,192,159739,1,0,0:0:0:0:
256,192,159787,1,8,0:0:0:0:
256,192,159835,1,0,0:0:0:0:
256,192,159882,1,0,0:0:0:0:
256,192,159930,1,0,0:0:0:0:
256,192,159977,1,0,0:0:0:0:
256,192,160024,1,0,0:0:0:0:
256,192,160072,1,8,0:0:0:0:
256,192,160119,1,0,0:0:0:0:
256,192,160167,1,0,0:0:0:0:
256,192,160214,1,0,0:0:0:0:
256,192,160262,1,0,0:0:0:0:
256,192,160309,1,0,0:0:0:0:
256,192,160357,1,8,0:0:0:0:
256,192,160404,1,8,0:0:0:0:
256,192,160452,1,8,0:0:0:0:
256,192,160499,1,8,0:0:0:0:
256,192,162066,5,12,0:0:0:0:
256,192,162161,1,0,0:0:0:0:
256,192,162208,1,0,0:0:0:0:
256,192,162255,1,8,0:0:0:0:
256,192,162350,1,0,0:0:0:0:
256,192,162445,1,8,0:0:0:0:
256,192,162493,1,8,0:0:0:0:
256,192,162540,1,0,0:0:0:0:
256,192,162588,1,0,0:0:0:0:
256,192,162635,1,8,0:0:0:0:
256,192,162730,1,0,0:0:0:0:
256,192,162825,1,8,0:0:0:0:
256,192,162873,1,8,0:0:0:0:
256,192,162920,1,0,0:0:0:0:
256,192,163015,1,8,0:0:0:0:
256,192,163062,1,8,0:0:0:0:
256,192,163110,1,0,0:0:0:0:
256,192,163205,1,8,0:0:0:0:
256,192,163300,1,0,0:0:0:0:
256,192,163347,1,0,0:0:0:0:
256,192,163395,1,8,0:0:0:0:
256,192,163442,1,8,0:0:0:0:
256,192,163490,1,8,0:0:0:0:
256,192,163537,1,8,0:0:0:0:
256,192,163585,1,0,0:0:0:0:
256,192,163680,1,0,0:0:0:0:
256,192,163727,1,0,0:0:0:0:
256,192,163774,1,8,0:0:0:0:
256,192,163869,1,0,0:0:0:0:
256,192,163964,1,8,0:0:0:0:
256,192,164012,1,8,0:0:0:0:
256,192,164059,1,0,0:0:0:0:
256,192,164107,1,0,0:0:0:0:
256,192,164154,1,8,0:0:0:0:
256,192,164249,1,0,0:0:0:0:
256,192,164344,1,8,0:0:0:0:
256,192,164392,1,8,0:0:0:0:
256,192,164439,1,8,0:0:0:0:
256,192,164534,1,0,0:0:0:0:
256,192,164581,1,0,0:0:0:0:
256,192,164629,1,0,0:0:0:0:
256,192,164724,1,8,0:0:0:0:
256,192,164771,1,8,0:0:0:0:
256,192,164819,1,0,0:0:0:0:
256,192,164866,1,0,0:0:0:0:
256,192,164914,1,8,0:0:0:0:
256,192,164961,1,8,0:0:0:0:
256,192,165009,1,0,0:0:0:0:
256,192,165104,1,12,0:0:0:0:
256,192,165198,1,0,0:0:0:0:
256,192,165246,1,0,0:0:0:0:
256,192,165293,1,8,0:0:0:0:
256,192,165388,1,0,0:0:0:0:
256,192,165483,1,8,0:0:0:0:
256,192,165531,1,8,0:0:0:0:
256,192,165578,1,0,0:0:0:0:
256,192,165673,1,8,0:0:0:0:
256,192,165768,1,0,0:0:0:0:
256,192,165863,1,8,0:0:0:0:
256,192,165911,1,8,0:0:0:0:
256,192,165958,1,8,0:0:0:0:
256,192,166053,1,0,0:0:0:0:
256,192,166100,1,0,0:0:0:0:
256,192,166148,1,0,0:0:0:0:
256,192,166243,1,8,0:0:0:0:
256,192,166290,1,8,0:0:0:0:
256,192,166338,1,0,0:0:0:0:
256,192,166385,1,0,0:0:0:0:
256,192,166433,1,8,0:0:0:0:
256,192,166528,1,0,0:0:0:0:
256,192,166623,1,8,0:0:0:0:
256,192,166670,1,8,0:0:0:0:
256,192,166717,1,8,0:0:0:0:
256,192,166765,1,8,0:0:0:0:
256,192,166812,1,0,0:0:0:0:
256,192,166907,1,0,0:0:0:0:
256,192,167002,1,8,0:0:0:0:
256,192,167050,1,8,0:0:0:0:
256,192,167097,1,0,0:0:0:0:
256,192,167192,1,8,0:0:0:0:
256,192,167240,1,8,0:0:0:0:
256,192,167287,1,0,0:0:0:0:
256,192,167382,1,8,0:0:0:0:
256,192,167430,1,8,0:0:0:0:
256,192,167477,1,8,0:0:0:0:
256,192,167524,1,8,0:0:0:0:
256,192,167572,1,0,0:0:0:0:
256,192,167667,1,0,0:0:0:0:
256,192,167762,1,0,0:0:0:0:
256,192,167809,1,0,0:0:0:0:
256,192,167857,1,0,0:0:0:0:
256,192,167904,1,0,0:0:0:0:
256,192,167952,1,8,0:0:0:0:
256,192,168047,1,0,0:0:0:0:
256,192,168142,1,0,0:0:0:0:
256,192,168189,1,0,0:0:0:0:
256,192,168236,1,0,0:0:0:0:
256,192,168331,1,12,0:0:0:0:
256,192,168426,1,0,0:0:0:0:
256,192,168474,1,0,0:0:0:0:
256,192,168521,1,8,0:0:0:0:
256,192,168616,1,0,0:0:0:0:
256,192,168711,1,8,0:0:0:0:
256,192,168759,1,8,0:0:0:0:
256,192,168806,1,0,0:0:0:0:
256,192,168901,1,8,0:0:0:0:
256,192,168996,1,0,0:0:0:0:
256,192,169043,1,0,0:0:0:0:
256,192,169091,1,8,0:0:0:0:
256,192,169186,1,0,0:0:0:0:
256,192,169281,1,8,0:0:0:0:
256,192,169328,1,8,0:0:0:0:
256,192,169376,1,0,0:0:0:0:
256,192,169423,1,0,0:0:0:0:
256,192,169471,1,8,0:0:0:0:
256,192,169566,1,0,0:0:0:0:
256,192,169661,1,8,0:0:0:0:
256,192,169755,1,0,0:0:0:0:
256,192,169803,1,0,0:0:0:0:
256,192,169850,1,8,0:0:0:0:
256,192,169945,1,0,0:0:0:0:
256,192,170040,1,8,0:0:0:0:
256,192,170088,1,8,0:0:0:0:
256,192,170135,1,0,0:0:0:0:
256,192,170230,1,8,0:0:0:0:
256,192,170278,1,8,0:0:0:0:
256,192,170325,1,0,0:0:0:0:
256,192,170420,1,8,0:0:0:0:
256,192,170467,1,8,0:0:0:0:
256,192,170515,1,8,0:0:0:0:
256,192,170610,1,0,0:0:0:0:
256,192,170657,1,0,0:0:0:0:
256,192,170705,1,0,0:0:0:0:
256,192,170800,1,8,0:0:0:0:
256,192,170847,1,8,0:0:0:0:
256,192,170895,1,0,0:0:0:0:
256,192,170942,1,0,0:0:0:0:
256,192,170990,1,8,0:0:0:0:
256,192,171037,1,8,0:0:0:0:
256,192,171085,1,0,0:0:0:0:
256,192,171180,1,12,0:0:0:0:
256,192,171274,1,0,0:0:0:0:
256,192,171322,1,0,0:0:0:0:
256,192,171369,1,8,0:0:0:0:
256,192,171464,1,0,0:0:0:0:
256,192,171559,1,8,0:0:0:0:
256,192,171607,1,8,0:0:0:0:
256,192,171654,1,0,0:0:0:0:
256,192,171749,1,8,0:0:0:0:
256,192,171844,1,0,0:0:0:0:
256,192,171939,1,8,0:0:0:0:
256,192,171986,1,8,0:0:0:0:
256,192,172034,1,8,0:0:0:0:
256,192,172129,1,0,0:0:0:0:
256,192,172176,1,0,0:0:0:0:
256,192,172224,1,0,0:0:0:0:
256,192,172319,1,8,0:0:0:0:
256,192,172366,1,8,0:0:0:0:
256,192,172414,1,0,0:0:0:0:
256,192,172461,1,0,0:0:0:0:
256,192,172509,1,8,0:0:0:0:
256,192,172604,1,0,0:0:0:0:
256,192,172698,1,12,0:0:0:0:
256,192,172888,1,0,0:0:0:0:
256,192,173078,1,8,0:0:0:0:
256,192,173268,1,0,0:0:0:0:
256,192,173458,1,8,0:0:0:0:
256,192,173648,1,0,0:0:0:0:
256,192,173743,1,0,0:0:0:0:
256,192,173838,1,0,0:0:0:0:
256,192,174028,1,8,0:0:0:0:
256,192,174217,1,4,0:0:0:0:
256,192,174312,1,0,0:0:0:0:
256,192,174407,1,8,0:0:0:0:
256,192,174502,1,0,0:0:0:0:
256,192,174550,1,0,0:0:0:0:
256,192,174597,1,8,0:0:0:0:
256,192,174692,1,0,0:0:0:0:
256,192,174787,1,8,0:0:0:0:
256,192,174882,1,0,0:0:0:0:
256,192,174977,1,8,0:0:0:0:
256,192,175024,1,0,0:0:0:0:
256,192,175072,1,8,0:0:0:0:
256,192,175167,1,0,0:0:0:0:
256,192,175262,1,8,0:0:0:0:
256,192,175309,1,8,0:0:0:0:
256,192,175357,1,0,0:0:0:0:
256,192,175452,1,0,0:0:0:0:
256,192,175547,1,8,0:0:0:0:
256,192,175594,1,8,0:0:0:0:
256,192,175642,1,0,0:0:0:0:
256,192,175736,1,8,0:0:0:0:
256,192,175831,1,0,0:0:0:0:
256,192,175879,1,0,0:0:0:0:
256,192,175926,1,8,0:0:0:0:
256,192,176021,1,0,0:0:0:0:
256,192,176116,1,8,0:0:0:0:
256,192,176164,1,8,0:0:0:0:
256,192,176211,1,0,0:0:0:0:
256,192,176306,1,8,0:0:0:0:
256,192,176401,1,0,0:0:0:0:
256,192,176496,1,8,0:0:0:0:
256,192,176543,1,8,0:0:0:0:
256,192,176591,1,8,0:0:0:0:
256,192,176686,1,0,0:0:0:0:
256,192,176781,1,0,0:0:0:0:
256,192,176876,1,8,0:0:0:0:
256,192,176971,1,0,0:0:0:0:
256,192,177066,1,8,0:0:0:0:
256,192,177161,1,0,0:0:0:0:
256,192,177255,1,12,0:0:0:0:
256,192,177350,1,0,0:0:0:0:
256,192,177398,1,0,0:0:0:0:
256,192,177445,1,0,0:0:0:0:
256,192,177540,1,0,0:0:0:0:
256,192,177635,1,8,0:0:0:0:
256,192,177730,1,0,0:0:0:0:
256,192,177778,1,0,0:0:0:0:
256,192,177825,1,8,0:0:0:0:
256,192,177920,1,0,0:0:0:0:
256,192,178015,1,8,0:0:0:0:
256,192,178062,1,8,0:0:0:0:
256,192,178110,1,0,0:0:0:0:
256,192,178205,1,8,0:0:0:0:
256,192,178252,1,8,0:0:0:0:
256,192,178300,1,0,0:0:0:0:
256,192,178395,1,8,0:0:0:0:
256,192,178490,1,0,0:0:0:0:
256,192,178537,1,0,0:0:0:0:
256,192,178585,1,8,0:0:0:0:
256,192,178680,1,0,0:0:0:0:
256,192,178774,1,8,0:0:0:0:
256,192,178822,1,8,0:0:0:0:
256,192,178869,1,0,0:0:0:0:
256,192,178964,1,8,0:0:0:0:
256,192,179059,1,0,0:0:0:0:
256,192,179154,1,8,0:0:0:0:
256,192,179202,1,8,0:0:0:0:
256,192,179249,1,0,0:0:0:0:
256,192,179344,1,8,0:0:0:0:
256,192,179439,1,0,0:0:0:0:
256,192,179534,1,8,0:0:0:0:
256,192,179581,1,8,0:0:0:0:
256,192,179629,1,8,0:0:0:0:
256,192,179724,1,0,0:0:0:0:
256,192,179819,1,8,0:0:0:0:
256,192,179914,1,0,0:0:0:0:
256,192,180009,1,0,0:0:0:0:
256,192,180104,1,8,0:0:0:0:
256,192,180198,1,0,0:0:0:0:
256,192,180293,1,0,0:0:0:0:
256,192,180341,1,0,0:0:0:0:
256,192,180388,1,0,0:0:0:0:
256,192,180436,1,0,0:0:0:0:
256,192,180483,1,8,0:0:0:0:
256,192,180531,1,0,0:0:0:0:
256,192,180578,1,0,0:0:0:0:
256,192,180626,1,0,0:0:0:0:
256,192,180673,1,8,0:0:0:0:
256,192,180768,1,0,0:0:0:0:
256,192,180863,1,8,0:0:0:0:
256,192,180958,1,8,0:0:0:0:
256,192,181053,1,0,0:0:0:0:
256,192,181100,1,0,0:0:0:0:
256,192,181148,1,0,0:0:0:0:
256,192,181243,1,8,0:0:0:0:
256,192,181338,1,0,0:0:0:0:
256,192,181433,1,8,0:0:0:0:
256,192,181480,1,8,0:0:0:0:
256,192,181528,1,8,0:0:0:0:
256,192,181575,1,8,0:0:0:0:
256,192,181623,1,0,0:0:0:0:
256,192,181717,1,0,0:0:0:0:
256,192,181812,1,0,0:0:0:0:
256,192,181860,1,0,0:0:0:0:
256,192,181907,1,0,0:0:0:0:
256,192,181955,1,0,0:0:0:0:
256,192,182002,1,8,0:0:0:0:
256,192,182050,1,0,0:0:0:0:
256,192,182097,1,0,0:0:0:0:
256,192,182145,1,0,0:0:0:0:
256,192,182192,1,8,0:0:0:0:
256,192,182287,1,0,0:0:0:0:
256,192,182335,1,0,0:0:0:0:
256,192,182382,1,8,0:0:0:0:
256,192,182477,1,0,0:0:0:0:
256,192,182572,1,8,0:0:0:0:
256,192,182667,1,0,0:0:0:0:
256,192,182762,1,0,0:0:0:0:
256,192,182857,1,8,0:0:0:0:
256,192,182952,1,8,0:0:0:0:
256,192,183047,1,0,0:0:0:0:
256,192,183142,1,8,0:0:0:0:
256,192,183236,1,0,0:0:0:0:
256,192,183331,1,0,0:0:0:0:
256,192,183379,1,0,0:0:0:0:
256,192,183426,1,0,0:0:0:0:
256,192,183474,1,0,0:0:0:0:
256,192,183521,1,8,0:0:0:0:
256,192,183569,1,0,0:0:0:0:
256,192,183616,1,0,0:0:0:0:
256,192,183664,1,0,0:0:0:0:
256,192,183711,1,8,0:0:0:0:
256,192,183806,1,0,0:0:0:0:
256,192,183901,1,8,0:0:0:0:
256,192,183996,1,8,0:0:0:0:
256,192,184091,1,0,0:0:0:0:
256,192,184186,1,0,0:0:0:0:
256,192,184281,1,8,0:0:0:0:
256,192,184328,1,8,0:0:0:0:
256,192,184376,1,0,0:0:0:0:
256,192,184471,1,8,0:0:0:0:
256,192,184518,1,8,0:0:0:0:
256,192,184566,1,0,0:0:0:0:
256,192,184661,1,8,0:0:0:0:
256,192,184755,1,8,0:0:0:0:
256,192,184850,1,0,0:0:0:0:
256,192,184898,1,0,0:0:0:0:
256,192,184945,1,0,0:0:0:0:
256,192,184993,1,0,0:0:0:0:
256,192,185040,1,8,0:0:0:0:
256,192,185135,1,0,0:0:0:0:
256,192,185230,1,8,0:0:0:0:
256,192,185325,1,0,0:0:0:0:
256,192,185420,1,0,0:0:0:0:
256,192,185515,1,0,0:0:0:0:
256,192,185610,1,8,0:0:0:0:
256,192,185705,1,0,0:0:0:0:
256,192,185800,1,0,0:0:0:0:
256,192,185895,1,8,0:0:0:0:
256,192,185990,1,0,0:0:0:0:
256,192,186085,1,8,0:0:0:0:
256,192,186180,1,8,0:0:0:0:
256,192,186274,1,8,0:0:0:0:
256,192,186369,1,4,0:0:0:0:
256,192,186464,1,0,0:0:0:0:
256,192,186559,1,0,0:0:0:0:
256,192,186654,1,0,0:0:0:0:
256,192,186749,1,0,0:0:0:0:
256,192,186844,1,0,0:0:0:0:
256,192,186939,1,0,0:0:0:0:
256,192,187034,1,0,0:0:0:0:
256,192,187129,1,8,0:0:0:0:
256,192,187319,1,0,0:0:0:0:
256,192,187414,1,8,0:0:0:0:
256,192,187509,1,0,0:0:0:0:
256,192,187604,1,0,0:0:0:0:
256,192,187698,1,8,0:0:0:0:
256,192,187793,1,8,0:0:0:0:
256,192,187888,1,0,0:0:0:0:
256,192,188078,1,8,0:0:0:0:
256,192,188173,1,8,0:0:0:0:
256,192,188268,1,0,0:0:0:0:
256,192,188363,1,8,0:0:0:0:
256,192,188458,1,8,0:0:0:0:
256,192,188553,1,8,0:0:0:0:
256,192,188648,1,0,0:0:0:0:
256,192,188743,1,8,0:0:0:0:
256,192,188838,1,8,0:0:0:0:
256,192,188933,1,0,0:0:0:0:
256,192,189028,1,8,0:0:0:0:
256,192,189123,1,8,0:0:0:0:
256,192,189217,1,0,0:0:0:0:
256,192,189407,1,12,0:0:0:0:
256,192,189597,1,0,0:0:0:0:
256,192,189692,1,0,0:0:0:0:
256,192,189787,1,0,0:0:0:0:
256,192,189882,1,0,0:0:0:0:
256,192,189977,1,8,0:0:0:0:
256,192,190072,1,0,0:0:0:0:
256,192,190167,1,8,0:0:0:0:
256,192,190262,1,0,0:0:0:0:
256,192,190357,1,8,0:0:0:0:
256,192,190452,1,8,0:0:0:0:
256,192,190547,1,0,0:0:0:0:
256,192,190642,1,0,0:0:0:0:
256,192,190736,1,8,0:0:0:0:
256,192,190926,1,8,0:0:0:0:
256,192,191116,1,0,0:0:0:0:
256,192,191211,1,0,0:0:0:0:
256,192,191306,1,8,0:0:0:0:
256,192,191401,1,0,0:0:0:0:
256,192,191496,1,0,0:0:0:0:
256,192,191591,1,0,0:0:0:0:
256,192,191686,1,8,0:0:0:0:
256,192,191781,1,0,0:0:0:0:
256,192,191876,1,0,0:0:0:0:
256,192,191971,1,8,0:0:0:0:
256,192,192066,1,0,0:0:0:0:
256,192,192161,1,0,0:0:0:0:
256,192,192255,1,8,0:0:0:0:
256,192,192445,1,12,0:0:0:0:
256,192,192635,1,0,0:0:0:0:
256,192,192730,1,0,0:0:0:0:
256,192,192825,1,8,0:0:0:0:
256,192,192920,1,8,0:0:0:0:
256,192,193015,1,0,0:0:0:0:
256,192,193110,1,0,0:0:0:0:
256,192,193205,1,0,0:0:0:0:
256,192,193395,1,8,0:0:0:0:
256,192,193490,1,0,0:0:0:0:
256,192,193680,1,0,0:0:0:0:
256,192,193774,1,0,0:0:0:0:
256,192,193964,1,12,0:0:0:0:
256,192,194154,1,0,0:0:0:0:
256,192,194249,1,0,0:0:0:0:
256,192,194344,1,8,0:0:0:0:
256,192,194439,1,0,0:0:0:0:
256,192,194534,1,0,0:0:0:0:
256,192,194629,1,0,0:0:0:0:
256,192,194724,1,8,0:0:0:0:
256,192,194819,1,8,0:0:0:0:
256,192,194914,1,0,0:0:0:0:
256,192,195009,1,8,0:0:0:0:
256,192,195104,1,0,0:0:0:0:
256,192,195293,1,8,0:0:0:0:
256,192,195483,1,4,0:0:0:0:
256,192,195578,1,0,0:0:0:0:
256,192,195673,1,0,0:0:0:0:
256,192,195768,1,0,0:0:0:0:
256,192,195863,1,8,0:0:0:0:
256,192,195958,1,8,0:0:0:0:
256,192,196053,1,0,0:0:0:0:
256,192,196148,1,0,0:0:0:0:
256,192,196243,1,8,0:0:0:0:
256,192,196338,1,0,0:0:0:0:
256,192,196433,1,0,0:0:0:0:
256,192,196528,1,8,0:0:0:0:
256,192,196623,1,0,0:0:0:0:
256,192,196717,1,0,0:0:0:0:
256,192,196812,1,8,0:0:0:0:
256,192,196907,1,8,0:0:0:0:
256,192,197002,1,4,0:0:0:0:
256,192,197382,1,0,0:0:0:0:
256,192,197572,1,0,0:0:0:0:
256,192,197667,1,0,0:0:0:0:
256,192,197714,1,0,0:0:0:0:
256,192,197762,1,8,0:0:0:0:
256,192,197809,1,8,0:0:0:0:
256,192,197857,1,8,0:0:0:0:
256,192,197904,1,8,0:0:0:0:
256,192,197952,1,0,0:0:0:0:
256,192,197999,1,0,0:0:0:0:
256,192,198047,1,8,0:0:0:0:
256,192,198094,1,8,0:0:0:0:
256,192,198142,1,8,0:0:0:0:
256,192,198189,1,8,0:0:0:0:
256,192,198236,1,0,0:0:0:0:
256,192,198284,1,0,0:0:0:0:
256,192,198331,1,8,0:0:0:0:
256,192,198426,1,0,0:0:0:0:
256,192,198521,1,12,0:0:0:0:
256,192,198616,1,0,0:0:0:0:
256,192,198664,1,0,0:0:0:0:
256,192,198711,1,8,0:0:0:0:
256,192,198806,1,0,0:0:0:0:
256,192,198901,1,8,0:0:0:0:
256,192,198996,1,0,0:0:0:0:
256,192,199091,1,8,0:0:0:0:
256,192,199138,1,8,0:0:0:0:
256,192,199186,1,0,0:0:0:0:
256,192,199281,1,8,0:0:0:0:
256,192,199328,1,8,0:0:0:0:
256,192,199376,1,0,0:0:0:0:
256,192,199471,1,8,0:0:0:0:
256,192,199566,1,0,0:0:0:0:
256,192,199613,1,0,0:0:0:0:
256,192,199661,1,8,0:0:0:0:
256,192,199755,1,0,0:0:0:0:
256,192,199850,1,8,0:0:0:0:
256,192,199898,1,8,0:0:0:0:
256,192,199945,1,8,0:0:0:0:
256,192,199993,1,8,0:0:0:0:
256,192,200040,1,0,0:0:0:0:
256,192,200135,1,0,0:0:0:0:
256,192,200183,1,0,0:0:0:0:
256,192,200230,1,8,0:0:0:0:
256,192,200325,1,0,0:0:0:0:
256,192,200420,1,8,0:0:0:0:
256,192,200515,1,0,0:0:0:0:
256,192,200610,1,8,0:0:0:0:
256,192,200657,1,8,0:0:0:0:
256,192,200705,1,8,0:0:0:0:
256,192,200800,1,0,0:0:0:0:
256,192,200895,1,0,0:0:0:0:
256,192,200990,1,8,0:0:0:0:
256,192,201037,1,8,0:0:0:0:
256,192,201085,1,8,0:0:0:0:
256,192,201180,1,0,0:0:0:0:
256,192,201274,1,0,0:0:0:0:
256,192,201369,1,8,0:0:0:0:
256,192,201417,1,8,0:0:0:0:
256,192,201464,1,8,0:0:0:0:
256,192,201512,1,8,0:0:0:0:
256,192,201559,1,0,0:0:0:0:
256,192,201654,1,0,0:0:0:0:
256,192,201702,1,0,0:0:0:0:
256,192,201749,1,8,0:0:0:0:
256,192,201844,1,0,0:0:0:0:
256,192,201939,1,8,0:0:0:0:
256,192,202034,1,0,0:0:0:0:
256,192,202129,1,8,0:0:0:0:
256,192,202224,1,8,0:0:0:0:
256,192,202319,1,0,0:0:0:0:
256,192,202366,1,0,0:0:0:0:
256,192,202414,1,0,0:0:0:0:
256,192,202509,1,8,0:0:0:0:
256,192,202604,1,0,0:0:0:0:
256,192,202698,1,0,0:0:0:0:
256,192,202746,1,0,0:0:0:0:
256,192,202793,1,0,0:0:0:0:
256,192,202888,1,8,0:0:0:0:
256,192,202936,1,8,0:0:0:0:
256,192,202983,1,8,0:0:0:0:
256,192,203078,1,0,0:0:0:0:
256,192,203126,1,0,0:0:0:0:
256,192,203173,1,0,0:0:0:0:
256,192,203221,1,0,0:0:0:0:
256,192,203268,1,8,0:0:0:0:
256,192,203363,1,0,0:0:0:0:
256,192,203458,1,8,0:0:0:0:
256,192,203553,1,0,0:0:0:0:
256,192,203648,1,8,0:0:0:0:
256,192,203743,1,8,0:0:0:0:
256,192,203838,1,0,0:0:0:0:
256,192,203885,1,0,0:0:0:0:
256,192,203933,1,0,0:0:0:0:
256,192,204028,1,8,0:0:0:0:
256,192,204123,1,8,0:0:0:0:
256,192,204217,1,0,0:0:0:0:
256,192,204265,1,0,0:0:0:0:
256,192,204312,1,0,0:0:0:0:
256,192,204407,1,8,0:0:0:0:
256,192,204502,1,8,0:0:0:0:
256,192,204597,1,4,0:0:0:0:
256,192,204692,1,0,0:0:0:0:
256,192,204740,1,0,0:0:0:0:
256,192,204787,1,8,0:0:0:0:
256,192,204882,1,0,0:0:0:0:
256,192,204977,1,8,0:0:0:0:
256,192,205072,1,0,0:0:0:0:
256,192,205167,1,8,0:0:0:0:
256,192,205214,1,8,0:0:0:0:
256,192,205262,1,0,0:0:0:0:
256,192,205357,1,8,0:0:0:0:
256,192,205404,1,8,0:0:0:0:
256,192,205452,1,0,0:0:0:0:
256,192,205547,1,8,0:0:0:0:
256,192,205642,1,0,0:0:0:0:
256,192,205689,1,0,0:0:0:0:
256,192,205736,1,8,0:0:0:0:
256,192,205831,1,0,0:0:0:0:
256,192,205926,1,8,0:0:0:0:
256,192,206021,1,0,0:0:0:0:
256,192,206116,1,0,0:0:0:0:
256,192,206164,1,0,0:0:0:0:
256,192,206211,1,0,0:0:0:0:
256,192,206306,1,8,0:0:0:0:
256,192,206401,1,0,0:0:0:0:
256,192,206496,1,8,0:0:0:0:
256,192,206591,1,0,0:0:0:0:
256,192,206638,1,0,0:0:0:0:
256,192,206686,1,8,0:0:0:0:
256,192,206781,1,0,0:0:0:0:
256,192,206876,1,0,0:0:0:0:
256,192,206923,1,0,0:0:0:0:
256,192,206971,1,0,0:0:0:0:
256,192,207066,1,8,0:0:0:0:
256,192,207161,1,0,0:0:0:0:
256,192,207255,1,0,0:0:0:0:
256,192,207303,1,0,0:0:0:0:
256,192,207350,1,0,0:0:0:0:
256,192,207445,1,8,0:0:0:0:
256,192,207493,1,8,0:0:0:0:
256,192,207540,1,8,0:0:0:0:
256,192,207588,1,8,0:0:0:0:
256,192,207635,1,0,0:0:0:0:
256,192,207730,1,8,0:0:0:0:
256,192,207778,1,8,0:0:0:0:
256,192,207825,1,0,0:0:0:0:
256,192,207920,1,8,0:0:0:0:
256,192,208015,1,0,0:0:0:0:
256,192,208062,1,0,0:0:0:0:
256,192,208110,1,8,0:0:0:0:
256,192,208157,1,8,0:0:0:0:
256,192,208205,1,0,0:0:0:0:
256,192,208300,1,8,0:0:0:0:
256,192,208395,1,0,0:0:0:0:
256,192,208442,1,0,0:0:0:0:
256,192,208490,1,8,0:0:0:0:
256,192,208537,1,8,0:0:0:0:
256,192,208585,1,0,0:0:0:0:
256,192,208632,1,0,0:0:0:0:
256,192,208680,1,8,0:0:0:0:
256,192,208774,1,0,0:0:0:0:
256,192,208869,1,8,0:0:0:0:
256,192,208917,1,8,0:0:0:0:
256,192,208964,1,8,0:0:0:0:
256,192,209059,1,8,0:0:0:0:
256,192,209154,1,0,0:0:0:0:
256,192,209344,1,8,0:0:0:0:
256,192,209534,1,0,0:0:0:0:
256,192,209724,1,0,0:0:0:0:
256,192,209914,1,8,0:0:0:0:
256,192,210009,1,0,0:0:0:0:
256,192,210104,1,0,0:0:0:0:
256,192,210198,1,0,0:0:0:0:
256,192,210293,1,0,0:0:0:0:
256,192,210388,1,0,0:0:0:0:
256,192,210483,1,8,0:0:0:0:
256,192,210578,1,8,0:0:0:0:
256,192,210673,1,0,0:0:0:0:
256,192,210721,1,0,0:0:0:0:
256,192,210768,1,0,0:0:0:0:
256,192,210863,1,8,0:0:0:0:
256,192,210958,1,0,0:0:0:0:
256,192,211053,1,8,0:0:0:0:
256,192,211148,1,0,0:0:0:0:
256,192,211243,1,8,0:0:0:0:
256,192,211290,1,8,0:0:0:0:
256,192,211338,1,0,0:0:0:0:
256,192,211433,1,8,0:0:0:0:
256,192,211480,1,8,0:0:0:0:
256,192,211528,1,0,0:0:0:0:
256,192,211623,1,8,0:0:0:0:
256,192,211717,1,0,0:0:0:0:
256,192,211765,1,0,0:0:0:0:
256,192,211812,1,8,0:0:0:0:
256,192,211907,1,0,0:0:0:0:
256,192,212002,1,8,0:0:0:0:
256,192,212050,1,8,0:0:0:0:
256,192,212097,1,8,0:0:0:0:
256,192,212145,1,8,0:0:0:0:
256,192,212192,1,0,0:0:0:0:
256,192,212287,1,0,0:0:0:0:
256,192,212335,1,0,0:0:0:0:
256,192,212382,1,8,0:0:0:0:
256,192,212477,1,0,0:0:0:0:
256,192,212572,1,8,0:0:0:0:
256,192,212667,1,0,0:0:0:0:
256,192,212762,1,8,0:0:0:0:
256,192,212809,1,8,0:0:0:0:
256,192,212857,1,8,0:0:0:0:
256,192,212904,1,8,0:0:0:0:
256,192,212952,1,0,0:0:0:0:
256,192,213047,1,0,0:0:0:0:
256,192,213142,1,8,0:0:0:0:
256,192,213189,1,8,0:0:0:0:
256,192,213236,1,8,0:0:0:0:
256,192,213284,1,8,0:0:0:0:
256,192,213331,1,0,0:0:0:0:
256,192,213426,1,0,0:0:0:0:
256,192,213521,1,8,0:0:0:0:
256,192,213569,1,8,0:0:0:0:
256,192,213616,1,8,0:0:0:0:
256,192,213664,1,8,0:0:0:0:
256,192,213711,1,0,0:0:0:0:
256,192,213759,1,0,0:0:0:0:
256,192,213806,1,0,0:0:0:0:
256,192,213854,1,0,0:0:0:0:
256,192,213901,1,8,0:0:0:0:
256,192,213996,1,0,0:0:0:0:
256,192,214091,1,8,0:0:0:0:
256,192,214186,1,0,0:0:0:0:
256,192,214281,1,8,0:0:0:0:
256,192,214376,1,8,0:0:0:0:
256,192,214471,1,0,0:0:0:0:
256,192,214518,1,0,0:0:0:0:
256,192,214566,1,0,0:0:0:0:
256,192,214661,1,8,0:0:0:0:
256,192,214755,1,0,0:0:0:0:
256,192,214850,1,0,0:0:0:0:
256,192,214898,1,0,0:0:0:0:
256,192,214945,1,0,0:0:0:0:
256,192,215040,1,8,0:0:0:0:
256,192,215088,1,8,0:0:0:0:
256,192,215135,1,8,0:0:0:0:
256,192,215183,1,8,0:0:0:0:
256,192,215230,1,0,0:0:0:0:
256,192,215278,1,0,0:0:0:0:
256,192,215325,1,0,0:0:0:0:
256,192,215373,1,0,0:0:0:0:
256,192,215420,1,8,0:0:0:0:
256,192,215515,1,0,0:0:0:0:
256,192,215610,1,8,0:0:0:0:
256,192,215705,1,0,0:0:0:0:
256,192,215800,1,8,0:0:0:0:
256,192,215895,1,8,0:0:0:0:
256,192,215990,1,0,0:0:0:0:
256,192,216037,1,0,0:0:0:0:
256,192,216085,1,0,0:0:0:0:
256,192,216180,1,8,0:0:0:0:
256,192,216274,1,8,0:0:0:0:
256,192,216369,1,0,0:0:0:0:
256,192,216417,1,0,0:0:0:0:
256,192,216464,1,0,0:0:0:0:
256,192,216559,1,8,0:0:0:0:
256,192,216654,1,8,0:0:0:0:
256,192,216749,1,4,0:0:0:0:
256,192,216844,1,0,0:0:0:0:
256,192,216892,1,0,0:0:0:0:
256,192,216939,1,8,0:0:0:0:
256,192,217034,1,0,0:0:0:0:
256,192,217129,1,8,0:0:0:0:
256,192,217224,1,0,0:0:0:0:
256,192,217319,1,8,0:0:0:0:
256,192,217366,1,8,0:0:0:0:
256,192,217414,1,0,0:0:0:0:
256,192,217509,1,8,0:0:0:0:
256,192,217556,1,8,0:0:0:0:
256,192,217604,1,0,0:0:0:0:
256,192,217698,1,8,0:0:0:0:
256,192,217793,1,0,0:0:0:0:
256,192,217841,1,0,0:0:0:0:
256,192,217888,1,8,0:0:0:0:
256,192,217983,1,0,0:0:0:0:
256,192,218078,1,8,0:0:0:0:
256,192,218126,1,8,0:0:0:0:
256,192,218173,1,0,0:0:0:0:
256,192,218268,1,8,0:0:0:0:
256,192,218316,1,8,0:0:0:0:
256,192,218363,1,8,0:0:0:0:
256,192,218458,1,8,0:0:0:0:
256,192,218553,1,0,0:0:0:0:
256,192,218648,1,8,0:0:0:0:
256,192,218743,1,0,0:0:0:0:
256,192,218790,1,0,0:0:0:0:
256,192,218838,1,8,0:0:0:0:
256,192,218933,1,0,0:0:0:0:
256,192,219028,1,0,0:0:0:0:
256,192,219075,1,0,0:0:0:0:
256,192,219123,1,0,0:0:0:0:
256,192,219217,1,8,0:0:0:0:
256,192,219312,1,0,0:0:0:0:
256,192,219407,1,0,0:0:0:0:
256,192,219455,1,0,0:0:0:0:
256,192,219502,1,0,0:0:0:0:
256,192,219597,1,8,0:0:0:0:
256,192,219645,1,8,0:0:0:0:
256,192,219692,1,8,0:0:0:0:
256,192,219740,1,8,0:0:0:0:
256,192,219787,1,0,0:0:0:0:
256,192,219835,1,0,0:0:0:0:
256,192,219882,1,8,0:0:0:0:
256,192,219930,1,8,0:0:0:0:
256,192,219977,1,0,0:0:0:0:
256,192,220072,1,8,0:0:0:0:
256,192,220167,1,0,0:0:0:0:
256,192,220214,1,0,0:0:0:0:
256,192,220262,1,8,0:0:0:0:
256,192,220357,1,0,0:0:0:0:
256,192,220452,1,8,0:0:0:0:
256,192,220547,1,0,0:0:0:0:
256,192,220594,1,0,0:0:0:0:
256,192,220642,1,8,0:0:0:0:
256,192,220736,1,8,0:0:0:0:
256,192,220831,1,8,0:0:0:0:
256,192,220926,1,0,0:0:0:0:
256,192,221021,1,0,0:0:0:0:
256,192,221116,1,8,0:0:0:0:
256,192,221211,1,8,0:0:0:0:
256,192,221306,1,0,0:0:0:0:
256,192,221354,1,0,0:0:0:0:
256,192,221401,1,0,0:0:0:0:
256,192,221496,1,8,0:0:0:0:
256,192,221686,1,0,0:0:0:0:
256,192,221876,1,0,0:0:0:0:
256,192,222066,1,8,0:0:0:0:
256,192,222161,1,0,0:0:0:0:
256,192,222255,1,0,0:0:0:0:
256,192,222350,1,8,0:0:0:0:
256,192,222445,1,0,0:0:0:0:
256,192,222540,1,0,0:0:0:0:
256,192,222635,1,8,0:0:0:0:
256,192,222730,1,0,0:0:0:0:
256,192,222825,1,8,0:0:0:0:
256,192,223015,1,0,0:0:0:0:
256,192,223110,1,0,0:0:0:0:
256,192,223205,1,8,0:0:0:0:
256,192,223300,1,0,0:0:0:0:
256,192,223490,1,0,0:0:0:0:
256,192,223585,1,8,0:0:0:0:
256,192,223680,1,8,0:0:0:0:
256,192,223774,1,0,0:0:0:0:
256,192,223869,1,0,0:0:0:0:
256,192,223964,1,8,0:0:0:0:
256,192,224059,1,0,0:0:0:0:
256,192,224154,1,8,0:0:0:0:
256,192,224249,1,8,0:0:0:0:
256,192,224344,1,4,0:0:0:0:
256,192,224439,1,0,0:0:0:0:
256,192,224486,1,0,0:0:0:0:
256,192,224534,1,8,0:0:0:0:
256,192,224629,1,0,0:0:0:0:
256,192,224724,1,8,0:0:0:0:
256,192,224771,1,8,0:0:0:0:
256,192,224819,1,0,0:0:0:0:
256,192,224866,1,0,0:0:0:0:
256,192,224914,1,8,0:0:0:0:
256,192,225009,1,0,0:0:0:0:
256,192,225104,1,8,0:0:0:0:
256,192,225151,1,8,0:0:0:0:
256,192,225198,1,0,0:0:0:0:
256,192,225293,1,8,0:0:0:0:
256,192,225341,1,8,0:0:0:0:
256,192,225388,1,0,0:0:0:0:
256,192,225483,1,8,0:0:0:0:
256,192,225578,1,0,0:0:0:0:
256,192,225626,1,0,0:0:0:0:
256,192,225673,1,8,0:0:0:0:
256,192,225721,1,8,0:0:0:0:
256,192,225768,1,0,0:0:0:0:
256,192,225863,1,8,0:0:0:0:
256,192,225958,1,0,0:0:0:0:
256,192,226005,1,0,0:0:0:0:
256,192,226053,1,8,0:0:0:0:
256,192,226148,1,0,0:0:0:0:
256,192,226243,1,8,0:0:0:0:
256,192,226290,1,8,0:0:0:0:
256,192,226338,1,0,0:0:0:0:
256,192,226385,1,0,0:0:0:0:
256,192,226433,1,8,0:0:0:0:
256,192,226528,1,0,0:0:0:0:
256,192,226623,1,8,0:0:0:0:
256,192,226670,1,8,0:0:0:0:
256,192,226717,1,8,0:0:0:0:
256,192,226812,1,0,0:0:0:0:
256,192,226860,1,0,0:0:0:0:
256,192,226907,1,0,0:0:0:0:
256,192,227002,1,8,0:0:0:0:
256,192,227050,1,8,0:0:0:0:
256,192,227097,1,0,0:0:0:0:
256,192,227145,1,0,0:0:0:0:
256,192,227192,1,8,0:0:0:0:
256,192,227240,1,8,0:0:0:0:
256,192,227287,1,0,0:0:0:0:
256,192,227382,1,12,0:0:0:0:
256,192,227477,1,0,0:0:0:0:
256,192,227524,1,0,0:0:0:0:
256,192,227572,1,8,0:0:0:0:
256,192,227667,1,0,0:0:0:0:
256,192,227762,1,8,0:0:0:0:
256,192,227809,1,8,0:0:0:0:
256,192,227857,1,0,0:0:0:0:
256,192,227952,1,8,0:0:0:0:
256,192,228047,1,0,0:0:0:0:
256,192,228142,1,8,0:0:0:0:
256,192,228189,1,8,0:0:0:0:
256,192,228236,1,8,0:0:0:0:
256,192,228331,1,0,0:0:0:0:
256,192,228379,1,0,0:0:0:0:
256,192,228426,1,0,0:0:0:0:
256,192,228521,1,8,0:0:0:0:
256,192,228569,1,8,0:0:0:0:
256,192,228616,1,0,0:0:0:0:
256,192,228664,1,0,0:0:0:0:
256,192,228711,1,8,0:0:0:0:
256,192,228806,1,0,0:0:0:0:
256,192,228901,1,8,0:0:0:0:
256,192,228948,1,8,0:0:0:0:
256,192,228996,1,8,0:0:0:0:
256,192,229043,1,8,0:0:0:0:
256,192,229091,1,0,0:0:0:0:
256,192,229186,1,0,0:0:0:0:
256,192,229281,1,8,0:0:0:0:
256,192,229328,1,8,0:0:0:0:
256,192,229376,1,0,0:0:0:0:
256,192,229471,1,8,0:0:0:0:
256,192,229518,1,8,0:0:0:0:
256,192,229566,1,0,0:0:0:0:
256,192,229661,1,8,0:0:0:0:
256,192,229708,1,8,0:0:0:0:
256,192,229755,1,8,0:0:0:0:
256,192,229803,1,8,0:0:0:0:
256,192,229850,1,0,0:0:0:0:
256,192,229945,1,0,0:0:0:0:
256,192,230040,1,0,0:0:0:0:
256,192,230088,1,0,0:0:0:0:
256,192,230135,1,0,0:0:0:0:
256,192,230183,1,0,0:0:0:0:
256,192,230230,1,8,0:0:0:0:
256,192,230325,1,0,0:0:0:0:
256,192,230420,1,0,0:0:0:0:
256,192,230467,1,0,0:0:0:0:
256,192,230515,1,0,0:0:0:0:
256,192,230610,1,12,0:0:0:0:
256,192,230705,1,0,0:0:0:0:
256,192,230752,1,0,0:0:0:0:
256,192,230800,1,8,0:0:0:0:
256,192,230895,1,0,0:0:0:0:
256,192,230990,1,8,0:0:0:0:
256,192,231037,1,8,0:0:0:0:
256,192,231085,1,0,0:0:0:0:
256,192,231180,1,8,0:0:0:0:
256,192,231274,1,0,0:0:0:0:
256,192,231322,1,0,0:0:0:0:
256,192,231369,1,8,0:0:0:0:
256,192,231464,1,0,0:0:0:0:
256,192,231559,1,8,0:0:0:0:
256,192,231607,1,8,0:0:0:0:
256,192,231654,1,0,0:0:0:0:
256,192,231702,1,0,0:0:0:0:
256,192,231749,1,8,0:0:0:0:
256,192,231844,1,0,0:0:0:0:
256,192,231939,1,8,0:0:0:0:
256,192,232034,1,0,0:0:0:0:
256,192,232081,1,0,0:0:0:0:
256,192,232129,1,8,0:0:0:0:
256,192,232224,1,0,0:0:0:0:
256,192,232319,1,8,0:0:0:0:
256,192,232366,1,8,0:0:0:0:
256,192,232414,1,0,0:0:0:0:
256,192,232509,1,8,0:0:0:0:
256,192,232604,1,0,0:0:0:0:
256,192,232698,1,8,0:0:0:0:
256,192,232746,1,8,0:0:0:0:
256,192,232793,1,8,0:0:0:0:
256,192,232888,1,0,0:0:0:0:
256,192,232936,1,0,0:0:0:0:
256,192,232983,1,0,0:0:0:0:
256,192,233078,1,8,0:0:0:0:
256,192,233126,1,8,0:0:0:0:
256,192,233173,1,0,0:0:0:0:
256,192,233221,1,0,0:0:0:0:
256,192,233268,1,8,0:0:0:0:
256,192,233316,1,8,0:0:0:0:
256,192,233363,1,0,0:0:0:0:
256,192,233458,1,12,0:0:0:0:
256,192,233553,1,0,0:0:0:0:
256,192,233600,1,0,0:0:0:0:
256,192,233648,1,8,0:0:0:0:
256,192,233743,1,0,0:0:0:0:
256,192,233838,1,8,0:0:0:0:
256,192,233885,1,8,0:0:0:0:
256,192,233933,1,0,0:0:0:0:
256,192,234028,1,8,0:0:0:0:
256,192,234123,1,0,0:0:0:0:
256,192,234217,1,8,0:0:0:0:
256,192,234265,1,8,0:0:0:0:
256,192,234312,1,8,0:0:0:0:
256,192,234407,1,0,0:0:0:0:
256,192,234455,1,0,0:0:0:0:
256,192,234502,1,0,0:0:0:0:
256,192,234597,1,8,0:0:0:0:
256,192,234645,1,8,0:0:0:0:
256,192,234692,1,0,0:0:0:0:
256,192,234740,1,0,0:0:0:0:
256,192,234787,1,8,0:0:0:0:
256,192,234882,1,0,0:0:0:0:
256,192,234977,1,12,0:0:0:0:
256,192,235072,1,0,0:0:0:0:
256,192,235167,1,0,0:0:0:0:
256,192,235262,1,8,0:0:0:0:
256,192,235357,1,0,0:0:0:0:
256,192,235452,1,0,0:0:0:0:
256,192,235547,1,8,0:0:0:0:
256,192,235642,1,0,0:0:0:0:
256,192,235736,1,8,0:0:0:0:
256,192,235831,1,8,0:0:0:0:
256,192,235926,1,0,0:0:0:0:
256,192,235974,1,0,0:0:0:0:
256,192,236021,1,8,0:0:0:0:
256,192,236095,1,0,0:0:0:0:
256,192,236245,1,0,0:0:0:0:
256,192,236480,1,0,0:0:0:0:
256,192,236669,1,0,0:0:0:0:
256,192,236859,1,0,0:0:0:0:
256,192,237049,1,0,0:0:0:0:
256,192,237239,1,12,0:0:0:0:
256,192,237619,1,8,0:0:0:0:
256,192,237809,1,8,0:0:0:0:
256,192,237998,1,0,0:0:0:0:
256,192,238188,1,8,0:0:0:0:
256,192,238378,1,0,0:0:0:0:
256,192,238568,1,0,0:0:0:0:
256,192,238758,1,12,0:0:0:0:
256,192,238948,1,0,0:0:0:0:
256,192,239138,1,8,0:0:0:0:
256,192,239328,1,8,0:0:0:0:
256,192,239517,1,0,0:0:0:0:
256,192,239706,1,0,0:0:0:0:
256,192,239896,1,0,0:0:0:0:
256,192,240086,1,0,0:0:0:0:
256,192,240276,1,12,0:0:0:0:
256,192,240657,1,8,0:0:0:0:
256,192,240847,1,8,0:0:0:0:
256,192,241036,1,0,0:0:0:0:
256,192,241226,1,0,0:0:0:0:
256,192,241416,1,8,0:0:0:0:
256,192,241606,1,0,0:0:0:0:
256,192,241796,1,12,0:0:0:0:
256,192,241986,1,0,0:0:0:0:
256,192,242176,1,8,0:0:0:0:
256,192,242366,1,8,0:0:0:0:
256,192,242555,1,0,0:0:0:0:
256,192,242745,1,0,0:0:0:0:
256,192,242935,1,0,0:0:0:0:
256,192,243125,1,0,0:0:0:0:
256,192,243315,1,12,0:0:0:0:
256,192,243695,1,8,0:0:0:0:
256,192,243885,1,8,0:0:0:0:
256,192,244074,1,0,0:0:0:0:
256,192,244264,1,0,0:0:0:0:
256,192,244454,1,0,0:0:0:0:
256,192,244644,1,8,0:0:0:0:
256,192,244834,1,12,0:0:0:0:
256,192,245024,1,0,0:0:0:0:
256,192,245214,1,8,0:0:0:0:
256,192,245404,1,8,0:0:0:0:
256,192,245593,1,0,0:0:0:0:
256,192,245783,1,0,0:0:0:0:
256,192,245973,1,0,0:0:0:0:
256,192,246163,1,0,0:0:0:0:
256,192,246353,1,12,0:0:0:0:
256,192,246733,1,8,0:0:0:0:
256,192,246923,1,8,0:0:0:0:
256,192,247112,1,0,0:0:0:0:
256,192,247302,1,0,0:0:0:0:
256,192,247492,1,0,0:0:0:0:
256,192,247682,1,0,0:0:0:0:
256,192,247872,1,12,0:0:0:0:
256,192,248062,1,0,0:0:0:0:
256,192,248252,1,8,0:0:0:0:
256,192,248442,1,8,0:0:0:0:
256,192,248631,1,4,0:0:0:0:
256,192,248726,1,0,0:0:0:0:
256,192,248821,1,0,0:0:0:0:
256,192,248916,1,0,0:0:0:0:
256,192,249011,1,0,0:0:0:0:
256,192,249106,1,0,0:0:0:0:
256,192,249201,1,0,0:0:0:0:
256,192,249296,1,0,0:0:0:0:
256,192,249391,1,8,0:0:0:0:
256,192,249485,1,8,0:0:0:0:
256,192,249581,1,0,0:0:0:0:
256,192,249676,1,0,0:0:0:0:
256,192,249771,1,8,0:0:0:0:
256,192,249866,1,0,0:0:0:0:
256,192,249960,1,8,0:0:0:0:
256,192,250055,1,0,0:0:0:0:
256,192,250150,1,12,0:0:0:0:
256,192,250244,1,8,0:0:0:0:
256,192,250340,1,0,0:0:0:0:
256,192,250435,1,0,0:0:0:0:
256,192,250530,1,8,0:0:0:0:
256,192,250625,1,0,0:0:0:0:
256,192,250720,1,8,0:0:0:0:
256,192,250815,1,0,0:0:0:0:
256,192,250910,1,8,0:0:0:0:
256,192,251005,1,8,0:0:0:0:
256,192,251100,1,8,0:0:0:0:
256,192,251195,1,8,0:0:0:0:
256,192,251290,1,0,0:0:0:0:
256,192,251480,1,0,0:0:0:0:
256,192,251669,1,4,0:0:0:0:
256,192,251764,1,0,0:0:0:0:
256,192,251859,1,0,0:0:0:0:
256,192,251954,1,0,0:0:0:0:
256,192,252049,1,8,0:0:0:0:
256,192,252144,1,0,0:0:0:0:
256,192,252239,1,0,0:0:0:0:
256,192,252334,1,0,0:0:0:0:
256,192,252429,1,8,0:0:0:0:
256,192,252523,1,8,0:0:0:0:
256,192,252619,1,0,0:0:0:0:
256,192,252714,1,0,0:0:0:0:
256,192,252809,1,8,0:0:0:0:
256,192,252903,1,0,0:0:0:0:
256,192,252998,1,8,0:0:0:0:
256,192,253093,1,0,0:0:0:0:
256,192,253188,1,12,0:0:0:0:
256,192,253282,1,8,0:0:0:0:
256,192,253378,1,0,0:0:0:0:
256,192,253473,1,0,0:0:0:0:
256,192,253568,1,8,0:0:0:0:
256,192,253663,1,0,0:0:0:0:
256,192,253758,1,8,0:0:0:0:
256,192,253853,1,0,0:0:0:0:
256,192,253948,1,8,0:0:0:0:
256,192,254043,1,8,0:0:0:0:
256,192,254138,1,8,0:0:0:0:
256,192,254233,1,8,0:0:0:0:
256,192,254328,1,0,0:0:0:0:
256,192,254423,1,0,0:0:0:0:
256,192,254517,1,0,0:0:0:0:
256,192,254612,1,0,0:0:0:0:
256,192,254707,1,8,0:0:0:0:
256,192,254755,1,8,0:0:0:0:
256,192,254802,1,8,0:0:0:0:
256,192,254850,1,8,0:0:0:0:
256,192,254897,1,0,0:0:0:0:
256,192,254945,1,0,0:0:0:0:
256,192,254992,1,0,0:0:0:0:
256,192,255040,1,0,0:0:0:0:
256,192,255087,1,8,0:0:0:0:
256,192,255135,1,0,0:0:0:0:
256,192,255182,1,0,0:0:0:0:
256,192,255230,1,0,0:0:0:0:
256,192,255277,1,8,0:0:0:0:
256,192,255324,1,8,0:0:0:0:
256,192,255372,1,0,0:0:0:0:
256,192,255419,1,0,0:0:0:0:
256,192,255467,1,8,0:0:0:0:
256,192,255514,1,8,0:0:0:0:
256,192,255562,1,8,0:0:0:0:
256,192,255609,1,8,0:0:0:0:
256,192,255657,1,0,0:0:0:0:
256,192,255704,1,0,0:0:0:0:
256,192,255752,1,0,0:0:0:0:
256,192,255799,1,0,0:0:0:0:
256,192,255846,1,8,0:0:0:0:
256,192,255893,1,0,0:0:0:0:
256,192,255942,1,0,0:0:0:0:
256,192,255988,1,0,0:0:0:0:
256,192,256037,1,8,0:0:0:0:
256,192,256084,1,8,0:0:0:0:
256,192,256132,1,0,0:0:0:0:
256,192,256179,1,0,0:0:0:0:
256,192,256225,1,8,0:0:0:0:
256,192,256274,1,8,0:0:0:0:
256,192,256320,1,8,0:0:0:0:
256,192,256369,1,8,0:0:0:0:
256,192,256415,1,0,0:0:0:0:
256,192,256464,1,0,0:0:0:0:
256,192,256510,1,0,0:0:0:0:
256,192,256559,1,0,0:0:0:0:
256,192,256606,1,8,0:0:0:0:
256,192,256654,1,0,0:0:0:0:
256,192,256701,1,0,0:0:0:0:
256,192,256749,1,0,0:0:0:0:
256,192,256796,1,8,0:0:0:0:
256,192,256843,1,0,0:0:0:0:
256,192,256891,1,8,0:0:0:0:
256,192,256938,1,0,0:0:0:0:
256,192,256986,1,8,0:0:0:0:
256,192,257033,1,8,0:0:0:0:
256,192,257081,1,8,0:0:0:0:
256,192,257128,1,8,0:0:0:0:
256,192,257176,1,0,0:0:0:0:
256,192,257223,1,0,0:0:0:0:
256,192,257271,1,0,0:0:0:0:
256,192,257318,1,0,0:0:0:0:
256,192,257366,1,8,0:0:0:0:
256,192,257413,1,8,0:0:0:0:
256,192,257461,1,0,0:0:0:0:
256,192,257508,1,8,0:0:0:0:
256,192,257555,1,0,0:0:0:0:
256,192,257603,1,0,0:0:0:0:
256,192,257650,1,8,0:0:0:0:
256,192,257698,1,0,0:0:0:0:
256,192,257745,1,8,0:0:0:0:
256,192,257793,1,8,0:0:0:0:
256,192,257840,1,8,0:0:0:0:
256,192,257888,1,8,0:0:0:0:
256,192,257935,1,0,0:0:0:0:
256,192,257983,1,0,0:0:0:0:
256,192,258030,1,0,0:0:0:0:
256,192,258078,1,0,0:0:0:0:
256,192,258125,1,8,0:0:0:0:
256,192,258173,1,8,0:0:0:0:
256,192,258220,1,8,0:0:0:0:
256,192,258267,1,8,0:0:0:0:
256,192,258315,1,0,0:0:0:0:
256,192,258362,1,0,0:0:0:0:
256,192,258410,1,0,0:0:0:0:
256,192,258457,1,0,0:0:0:0:
256,192,258505,1,8,0:0:0:0:
256,192,258600,1,0,0:0:0:0:
256,192,258695,1,8,0:0:0:0:
256,192,258790,1,8,0:0:0:0:
256,192,258885,1,0,0:0:0:0:
256,192,258980,1,0,0:0:0:0:
256,192,259074,1,8,0:0:0:0:
256,192,259169,1,0,0:0:0:0:
256,192,259264,1,0,0:0:0:0:
256,192,259359,1,0,0:0:0:0:
256,192,259454,1,12,0:0:0:0:
256,192,259644,1,0,0:0:0:0:
256,192,259834,1,0,0:0:0:0:
256,192,259929,1,0,0:0:0:0:
256,192,260024,1,8,0:0:0:0:
256,192,260404,1,0,0:0:0:0:
256,192,260783,1,4,0:0:0:0:
256,192,260877,12,0,272175,0:0:0:0:
224,236,272555,6,0,P|312:196|204:180,1,280
