osu file format v14

[General]
AudioFilename: BELIAL.mp3
AudioLeadIn: 0
PreviewTime: -1
Countdown: 1
SampleSet: Normal
StackLeniency: 0.7
Mode: 0
LetterboxInBreaks: 1
WidescreenStoryboard: 1

[Editor]
Bookmarks: 14718,26869,51173,65231,75484,87636,154464
DistanceSpacing: 1
BeatDivisor: 4
GridSize: 4
TimelineZoom: 1.8

[Metadata]
Title:BELIAL
TitleUnicode:BELIAL
Artist:Siruhei, Rib:y(uhki)
ArtistUnicode:しるへい, Rib:y(uhki)
Creator:Ekoro
Version:Collapsing Doom
Source:東方Project
Tags:kim hull silent difference heian alien houjuu nue th12 extra stage boss c82 comiket 82
BeatmapID:1020313
BeatmapSetID:477558

[Difficulty]
HPDrainRate:6
CircleSize:4.2
OverallDifficulty:10
ApproachRate:10
SliderMultiplier:2
SliderTickRate:1

[Events]
//Background and Video events
0,0,"1c717444c5d5879c055dfa0c7455c44579dc990e.jpg",0,0
//Break Periods
2,13302,14268
2,112043,135793
2,142139,154022
//Storyboard Layer 0 (Background)
//Storyboard Layer 1 (Fail)
//Storyboard Layer 2 (Pass)
//Storyboard Layer 3 (Foreground)
//Storyboard Sound Samples

[TimingPoints]
1048,379.746835443038,4,1,1,70,1,0
1048,-111.111111111111,4,1,1,70,0,0
7123,-88.8888888888889,4,1,1,70,0,0
14718,189.873417721519,4,1,1,70,1,0
14718,-100,4,1,1,70,0,0
26900,189.873417721519,4,1,1,70,1,0
32975,-83.3333333333333,4,1,1,70,0,0
35254,-100,4,1,1,70,0,0
36013,-83.3333333333333,4,1,1,70,0,0
37510,189.873417721519,4,1,1,70,1,0
37510,-166.666666666667,4,1,1,70,0,0
38269,-111.111111111111,4,1,1,70,0,0
39028,-100,4,1,1,70,0,0
49661,-166.666666666667,4,1,1,70,0,0
50421,-125,4,1,1,70,0,0
51180,-100,4,1,1,70,0,0
74915,-111.111111111111,4,1,1,70,0,0
75104,-125,4,1,1,70,0,0
75294,-142.857142857143,4,1,1,70,0,0
75484,-166.666666666667,4,1,1,70,0,0
86877,-100,4,1,1,70,0,0
99788,379.746835443038,4,1,1,70,1,0
99788,-125,4,1,1,70,0,0
111180,189.873417721519,4,1,1,70,1,0
111939,-83.3333333333333,4,1,1,70,0,1
124091,-100,4,1,1,70,0,0
154472,-100,4,1,1,70,0,1
160547,-100,4,1,1,70,0,0

[Colours]
Combo1 : 170,0,0
Combo2 : 231,231,152
Combo3 : 255,255,128
Combo4 : 213,128,43
Combo5 : 255,169,128
Combo6 : 64,0,0

[HitObjects]
316,36,1048,6,0,P|492:124|480:264,1,360,4|0,0:0|0:0,0:0:0:0:
320,344,2187,1,0,0:0:0:0:
320,344,2377,1,0,0:0:0:0:
320,344,2566,2,0,B|172:300|188:392|56:348,1,270,4|0,0:0|0:0,0:0:0:0:
140,196,3326,5,0,0:0:0:0:
288,236,3516,1,0,0:0:0:0:
112,272,3706,2,0,L|16:280,1,90,8|0,0:0|0:0,0:0:0:0:
32,124,4085,6,0,B|168:112|168:112|236:168|236:168|376:152,1,360,4|0,0:0|0:0,0:0:0:0:
488,292,5225,1,0,0:0:0:0:
488,292,5415,1,0,0:0:0:0:
488,292,5604,2,0,B|396:284|396:284|324:328|324:328|232:320,1,270,12|0,0:0|0:0,0:0:0:0:
192,300,6269,1,0,0:0:0:0:
152,276,6364,6,0,L|108:280,1,45
48,220,6554,2,0,L|4:216,1,45
48,136,6744,5,8,0:0:0:0:
100,160,6839,1,0,0:0:0:0:
160,152,6934,1,0,0:0:0:0:
204,116,7029,1,0,0:0:0:0:
228,64,7123,6,0,L|232:4,1,56.25
312,104,7313,2,0,L|316:164,1,56.25
396,64,7503,2,0,L|400:4,1,56.25
480,104,7693,2,0,L|484:164,1,56.25
404,256,7883,6,0,L|400:196,1,56.25
320,296,8073,2,0,L|316:356,1,56.25
236,256,8263,2,0,L|232:196,1,56.25
152,296,8453,2,0,L|148:356,1,56.25
68,256,8642,6,0,L|12:264,1,56.25
148,108,8832,2,0,L|204:116,1,56.25
207,288,9022,2,0,L|151:296,1,56.25
287,140,9212,2,0,L|343:148,1,56.25
449,285,9402,6,0,B|449:313|449:313|441:341,1,56.25
287,140,9592,2,0,B|287:112|287:112|295:84,1,56.25
295,293,9782,2,0,B|267:293|267:293|239:285,1,56.25
440,131,9972,2,0,B|468:131|468:131|496:139,1,56.25
512,359,10160,5,0,0:0:0:0:
460,380,10255,1,0,0:0:0:0:
406,368,10350,1,0,0:0:0:0:
367,328,10445,1,0,0:0:0:0:
356,274,10540,1,0,0:0:0:0:
378,222,10635,1,0,0:0:0:0:
424,191,10731,1,0,0:0:0:0:
470,160,10825,1,0,0:0:0:0:
491,108,10920,5,0,0:0:0:0:
480,54,11015,1,0,0:0:0:0:
442,14,11110,1,0,0:0:0:0:
387,2,11205,1,0,0:0:0:0:
336,22,11300,1,0,0:0:0:0:
304,68,11396,1,0,0:0:0:0:
296,124,11491,1,0,0:0:0:0:
263,169,11587,1,0,0:0:0:0:
212,189,11682,5,0,0:0:0:0:
157,177,11777,1,0,0:0:0:0:
119,137,11872,1,0,0:0:0:0:
108,83,11967,1,0,0:0:0:0:
128,32,12060,2,0,L|184:24,1,56.25
60,204,12250,2,0,L|4:196,1,56.25
205,308,12440,5,8,0:0:0:0:
277,292,12535,1,0,0:0:0:0:
317,228,12630,1,0,0:0:0:0:
317,156,12725,1,0,0:0:0:0:
285,92,12818,2,0,L|229:84,1,56.25
393,292,13008,2,0,L|449:284,1,56.25,8|0,0:0|0:0,0:0:0:0:
124,228,14718,6,0,B|117:276|117:276|133:324,1,100,6|0,0:0|0:0,0:0:0:0:
212,124,14907,2,0,B|218:75|218:75|202:27,1,100,2|0,0:0|0:0,0:0:0:0:
220,220,15097,2,0,B|268:226|268:226|316:210,1,100,2|0,0:0|0:0,0:0:0:0:
116,132,15286,2,0,B|67:125|67:125|19:141,1,100,2|0,0:0|0:0,0:0:0:0:
36,333,15477,6,0,B|84:339|84:339|132:323,1,100,2|0,0:0|0:0,0:0:0:0:
312,156,15667,2,0,B|263:149|263:149|215:165,1,100,2|0,0:0|0:0,0:0:0:0:
232,357,15858,2,0,B|280:363|280:363|328:347,1,100,2|0,0:0|0:0,0:0:0:0:
508,180,16047,2,0,B|459:173|459:173|411:189,1,100,2|0,0:0|0:0,0:0:0:0:
456,368,16236,6,0,L|468:264,1,100,2|0,0:0|0:0,0:0:0:0:
312,156,16426,2,0,L|324:260,1,100,2|0,0:0|0:0,0:0:0:0:
168,368,16616,2,0,L|180:264,1,100,2|0,0:0|0:0,0:0:0:0:
272,64,16806,1,2,0:0:0:0:
212,144,16901,1,0,0:0:0:0:
312,156,16996,6,0,L|416:144,1,100,2|0,0:0|0:0,0:0:0:0:
172,52,17186,2,0,L|68:64,1,100,2|0,0:0|0:0,0:0:0:0:
360,24,17376,6,0,L|464:36,1,100,2|0,0:0|0:0,0:0:0:0:
124,184,17566,2,0,L|20:172,1,100,2|0,0:0|0:0,0:0:0:0:
70,373,17755,6,0,B|122:381|122:381|168:368,1,100,6|0,0:0|0:0,0:0:0:0:
332,248,17945,2,0,L|344:148,1,100,2|0,0:0|0:0,0:0:0:0:
168,148,18135,2,0,L|180:248,1,100,2|0,0:0|0:0,0:0:0:0:
344,368,18325,2,0,B|390:381|390:381|442:373,1,100,2|0,0:0|0:0,0:0:0:0:
508,180,18515,6,0,L|404:188,1,100,2|0,0:0|0:0,0:0:0:0:
184,264,18705,1,2,0:0:0:0:
228,176,18800,1,0,0:0:0:0:
288,256,18895,2,0,B|300:304|300:304|292:356,1,100,2|0,0:0|0:0,0:0:0:0:
124,184,19085,2,0,B|112:136|112:136|120:84,1,100,2|0,0:0|0:0,0:0:0:0:
296,20,19274,6,0,B|368:12|368:12|404:44|404:44|484:36,1,200,2|0,0:0|0:0,0:0:0:0:
482,36,19559,1,0,0:0:0:0:
336,200,19654,2,0,L|328:96,1,100,2|0,0:0|0:0,0:0:0:0:
492,164,19844,2,0,L|500:268,1,100,2|0,0:0|0:0,0:0:0:0:
344,368,20034,6,0,B|265:375|265:375|229:343|229:343|157:351,1,200,6|0,0:0|0:0,0:0:0:0:
228,176,20319,1,0,0:0:0:0:
312,279,20414,2,0,B|390:286|390:286|426:254|426:254|498:262,1,200
428,87,20699,1,0,0:0:0:0:
424,380,20793,6,0,P|440:388|448:332,1,100,2|0,0:0|0:0,0:0:0:0:
327,164,20983,6,0,L|227:176,1,100,6|0,0:0|0:0,0:0:0:0:
119,220,21173,2,0,L|179:300,1,100,2|0,0:0|0:0,0:0:0:0:
272,372,21363,2,0,L|311:279,1,100,2|0,0:0|0:0,0:0:0:0:
136,108,21553,6,0,B|84:100|84:100|36:112,1,100,2|0,0:0|0:0,0:0:0:0:
174,375,21743,2,0,B|226:383|226:383|274:371,1,100,2|0,0:0|0:0,0:0:0:0:
21,260,21933,2,0,B|13:312|13:312|25:360,1,100,2|0,0:0|0:0,0:0:0:0:
288,222,22123,2,0,B|296:170|296:170|284:122,1,100,2|0,0:0|0:0,0:0:0:0:
136,8,22312,6,0,L|32:16,1,100,2|0,0:0|0:0,0:0:0:0:
96,184,22502,2,0,L|200:192,1,100,2|0,0:0|0:0,0:0:0:0:
328,46,22692,2,0,L|224:54,1,100,2|0,0:0|0:0,0:0:0:0:
288,222,22882,1,2,0:0:0:0:
388,216,22977,1,0,0:0:0:0:
452,140,23072,6,0,L|468:40,1,100,2|0,0:0|0:0,0:0:0:0:
288,222,23262,2,0,L|272:322,1,100,2|0,0:0|0:0,0:0:0:0:
432,112,23452,6,0,L|424:12,1,100,2|0,0:0|0:0,0:0:0:0:
308,250,23642,2,0,L|316:350,1,100,2|0,0:0|0:0,0:0:0:0:
484,231,23831,6,0,B|438:212|438:212|386:216,1,100,6|0,0:0|0:0,0:0:0:0:
219,334,24021,2,0,B|265:353|265:353|317:349,1,100,2|0,0:0|0:0,0:0:0:0:
316,164,24211,2,0,B|270:145|270:145|218:149,1,100,2|0,0:0|0:0,0:0:0:0:
51,267,24401,2,0,B|97:286|97:286|149:282,1,100,2|0,0:0|0:0,0:0:0:0:
392,128,24591,6,0,L|400:28,1,100,2|0,0:0|0:0,0:0:0:0:
124,68,24781,2,0,L|132:168,1,100,2|0,0:0|0:0,0:0:0:0:
424,312,24971,6,0,L|432:212,1,100,2|0,0:0|0:0,0:0:0:0:
92,252,25161,2,0,L|100:352,1,100,2|0,0:0|0:0,0:0:0:0:
332,384,25350,5,4,0:0:0:0:
416,168,25540,1,0,0:0:0:0:
188,204,25730,1,8,0:0:0:0:
404,288,25920,1,0,0:0:0:0:
368,60,26110,5,0,0:0:0:0:
284,276,26300,1,0,0:0:0:0:
512,240,26490,1,0,0:0:0:0:
296,156,26680,1,8,0:0:0:0:
108,284,26900,6,0,B|100:332|100:332|112:384,1,100,6|0,0:0|0:0,0:0:0:0:
299,254,27090,2,0,B|307:206|307:206|295:154,1,100,2|0,0:0|0:0,0:0:0:0:
12,272,27280,2,0,B|4:320|4:320|16:372,1,100,2|0,0:0|0:0,0:0:0:0:
203,242,27470,2,0,B|211:194|211:194|199:142,1,100,2|0,0:0|0:0,0:0:0:0:
28,72,27660,6,0,L|20:176,1,100,2|0,0:0|0:0,0:0:0:0:
12,272,27850,1,2,0:0:0:0:
12,272,27945,1,0,0:0:0:0:
204,344,28040,5,2,0:0:0:0:
202,242,28135,1,0,0:0:0:0:
199,143,28230,1,2,0:0:0:0:
197,41,28325,1,0,0:0:0:0:
284,88,28419,5,2,0:0:0:0:
115,198,28514,1,0,0:0:0:0:
115,198,28562,1,0,0:0:0:0:
115,198,28609,2,0,B|7:186,1,100,2|0,0:0|0:0,0:0:0:0:
284,88,28799,2,0,B|296:136|296:136|284:192,1,100,2|0,0:0|0:0,0:0:0:0:
108,108,28989,2,0,B|96:60|96:60|108:4,1,100,2|0,0:0|0:0,0:0:0:0:
277,0,29179,6,0,B|385:12,1,100,2|0,0:0|0:0,0:0:0:0:
476,24,29369,1,2,0:0:0:0:
476,24,29464,1,0,0:0:0:0:
414,176,29559,5,2,0:0:0:0:
315,182,29654,1,0,0:0:0:0:
215,190,29749,1,2,0:0:0:0:
115,198,29844,1,0,0:0:0:0:
28,152,29938,6,0,L|16:48,1,100,6|0,0:0|0:0,0:0:0:0:
176,8,30127,2,0,L|164:112,1,100,2|0,0:0|0:0,0:0:0:0:
315,182,30317,2,0,L|303:78,1,100,2|0,0:0|0:0,0:0:0:0:
463,38,30506,2,0,L|451:142,1,100,2|0,0:0|0:0,0:0:0:0:
416,352,30697,6,0,B|316:340,1,100,2|0,0:0|0:0,0:0:0:0:
216,324,30887,1,2,0:0:0:0:
216,324,30982,1,0,0:0:0:0:
60,264,31077,5,2,0:0:0:0:
160,252,31172,1,0,0:0:0:0:
260,236,31267,1,2,0:0:0:0:
360,224,31362,1,0,0:0:0:0:
304,144,31456,6,0,L|204:156,1,100,2|0,0:0|0:0,0:0:0:0:
364,328,31646,2,0,L|464:340,1,100,2|0,0:0|0:0,0:0:0:0:
276,264,31836,2,0,B|260:312|260:312|264:364,1,100,2|0,0:0|0:0,0:0:0:0:
392,208,32026,2,0,B|408:160|408:160|404:108,1,100,2|0,0:0|0:0,0:0:0:0:
132,92,32216,6,0,B|116:140|116:140|124:236|124:236|104:288,1,200,14|0,0:0|0:0,0:0:0:0:
28,220,32501,2,0,L|20:116,1,100,10|0,0:0|0:0,0:0:0:0:
232,56,32691,1,0,0:0:0:0:
208,157,32786,2,0,L|216:261,1,100,10|0,0:0|0:0,0:0:0:0:
136,360,32975,6,0,B|92:364|92:364|64:348|64:348|20:352,1,119.999996337891,6|0,0:0|0:0,0:0:0:0:
92,149,33165,2,0,B|136:145|136:145|164:161|164:161|208:157,1,119.999996337891
348,364,33355,2,0,B|304:368|304:368|276:352|276:352|232:356,1,119.999996337891
304,153,33545,2,0,B|348:149|348:149|376:165|376:165|420:161,1,119.999996337891
500,272,33735,6,0,B|508:316|496:356|496:356|464:368,1,119.999996337891
267,249,33925,2,0,B|259:205|271:165|271:165|303:153,1,119.999996337891
348,364,34115,5,0,0:0:0:0:
240,380,34210,1,0,0:0:0:0:
148,320,34305,1,0,0:0:0:0:
40,332,34400,1,0,0:0:0:0:
92,149,34494,6,0,B|172:136|172:136|208:156,1,119.999996337891,2|0,0:0|0:0,0:0:0:0:
262,325,34684,2,0,B|182:338|182:338|146:318,1,119.999996337891
108,60,34874,2,0,B|188:47|188:47|224:67,1,119.999996337891
278,236,35064,2,0,B|198:249|198:249|162:229,1,119.999996337891
334,88,35254,6,0,B|330:152|330:152|378:208|378:208|374:272,1,200,2|0,0:0|0:0,0:0:0:0:
278,236,35539,1,0,0:0:0:0:
430,121,35634,2,0,B|496:128|496:128|484:160,1,100
278,236,35824,2,0,B|212:229|212:229|224:197,1,100
368,20,36013,6,0,B|412:16|412:16|440:32|440:32|484:28,1,119.999996337891,4|0,0:0|0:0,0:0:0:0:
412,220,36203,2,0,B|393:260|393:260|365:276|365:276|347:316,1,119.999996337891
216,158,36393,2,0,B|190:121|190:121|190:89|190:89|164:53,1,119.999996337891
336,128,36583,1,0,0:0:0:0:
336,128,36678,1,0,0:0:0:0:
180,256,36773,6,0,B|136:260|136:260|108:244|108:244|64:248,1,119.999996337891,10|0,0:0|0:0,0:0:0:0:
16,332,36963,1,0,0:0:0:0:
44,336,37010,1,0,0:0:0:0:
76,340,37058,1,0,0:0:0:0:
228,171,37153,1,0,0:0:0:0:
200,167,37200,1,0,0:0:0:0:
168,163,37248,1,0,0:0:0:0:
272,364,37343,2,0,B|316:368|316:368|344:352|344:352|388:356,1,119.999996337891,10|0,0:0|0:0,0:0:0:0:
512,312,37510,6,0,L|504:252,2,59.9999981689454
432,292,37794,2,0,B|424:228|424:228|448:184|448:184|440:119,1,179.999994506836
300,4,38269,5,8,0:0:0:0:
212,20,38364,1,8,0:0:0:0:
124,36,38459,1,0,0:0:0:0:
36,52,38554,1,0,0:0:0:0:
104,212,38649,5,0,0:0:0:0:
104,212,38697,1,0,0:0:0:0:
104,212,38744,1,0,0:0:0:0:
236,232,38839,1,0,0:0:0:0:
180,108,38934,1,0,0:0:0:0:
36,140,39028,6,0,B|12:184|12:184|16:236,1,100,4|0,0:0|0:0,0:0:0:0:
207,326,39218,2,0,B|257:324|257:324|300:295,1,100,2|0,0:0|0:0,0:0:0:0:
275,86,39408,2,0,B|248:43|248:43|201:20,1,100,2|0,0:0|0:0,0:0:0:0:
176,184,39598,1,2,0:0:0:0:
176,184,39693,1,0,0:0:0:0:
298,296,39788,6,0,L|398:304,1,100,2|0,0:0|0:0,0:0:0:0:
472,144,39978,2,0,L|372:152,1,100,2|0,0:0|0:0,0:0:0:0:
500,344,40168,2,0,B|508:296|508:296|492:244,1,100,2|0,0:0|0:0,0:0:0:0:
277,94,40358,2,0,B|262:144|262:144|270:192,1,100,2|0,0:0|0:0,0:0:0:0:
310,376,40547,6,0,L|210:384,1,100,2|0,0:0|0:0,0:0:0:0:
76,172,40737,1,2,0:0:0:0:
136,92,40832,1,0,0:0:0:0:
176,184,40927,2,0,B|180:236|180:236|160:284,1,100,2|0,0:0|0:0,0:0:0:0:
36,80,41117,1,2,0:0:0:0:
196,12,41212,1,0,0:0:0:0:
196,12,41260,1,0,0:0:0:0:
196,12,41307,6,0,L|296:24,1,100,2|0,0:0|0:0,0:0:0:0:
430,230,41497,1,2,0:0:0:0:
329,214,41592,1,0,0:0:0:0:
392,135,41687,5,2,0:0:0:0:
370,310,41782,1,0,0:0:0:0:
288,120,41877,2,0,B|280:68|280:68|296:20,1,100,2|0,0:0|0:0,0:0:0:0:
502,53,42066,6,0,B|510:105|510:105|495:149,1,100,6|0,0:0|0:0,0:0:0:0:
224,296,42256,2,0,B|216:244|216:244|230:199,1,100,2|0,0:0|0:0,0:0:0:0:
332,332,42446,1,2,0:0:0:0:
172,380,42541,2,0,L|60:372,1,100,0|2,0:0|0:0,0:0:0:0:
34,210,42731,6,0,B|109:215|109:215|154:194|154:194|230:199,1,200
112,296,43016,2,0,L|0:288,1,100,2|0,0:0|0:0,0:0:0:0:
151,112,43206,2,0,L|263:120,1,100,2|0,0:0|0:0,0:0:0:0:
212,280,43396,1,2,0:0:0:0:
51,128,43491,1,2,0:0:0:0:
248,28,43585,6,0,B|296:40|296:40|332:76,1,100,2|0,0:0|0:0,0:0:0:0:
500,92,43775,2,0,B|465:127|465:127|416:140,1,100,2|0,0:0|0:0,0:0:0:0:
318,278,43965,2,0,B|304:230|304:230|317:181,1,100,2|0,0:0|0:0,0:0:0:0:
430,34,44155,1,2,0:0:0:0:
430,34,44250,1,0,0:0:0:0:
403,247,44345,5,2,0:0:0:0:
216,208,44440,1,0,0:0:0:0:
408,280,44535,5,2,0:0:0:0:
217,291,44630,1,0,0:0:0:0:
421,310,44725,5,2,0:0:0:0:
240,370,44820,1,0,0:0:0:0:
441,336,44915,6,0,L|448:236,1,100,2|0,0:0|0:0,0:0:0:0:
436,204,45057,1,0,0:0:0:0:
428,172,45104,6,0,B|376:180|376:180|328:172,1,100,6|0,0:0|0:0,0:0:0:0:
232,144,45294,1,2,0:0:0:0:
232,144,45389,1,0,0:0:0:0:
308,80,45484,2,0,L|412:72,1,100,2|0,0:0|0:0,0:0:0:0:
253,236,45674,2,0,L|149:244,1,100,2|0,0:0|0:0,0:0:0:0:
28,140,45864,6,0,B|20:88|20:88|36:44,1,100,2|0,0:0|0:0,0:0:0:0:
153,243,46054,2,0,B|161:295|161:295|145:339,1,100,2|0,0:0|0:0,0:0:0:0:
40,256,46244,1,2,0:0:0:0:
40,256,46339,1,0,0:0:0:0:
144,128,46434,2,0,L|252:140,1,100,2|0,0:0|0:0,0:0:0:0:
416,176,46623,6,0,B|424:208|424:208|416:240|416:240|424:276,1,100,2|0,0:0|0:0,0:0:0:0:
244,140,46813,2,0,B|252:108|252:108|244:76|244:76|252:40,1,100,2|0,0:0|0:0,0:0:0:0:
504,172,47003,2,0,B|512:204|512:204|504:236|504:236|512:272,1,100,2|0,0:0|0:0,0:0:0:0:
332,144,47193,2,0,B|340:112|340:112|332:80|332:80|340:44,1,100,2|0,0:0|0:0,0:0:0:0:
468,348,47383,6,0,B|392:352|392:352|356:328|356:328|276:332,1,200,2|2,0:0|0:0,0:0:0:0:
275,332,47668,1,0,0:0:0:0:
284,220,47763,5,2,0:0:0:0:
420,276,47858,1,0,0:0:0:0:
260,244,47953,1,2,0:0:0:0:
444,252,48047,1,2,0:0:0:0:
444,252,48095,1,0,0:0:0:0:
444,252,48142,6,0,L|456:152,1,100,6|0,0:0|0:0,0:0:0:0:
224,172,48332,2,0,L|236:272,1,100,2|0,0:0|0:0,0:0:0:0:
388,344,48522,2,0,B|436:356|436:356|488:348,1,100,2|0,0:0|0:0,0:0:0:0:
512,64,48712,2,0,B|464:52|464:52|412:60,1,100,2|0,0:0|0:0,0:0:0:0:
326,208,48902,6,0,L|314:308,1,100,2|0,0:0|0:0,0:0:0:0:
128,288,49092,1,2,0:0:0:0:
138,187,49187,1,0,0:0:0:0:
217,245,49282,2,0,B|224:292|224:292|203:340,1,100,2|0,0:0|0:0,0:0:0:0:
48,229,49472,2,0,B|40:181|40:181|61:133,1,100,2|0,0:0|0:0,0:0:0:0:
352,36,49661,5,4,0:0:0:0:
452,100,49851,1,0,0:0:0:0:
352,36,50041,2,0,L|232:24,1,119.999996337891,2|2,0:0|0:0,0:0:0:0:
140,160,50421,5,0,0:0:0:0:
4,244,50611,1,0,0:0:0:0:
140,160,50801,2,0,L|308:144,1,160,2|2,0:0|0:0,0:0:0:0:
504,248,51180,5,4,0:0:0:0:
507,282,51227,1,0,0:0:0:0:
496,315,51274,1,0,0:0:0:0:
473,341,51322,1,0,0:0:0:0:
441,354,51369,1,0,0:0:0:0:
406,354,51417,1,0,0:0:0:0:
375,339,51464,1,0,0:0:0:0:
352,312,51512,1,0,0:0:0:0:
343,279,51559,1,0,0:0:0:0:
348,245,51607,1,0,0:0:0:0:
367,215,51654,1,0,0:0:0:0:
396,196,51702,1,0,0:0:0:0:
431,187,51750,1,0,0:0:0:0:
460,168,51798,1,0,0:0:0:0:
478,138,51845,1,0,0:0:0:0:
483,104,51893,1,0,0:0:0:0:
474,71,51940,5,10,0:0:0:0:
451,44,51988,1,0,0:0:0:0:
420,29,52035,1,0,0:0:0:0:
385,29,52083,1,0,0:0:0:0:
353,42,52130,1,0,0:0:0:0:
330,68,52178,1,0,0:0:0:0:
319,101,52225,1,0,0:0:0:0:
323,135,52272,1,0,0:0:0:0:
343,167,52320,2,0,L|395:175,3,50
324,240,52510,2,0,L|274:247,3,50
344,316,52699,5,4,0:0:0:0:
311,328,52746,1,0,0:0:0:0:
276,329,52793,1,0,0:0:0:0:
243,318,52841,1,0,0:0:0:0:
215,297,52888,1,0,0:0:0:0:
190,272,52936,1,0,0:0:0:0:
165,248,52983,1,0,0:0:0:0:
135,230,53031,1,0,0:0:0:0:
101,222,53078,1,0,0:0:0:0:
66,224,53126,1,0,0:0:0:0:
33,235,53173,1,0,0:0:0:0:
9,261,53222,1,0,0:0:0:0:
4,296,53269,1,0,0:0:0:0:
10,330,53316,1,0,0:0:0:0:
31,357,53364,1,0,0:0:0:0:
62,373,53411,1,0,0:0:0:0:
96,374,53459,5,2,0:0:0:0:
128,360,53506,1,0,0:0:0:0:
150,333,53553,1,0,0:0:0:0:
162,300,53600,1,0,0:0:0:0:
162,265,53647,1,0,0:0:0:0:
151,233,53695,1,0,0:0:0:0:
128,206,53742,1,0,0:0:0:0:
99,187,53791,1,0,0:0:0:0:
64,180,53839,2,0,L|12:188,3,50
100,92,54028,2,0,L|152:100,3,50
240,128,54218,5,4,0:0:0:0:
276,136,54266,1,0,0:0:0:0:
312,132,54313,1,0,0:0:0:0:
344,116,54361,1,0,0:0:0:0:
372,92,54408,1,0,0:0:0:0:
404,76,54456,1,0,0:0:0:0:
440,72,54503,1,0,0:0:0:0:
476,80,54551,1,0,0:0:0:0:
504,100,54598,2,0,L|508:152,3,50
448,200,54788,2,0,L|444:252,3,50
496,328,54978,5,2,0:0:0:0:
460,320,55026,1,0,0:0:0:0:
424,324,55073,1,0,0:0:0:0:
392,340,55121,1,0,0:0:0:0:
364,364,55168,1,0,0:0:0:0:
332,380,55216,1,0,0:0:0:0:
296,384,55263,1,0,0:0:0:0:
260,376,55311,1,0,0:0:0:0:
232,356,55358,2,0,L|228:304,3,50
288,256,55548,2,0,L|292:204,3,50
240,128,55737,5,4,0:0:0:0:
211,108,55784,1,0,0:0:0:0:
178,97,55831,1,0,0:0:0:0:
143,97,55879,1,0,0:0:0:0:
109,106,55926,1,0,0:0:0:0:
80,126,55974,1,0,0:0:0:0:
58,153,56021,1,0,0:0:0:0:
45,185,56069,1,0,0:0:0:0:
44,220,56117,2,0,L|52:272,7,50
92,348,56497,5,2,0:0:0:0:
120,367,56544,1,0,0:0:0:0:
153,378,56591,1,0,0:0:0:0:
188,378,56639,1,0,0:0:0:0:
222,369,56686,1,0,0:0:0:0:
251,349,56734,1,0,0:0:0:0:
273,322,56781,1,0,0:0:0:0:
286,290,56829,1,0,0:0:0:0:
288,256,56877,2,0,L|280:204,7,50,2|0|0|0|0|0|0|0,0:0|0:0|0:0|0:0|0:0|0:0|0:0|0:0,0:0:0:0:
240,128,57256,5,4,0:0:0:0:
232,94,57303,1,0,0:0:0:0:
241,60,57350,1,0,0:0:0:0:
265,35,57398,1,0,0:0:0:0:
298,25,57445,1,0,0:0:0:0:
332,32,57493,1,0,0:0:0:0:
358,54,57540,1,0,0:0:0:0:
371,86,57588,1,0,0:0:0:0:
372,124,57636,1,0,0:0:0:0:
384,156,57684,1,0,0:0:0:0:
411,178,57731,1,0,0:0:0:0:
445,185,57779,1,0,0:0:0:0:
478,174,57826,1,0,0:0:0:0:
502,149,57874,1,0,0:0:0:0:
511,116,57921,1,0,0:0:0:0:
503,82,57968,1,0,0:0:0:0:
472,64,58016,5,2,0:0:0:0:
436,65,58063,1,0,0:0:0:0:
404,80,58110,1,0,0:0:0:0:
378,102,58158,1,0,0:0:0:0:
360,132,58205,1,0,0:0:0:0:
353,167,58253,1,0,0:0:0:0:
356,201,58300,1,0,0:0:0:0:
370,233,58348,1,0,0:0:0:0:
396,256,58396,2,0,L|448:260,3,50
436,344,58585,2,0,L|488:340,3,50
340,336,58775,6,0,B|240:344,3,100,2|0|0|0,0:0|0:0|0:0|0:0,0:0:0:0:
192,192,59155,2,0,B|292:200,3,100,2|0|0|0,0:0|0:0|0:0|0:0,0:0:0:0:
120,260,59535,5,2,0:0:0:0:
24,228,59630,1,0,0:0:0:0:
96,160,59725,1,0,0:0:0:0:
96,160,59820,1,0,0:0:0:0:
180,328,59915,6,0,B|136:348|136:348|84:340,1,100
0,128,60104,2,0,B|4:79|4:79|37:38,1,100,2|0,0:0|0:0,0:0:0:0:
263,72,60294,5,4,0:0:0:0:
296,88,60342,1,0,0:0:0:0:
316,116,60389,1,0,0:0:0:0:
324,152,60437,1,0,0:0:0:0:
320,188,60484,1,0,0:0:0:0:
308,220,60532,1,0,0:0:0:0:
304,256,60579,1,0,0:0:0:0:
312,292,60627,1,0,0:0:0:0:
332,320,60674,1,0,0:0:0:0:
365,336,60722,1,0,0:0:0:0:
400,340,60769,1,0,0:0:0:0:
432,332,60816,1,0,0:0:0:0:
460,308,60864,2,0,L|472:208,1,100
232,160,61054,5,2,0:0:0:0:
392,252,61149,1,0,0:0:0:0:
316,88,61244,1,0,0:0:0:0:
276,264,61339,1,0,0:0:0:0:
416,144,61434,5,0,0:0:0:0:
104,52,61623,1,0,0:0:0:0:
180,368,61813,1,4,0:0:0:0:
180,368,62383,1,0,0:0:0:0:
180,368,62478,1,0,0:0:0:0:
180,368,62573,6,0,L|280:360,1,100,2|0,0:0|0:0,0:0:0:0:
464,328,62763,1,0,0:0:0:0:
428,232,62858,2,0,L|328:224,1,100,2|0,0:0|0:0,0:0:0:0:
208,288,63047,5,2,0:0:0:0:
84,172,63142,1,2,0:0:0:0:
247,123,63237,1,2,0:0:0:0:
124,256,63332,6,0,B|76:264|76:264|28:248,1,100,6|0,0:0|0:0,0:0:0:0:
207,39,63522,2,0,B|255:31|255:31|303:47,1,100,2|0,0:0|0:0,0:0:0:0:
57,106,63712,2,0,B|49:58|49:58|65:10,1,100,2|0,0:0|0:0,0:0:0:0:
274,189,63902,2,0,B|282:237|282:237|266:285,1,100,2|0,0:0|0:0,0:0:0:0:
116,352,64092,6,0,L|13:357,1,100,2|0,0:0|0:0,0:0:0:0:
84,172,64282,2,0,L|187:177,1,100,2|0,0:0|0:0,0:0:0:0:
320,356,64472,2,0,L|217:361,1,100,2|0,0:0|0:0,0:0:0:0:
288,176,64662,2,0,L|391:181,1,100,2|0,0:0|0:0,0:0:0:0:
504,276,64851,6,0,B|508:328|508:328|492:376,1,100,2|0,0:0|0:0,0:0:0:0:
387,180,65041,1,2,0:0:0:0:
387,180,65136,1,0,0:0:0:0:
387,180,65231,2,0,B|430:150|430:150|479:140,1,100,2|0,0:0|0:0,0:0:0:0:
363,330,65421,2,0,B|315:307|315:307|282:269,1,100,2|0,0:0|0:0,0:0:0:0:
340,0,65611,5,2,0:0:0:0:
428,44,65706,1,0,0:0:0:0:
344,100,65801,1,2,0:0:0:0:
256,52,65896,2,0,L|152:60,1,100,0|2,0:0|0:0,0:0:0:0:
8,200,66085,1,0,0:0:0:0:
96,248,66180,2,0,L|200:240,1,100,2|0,0:0|0:0,0:0:0:0:
192,140,66370,6,0,L|88:148,1,100,6|0,0:0|0:0,0:0:0:0:
12,300,66560,2,0,L|70:386,1,100,2|0,0:0|0:0,0:0:0:0:
241,376,66750,2,0,L|286:281,1,100,2|2,0:0|0:0,0:0:0:0:
192,140,66940,1,2,0:0:0:0:
192,140,67035,1,0,0:0:0:0:
96,248,67130,6,0,L|154:334,1,100,2|0,0:0|0:0,0:0:0:0:
324,323,67320,2,0,L|369:228,1,100,2|0,0:0|0:0,0:0:0:0:
275,87,67510,2,0,L|171:95,1,100,2|2,0:0|0:0,0:0:0:0:
96,248,67700,1,2,0:0:0:0:
96,248,67795,1,0,0:0:0:0:
308,372,67889,6,0,P|360:364|400:336,1,100,2|0,0:0|0:0,0:0:0:0:
308,129,68079,2,0,P|256:137|216:165,1,100,2|0,0:0|0:0,0:0:0:0:
300,297,68269,2,0,P|346:230|264:231,1,200,2|2,0:0|0:0,0:0:0:0:
264,231,68554,1,0,0:0:0:0:
432,268,68649,6,0,L|440:160,1,100,2|0,0:0|0:0,0:0:0:0:
302,27,68839,1,2,0:0:0:0:
210,63,68934,2,0,L|218:171,1,100,0|2,0:0|0:0,0:0:0:0:
156,348,69123,1,0,0:0:0:0:
64,312,69218,2,0,L|72:204,1,100,2|0,0:0|0:0,0:0:0:0:
180,48,69408,6,0,B|250:53|250:53|302:21|302:21|370:25,1,200,6|2,0:0|0:0,0:0:0:0:
458,73,69693,1,0,0:0:0:0:
458,73,69788,2,0,L|466:177,1,100,2|0,0:0|0:0,0:0:0:0:
274,241,69978,2,0,L|282:137,1,100,2|0,0:0|0:0,0:0:0:0:
470,317,70168,6,0,B|400:312|400:312|348:344|348:344|280:340,1,200,2|2,0:0|0:0,0:0:0:0:
192,292,70453,1,0,0:0:0:0:
192,292,70548,2,0,L|184:188,1,100,2|0,0:0|0:0,0:0:0:0:
376,124,70738,2,0,L|368:228,1,100,2|0,0:0|0:0,0:0:0:0:
196,384,70927,6,0,B|144:380|144:380|96:356,1,100,2|0,0:0|0:0,0:0:0:0:
288,164,71117,1,2,0:0:0:0:
288,164,71212,1,0,0:0:0:0:
288,164,71307,2,0,B|310:211|310:211|313:264,1,100,2|0,0:0|0:0,0:0:0:0:
52,195,71497,2,0,B|81:151|81:151|126:122,1,100,2|0,0:0|0:0,0:0:0:0:
360,24,71687,5,2,0:0:0:0:
376,124,71782,1,0,0:0:0:0:
284,84,71877,1,2,0:0:0:0:
452,64,71972,1,0,0:0:0:0:
452,64,72019,1,0,0:0:0:0:
452,64,72066,2,0,B|468:112|468:112|464:164,1,100,2|0,0:0|0:0,0:0:0:0:
376,308,72256,1,2,0:0:0:0:
220,244,72351,1,0,0:0:0:0:
220,244,72398,1,0,0:0:0:0:
220,244,72445,6,0,B|204:196|204:196|208:144,1,100,6|0,0:0|0:0,0:0:0:0:
376,124,72636,2,0,B|342:161|342:161|295:184,1,100,2|0,0:0|0:0,0:0:0:0:
195,49,72826,2,0,B|244:59|244:59|287:88,1,100,2|0,0:0|0:0,0:0:0:0:
120,232,73016,1,2,0:0:0:0:
120,232,73111,1,0,0:0:0:0:
120,232,73206,6,0,L|16:240,1,100,2|0,0:0|0:0,0:0:0:0:
152,352,73396,1,2,0:0:0:0:
252,360,73491,2,0,L|356:368,1,100,0|2,0:0|0:0,0:0:0:0:
419,228,73680,1,0,0:0:0:0:
319,236,73775,2,0,L|215:244,1,100,2|0,0:0|0:0,0:0:0:0:
448,356,73965,5,6,0:0:0:0:
472,40,74155,1,0,0:0:0:0:
472,40,74250,1,0,0:0:0:0:
472,40,74345,2,0,L|456:240,1,200,2|2,0:0|0:0,0:0:0:0:
216,352,74725,6,0,L|112:364,1,100
296,284,74915,2,0,L|392:296,1,89.9999972534181
232,216,75104,2,0,L|144:224,1,80
280,148,75294,2,0,L|360:156,1,69.9999978637696
256,72,75484,5,4,0:0:0:0:
196,108,75579,1,0,0:0:0:0:
124,112,75674,1,0,0:0:0:0:
60,76,75769,1,0,0:0:0:0:
28,12,75864,5,0,0:0:0:0:
92,44,75959,1,0,0:0:0:0:
124,112,76054,1,0,0:0:0:0:
108,184,76149,1,0,0:0:0:0:
56,236,76244,6,0,P|48:296|64:352,1,119.999996337891,8|0,0:0|0:0,0:0:0:0:
240,332,76528,2,0,P|248:272|232:216,1,119.999996337891
136,272,76813,2,0,P|132:292|164:292,1,59.9999981689454
324,164,77003,6,0,P|328:144|296:144,1,59.9999981689454
340,240,77193,1,0,0:0:0:0:
396,196,77288,1,0,0:0:0:0:
404,124,77383,1,0,0:0:0:0:
360,68,77478,1,0,0:0:0:0:
288,60,77573,2,0,P|256:72|236:88,1,59.9999981689454
408,272,77763,6,0,P|440:260|460:244,2,59.9999981689454,8|0|0,0:0|0:0|0:0,0:0:0:0:
241,272,78047,2,0,P|235:305|239:331,2,59.9999981689454
324,127,78332,2,0,P|297:105|273:95,1,59.9999981689454,8|0,0:0|0:0,0:0:0:0:
120,104,78522,5,4,0:0:0:0:
112,176,78617,1,0,0:0:0:0:
144,240,78712,1,0,0:0:0:0:
208,276,78807,1,0,0:0:0:0:
280,268,78902,5,0,0:0:0:0:
216,236,78997,1,0,0:0:0:0:
144,240,79092,1,0,0:0:0:0:
88,284,79187,1,0,0:0:0:0:
60,352,79282,5,8,0:0:0:0:
132,368,79377,1,0,0:0:0:0:
200,348,79472,1,0,0:0:0:0:
272,360,79566,2,0,P|336:368|392:352,1,119.999996337891
452,320,79851,2,0,L|456:256,1,59.9999981689454
328,156,80041,6,0,L|332:220,1,59.9999981689454
456,104,80231,1,0,0:0:0:0:
456,104,80326,1,0,0:0:0:0:
456,104,80421,1,0,0:0:0:0:
416,44,80516,1,0,0:0:0:0:
348,16,80611,1,0,0:0:0:0:
276,24,80706,1,0,0:0:0:0:
216,64,80801,6,0,P|152:76|96:56,1,119.999996337891,8|0,0:0|0:0,0:0:0:0:
16,176,81085,2,0,P|58:225|69:283,1,119.999996337891,8|0,0:0|0:0,0:0:0:0:
216,264,81370,2,0,P|232:228|248:212,1,59.9999981689454,8|0,0:0|0:0,0:0:0:0:
380,112,81560,5,4,0:0:0:0:
444,144,81655,1,0,0:0:0:0:
480,208,81750,1,0,0:0:0:0:
476,280,81845,1,0,0:0:0:0:
432,336,81940,2,0,P|380:364|316:360,1,119.999996337891,8|0,0:0|0:0,0:0:0:0:
256,328,82225,1,0,0:0:0:0:
192,292,82320,6,0,P|132:289|80:317,1,119.999996337891,0|8,0:0|0:0,0:0:0:0:
16,176,82604,2,0,P|47:125|49:66,1,119.999996337891
216,108,82889,2,0,P|232:136|256:152,1,59.9999981689454
436,200,83079,6,0,L|496:196,1,59.9999981689454,4|0,0:0|0:0,0:0:0:0:
384,96,83269,1,0,0:0:0:0:
328,140,83364,1,0,0:0:0:0:
308,208,83459,1,8,0:0:0:0:
336,276,83554,1,0,0:0:0:0:
396,316,83649,2,0,L|456:312,1,59.9999981689454
308,208,83839,6,0,P|248:240|220:292,1,119.999996337891,0|8,0:0|0:0,0:0:0:0:
96,364,84123,2,0,P|98:296|67:245,1,119.999996337891
88,120,84408,2,0,P|112:136|144:140,1,59.9999981689454
328,140,84598,5,4,0:0:0:0:
328,140,84693,2,0,L|448:128,1,119.999996337891
488,68,84978,2,0,P|460:56|428:60,1,59.9999981689454,8|0,0:0|0:0,0:0:0:0:
288,204,85168,2,0,P|316:216|348:212,1,59.9999981689454
320,36,85358,5,0,0:0:0:0:
320,36,85453,1,0,0:0:0:0:
320,36,85547,2,0,P|308:64|312:96,1,59.9999981689454,8|0,0:0|0:0,0:0:0:0:
456,236,85737,2,0,P|468:208|464:176,1,59.9999981689454
216,164,85927,2,0,P|204:191|208:223,1,59.9999981689454,8|0,0:0|0:0,0:0:0:0:
352,363,86117,5,4,0:0:0:0:
376,368,86497,2,0,B|420:372|420:372|452:360|452:360|496:364,1,119.999996337891
508,272,86782,1,0,0:0:0:0:
448,196,86877,6,0,L|344:204,1,100,8|0,0:0|0:0,0:0:0:0:
452,16,87066,1,0,0:0:0:0:
452,16,87114,1,0,0:0:0:0:
452,16,87161,2,0,L|510:102,1,100,8|0,0:0|0:0,0:0:0:0:
295,103,87351,1,0,0:0:0:0:
295,103,87446,2,0,L|340:8,1,100,8|0,0:0|0:0,0:0:0:0:
424,228,87636,6,0,B|336:232|336:232|316:216|316:216|228:220,1,200,6|2,0:0|0:0,0:0:0:0:
229,219,87921,1,0,0:0:0:0:
204,316,88016,2,0,L|308:312,1,100,2|0,0:0|0:0,0:0:0:0:
449,131,88206,2,0,L|345:135,1,100,2|0,0:0|0:0,0:0:0:0:
201,123,88396,5,2,0:0:0:0:
133,199,88491,1,0,0:0:0:0:
229,219,88585,2,0,B|281:223|281:223|329:203,1,100,2|0,0:0|0:0,0:0:0:0:
105,103,88775,2,0,B|53:99|53:99|5:119,1,100,2|0,0:0|0:0,0:0:0:0:
68,308,88965,1,2,0:0:0:0:
68,308,89060,1,0,0:0:0:0:
68,308,89155,6,0,B|120:312|120:312|168:292,1,100,2|0,0:0|0:0,0:0:0:0:
325,204,89345,2,0,B|302:156|302:156|261:125,1,100,2|0,0:0|0:0,0:0:0:0:
116,35,89535,2,0,B|85:76|85:76|76:128,1,100,2|0,0:0|0:0,0:0:0:0:
68,308,89725,2,0,B|120:312|120:312|164:292|164:292|208:272|208:272|260:276,1,200,2|2,0:0|0:0,0:0:0:0:
259,275,90010,1,0,0:0:0:0:
200,124,90104,2,0,B|148:128|148:128|104:108|104:108|60:88|60:88|8:92,1,200,2|2,0:0|0:0,0:0:0:0:
8,91,90389,1,0,0:0:0:0:
133,199,90484,5,2,0:0:0:0:
133,199,90579,1,0,0:0:0:0:
280,152,90674,2,0,L|288:48,1,100,2|0,0:0|0:0,0:0:0:0:
52,168,90864,2,0,L|44:272,1,100,2|0,0:0|0:0,0:0:0:0:
361,183,91054,2,0,L|369:79,1,100,2|0,0:0|0:0,0:0:0:0:
133,199,91244,2,0,L|125:303,1,100,2|0,0:0|0:0,0:0:0:0:
384,360,91434,5,2,0:0:0:0:
480,328,91528,1,0,0:0:0:0:
404,264,91623,2,0,L|304:272,1,100,2|0,0:0|0:0,0:0:0:0:
125,298,91813,5,2,0:0:0:0:
29,266,91907,1,0,0:0:0:0:
105,202,92002,2,0,L|205:210,1,100,2|0,0:0|0:0,0:0:0:0:
489,235,92193,6,0,B|501:187|501:187|497:135,1,100,2|0,0:0|0:0,0:0:0:0:
285,71,92383,2,0,B|273:119|273:119|277:171,1,100,2|0,0:0|0:0,0:0:0:0:
469,51,92573,2,0,B|421:39|421:39|369:43,1,100,2|0,0:0|0:0,0:0:0:0:
305,255,92763,2,0,B|353:266|353:266|405:263,1,100,2|0,0:0|0:0,0:0:0:0:
370,42,92953,5,2,0:0:0:0:
370,42,93000,1,0,0:0:0:0:
370,42,93047,1,0,0:0:0:0:
200,52,93142,2,0,L|96:60,1,100
352,132,93332,5,2,0:0:0:0:
352,132,93379,1,0,0:0:0:0:
352,132,93426,1,0,0:0:0:0:
182,142,93521,2,0,L|78:150,1,100
92,260,93712,6,0,B|172:268|172:268|204:304|204:304|276:312,1,200,6|2,0:0|0:0,0:0:0:0:
274,311,93997,1,0,0:0:0:0:
124,356,94092,2,0,L|20:344,1,100,2|0,0:0|0:0,0:0:0:0:
242,215,94282,2,0,L|346:227,1,100,2|0,0:0|0:0,0:0:0:0:
400,80,94472,6,0,B|416:52|404:28|404:28|340:80|388:168,1,200,2|2,0:0|0:0,0:0:0:0:
383,159,94756,1,0,0:0:0:0:
480,108,94851,2,0,P|492:56|488:8,1,100,2|0,0:0|0:0,0:0:0:0:
296,36,95041,2,0,P|284:88|288:136,1,100,2|0,0:0|0:0,0:0:0:0:
356,328,95230,5,2,0:0:0:0:
388,344,95278,1,0,0:0:0:0:
424,348,95325,1,0,0:0:0:0:
456,336,95373,1,0,0:0:0:0:
484,316,95420,2,0,L|492:216,1,100,2|0,0:0|0:0,0:0:0:0:
276,268,95611,2,0,L|268:368,1,100,2|0,0:0|0:0,0:0:0:0:
408,264,95801,2,0,L|416:164,1,100,2|0,0:0|0:0,0:0:0:0:
296,36,95991,5,2,0:0:0:0:
296,36,96085,1,0,0:0:0:0:
296,36,96180,2,0,L|196:44,1,100,2|0,0:0|0:0,0:0:0:0:
20,104,96370,2,0,L|120:112,1,100,2|0,0:0|0:0,0:0:0:0:
220,184,96560,5,0,0:0:0:0:
220,184,96655,1,0,0:0:0:0:
100,248,96750,2,0,B|48:256|48:256|4:240,1,100,6|0,0:0|0:0,0:0:0:0:
220,184,96940,2,0,B|272:176|272:176|316:192,1,100,2|0,0:0|0:0,0:0:0:0:
128,156,97130,2,0,B|120:104|120:104|136:60,1,100,2|0,0:0|0:0,0:0:0:0:
192,276,97320,2,0,B|200:328|200:328|184:372,1,100,2|0,0:0|0:0,0:0:0:0:
36,168,97510,5,2,0:0:0:0:
36,168,97604,1,0,0:0:0:0:
36,168,97699,2,0,L|28:68,1,100,2|0,0:0|0:0,0:0:0:0:
248,0,97889,1,2,0:0:0:0:
248,0,97983,1,0,0:0:0:0:
248,0,98078,2,0,L|240:100,1,100,2|0,0:0|0:0,0:0:0:0:
349,362,98269,5,0,0:0:0:0:
509,269,98459,1,8,0:0:0:0:
417,109,98649,1,0,0:0:0:0:
257,202,98839,1,0,0:0:0:0:
349,362,99028,5,8,0:0:0:0:
448,348,99123,1,0,0:0:0:0:
509,269,99217,1,0,0:0:0:0:
496,170,99312,1,0,0:0:0:0:
417,109,99407,1,0,0:0:0:0:
317,122,99502,1,0,0:0:0:0:
257,202,99597,1,8,0:0:0:0:
270,301,99692,1,0,0:0:0:0:
349,362,99788,5,0,0:0:0:0:
349,362,100168,1,0,0:0:0:0:
349,362,100547,1,0,0:0:0:0:
349,362,100927,1,0,0:0:0:0:
509,269,101307,5,0,0:0:0:0:
509,269,101687,1,0,0:0:0:0:
348,361,102066,6,0,P|344:324|351:283,1,80,0|2,0:0|2:0,0:0:0:0:
511,190,102446,2,0,P|515:227|508:268,1,80,0|2,0:0|2:0,0:0:0:0:
268,312,102825,5,0,0:0:0:0:
268,312,103205,1,0,0:0:0:0:
268,312,103584,1,0,0:0:0:0:
268,312,103964,1,0,0:0:0:0:
428,219,104344,5,0,0:0:0:0:
428,219,104724,1,0,0:0:0:0:
267,311,105103,6,0,P|262:273|269:232,1,80,0|2,0:0|2:0,0:0:0:0:
430,140,105483,2,0,P|434:177|427:218,1,80,0|2,0:0|2:0,0:0:0:0:
186,261,105863,5,0,0:0:0:0:
186,261,106243,1,0,0:0:0:0:
186,261,106622,1,0,0:0:0:0:
186,261,107002,1,0,0:0:0:0:
346,168,107382,5,0,0:0:0:0:
346,168,107762,1,0,0:0:0:0:
346,168,108142,1,0,0:0:0:0:
346,168,108522,1,0,0:0:0:0:
144,104,108901,5,0,0:0:0:0:
144,104,109281,1,0,0:0:0:0:
144,104,109661,1,0,0:0:0:0:
144,104,110041,1,0,0:0:0:0:
388,11,110420,5,0,0:0:0:0:
388,11,110800,1,0,0:0:0:0:
388,11,110990,1,0,0:0:0:0:
448,244,111180,5,8,0:0:0:0:
300,180,111274,1,0,0:0:0:0:
300,180,111322,1,0,0:0:0:0:
300,180,111369,1,0,0:0:0:0:
406,138,111464,1,8,0:0:0:0:
342,286,111559,6,2,B|328:320|320:356|320:356|304:336|300:296|300:296|284:320|280:348|280:348|264:328|260:300|260:300|244:328|212:332,1,300
321,305,136243,5,4,0:0:0:0:
222,318,136338,1,0,0:0:0:0:
142,257,136433,1,0,0:0:0:0:
129,158,136528,1,0,0:0:0:0:
190,78,136623,1,0,0:0:0:0:
289,65,136717,1,0,0:0:0:0:
369,126,136812,1,0,0:0:0:0:
382,225,136907,1,0,0:0:0:0:
316,322,137002,5,8,0:0:0:0:
206,327,137097,1,0,0:0:0:0:
125,252,137192,1,0,0:0:0:0:
120,142,137287,1,0,0:0:0:0:
195,61,137382,1,8,0:0:0:0:
305,56,137477,1,0,0:0:0:0:
386,131,137572,1,0,0:0:0:0:
391,241,137667,1,0,0:0:0:0:
309,339,137762,5,4,0:0:0:0:
189,334,137857,1,0,0:0:0:0:
108,245,137952,1,0,0:0:0:0:
113,125,138047,1,0,0:0:0:0:
202,44,138142,1,0,0:0:0:0:
322,49,138236,1,0,0:0:0:0:
403,138,138331,1,0,0:0:0:0:
398,258,138426,1,0,0:0:0:0:
299,356,138521,5,8,0:0:0:0:
171,339,138616,1,0,0:0:0:0:
91,235,138711,1,0,0:0:0:0:
108,107,138806,1,0,0:0:0:0:
212,27,138901,1,8,0:0:0:0:
340,44,138996,1,0,0:0:0:0:
420,148,139091,1,0,0:0:0:0:
403,276,139186,1,0,0:0:0:0:
220,165,139281,5,12,0:0:0:0:
367,181,139376,1,0,0:0:0:0:
229,228,139471,1,0,0:0:0:0:
245,81,139566,1,0,0:0:0:0:
292,219,139661,5,8,0:0:0:0:
145,202,139756,1,0,0:0:0:0:
283,156,139851,1,0,0:0:0:0:
267,303,139946,1,0,0:0:0:0:
196,153,140040,5,8,0:0:0:0:
394,163,140135,1,0,0:0:0:0:
217,251,140229,1,0,0:0:0:0:
227,53,140324,1,0,0:0:0:0:
315,230,140419,5,8,0:0:0:0:
117,220,140514,1,0,0:0:0:0:
294,132,140609,1,0,0:0:0:0:
284,330,140704,1,0,0:0:0:0:
170,145,140800,5,12,0:0:0:0:
417,142,140894,1,0,0:0:0:0:
209,276,140989,1,0,0:0:0:0:
206,29,141084,1,0,0:0:0:0:
340,237,141179,5,8,0:0:0:0:
93,240,141274,1,0,0:3:0:0:
301,106,141369,1,0,0:0:0:0:
304,353,141464,1,0,0:0:0:0:
72,268,141559,6,0,B|60:220|68:168|68:168|48:188|36:204|36:204|28:124|72:52,1,300,8|0,0:0|0:0,0:0:0:0:
160,20,141939,1,8,0:0:0:0:
48,168,154472,5,0,0:0:0:0:
25,124,154519,1,0,0:0:0:0:
28,74,154566,1,0,0:0:0:0:
56,34,154614,1,0,0:0:0:0:
101,14,154661,1,0,0:0:0:0:
150,20,154709,1,0,0:0:0:0:
189,51,154756,1,0,0:0:0:0:
206,98,154804,1,0,0:0:0:0:
196,146,154851,1,0,0:0:0:0:
163,182,154899,1,0,0:0:0:0:
129,218,154946,1,0,0:0:0:0:
120,266,154993,1,0,0:0:0:0:
137,313,155041,1,0,0:0:0:0:
175,344,155088,1,0,0:0:0:0:
224,350,155136,1,0,0:0:0:0:
269,330,155183,1,0,0:0:0:0:
297,289,155231,5,0,0:0:0:0:
301,240,155278,1,0,0:0:0:0:
328,196,155326,1,0,0:0:0:0:
373,176,155373,1,0,0:0:0:0:
422,182,155421,1,0,0:0:0:0:
460,213,155468,1,0,0:0:0:0:
477,260,155516,1,0,0:0:0:0:
468,308,155563,1,0,0:0:0:0:
434,344,155611,2,0,L|384:352,3,50
297,289,155801,2,0,L|247:281,3,50
151,346,155991,5,0,0:0:0:0:
102,355,156038,1,0,0:0:0:0:
54,341,156085,1,0,0:0:0:0:
18,307,156133,1,0,0:0:0:0:
2,261,156180,1,0,0:0:0:0:
8,211,156228,1,0,0:0:0:0:
36,171,156275,1,0,0:0:0:0:
80,147,156323,1,0,0:0:0:0:
129,146,156370,1,0,0:0:0:0:
176,168,156418,1,0,0:0:0:0:
212,204,156465,1,0,0:0:0:0:
258,225,156513,1,0,0:0:0:0:
307,224,156560,1,0,0:0:0:0:
351,200,156608,1,0,0:0:0:0:
379,160,156655,1,0,0:0:0:0:
385,110,156703,1,0,0:0:0:0:
369,64,156750,5,0,0:0:0:0:
333,30,156798,1,0,0:0:0:0:
285,16,156845,1,0,0:0:0:0:
237,26,156892,1,0,0:0:0:0:
196,56,156940,1,0,0:0:0:0:
176,100,156987,1,0,0:0:0:0:
176,152,157035,1,0,0:0:0:0:
196,196,157082,1,0,0:0:0:0:
204,248,157130,2,0,L|200:304,3,50
105,305,157320,2,0,L|101:361,3,50
2,261,157510,5,4,0:0:0:0:
16,204,157557,1,0,0:0:0:0:
56,160,157604,1,0,0:0:0:0:
116,148,157652,1,0,0:0:0:0:
176,168,157699,1,0,0:0:0:0:
212,216,157747,1,0,0:0:0:0:
224,276,157795,1,0,0:0:0:0:
260,324,157843,1,0,0:0:0:0:
320,344,157889,2,0,L|376:348,3,50
432,268,158079,2,0,L|488:272,3,50
486,154,158269,5,0,0:0:0:0:
472,96,158316,1,0,0:0:0:0:
432,52,158363,1,0,0:0:0:0:
372,40,158411,1,0,0:0:0:0:
312,60,158458,1,0,0:0:0:0:
276,108,158506,1,0,0:0:0:0:
264,168,158554,1,0,0:0:0:0:
228,216,158602,1,0,0:0:0:0:
168,236,158648,2,0,L|112:240,3,50
56,160,158838,2,0,L|0:164,3,50
32,64,159028,5,4,0:0:0:0:
88,36,159076,1,0,0:0:0:0:
148,36,159123,1,0,0:0:0:0:
204,60,159171,1,0,0:0:0:0:
247,107,159218,1,0,0:0:0:0:
288,152,159266,1,0,0:0:0:0:
344,176,159313,1,0,0:0:0:0:
404,176,159361,1,0,0:0:0:0:
462,150,159408,5,0,0:0:0:0:
480,92,159456,1,0,0:0:0:0:
452,40,159503,1,0,0:0:0:0:
396,20,159551,1,0,0:0:0:0:
340,36,159598,1,0,0:0:0:0:
304,84,159646,1,0,0:0:0:0:
308,144,159693,1,0,0:0:0:0:
348,192,159741,1,0,0:0:0:0:
404,212,159788,6,0,L|460:216,1,50,8|0,0:0|0:0,0:0:0:0:
408,344,159883,1,0,0:0:0:0:
352,368,159930,1,0,0:0:0:0:
292,364,159978,1,0,0:0:0:0:
240,336,160025,1,0,0:0:0:0:
200,288,160073,2,0,L|196:232,1,50,8|0,0:0|0:0,0:0:0:0:
292,168,160168,1,0,0:0:0:0:
348,192,160215,1,0,0:0:0:0:
408,188,160263,1,0,0:0:0:0:
460,160,160310,1,0,0:0:0:0:
500,112,160358,2,0,L|504:56,1,50,8|0,0:0|0:0,0:0:0:0:
395,19,160453,2,0,L|399:69,1,50
