osu file format v13

[General]
AudioFilename: Sirocco - Brain on Music.mp3
AudioLeadIn: 0
PreviewTime: -1
Countdown: 1
SampleSet: Normal
StackLeniency: 0.7
Mode: 0
LetterboxInBreaks: 1
WidescreenStoryboard: 1

[Editor]
Bookmarks: 1482,16251,45558,75328,104635,148943,163712
DistanceSpacing: 1.5
BeatDivisor: 4
GridSize: 4
TimelineZoom: 1.2

[Metadata]
Title:Brain on Music
TitleUnicode:Brain on Music
Artist:Sirocco
ArtistUnicode:Sirocco
Creator:Dolot
Version:AR 10
Source:Audition
Tags:sirocco brain on music audition
BeatmapID:497873
BeatmapSetID:211744

[Difficulty]
HPDrainRate:5
CircleSize:5
OverallDifficulty:8
ApproachRate:10
SliderMultiplier:2
SliderTickRate:1

[Events]
//Background and Video events
0,0,"bgggg.jpg",0,0
//Break Periods
2,134405,148493
//Storyboard Layer 0 (Background)
//Storyboard Layer 1 (Fail)
//Storyboard Layer 2 (Pass)
//Storyboard Layer 3 (Foreground)
//Storyboard Sound Samples
//Background Colour Transformations
3,100,163,162,255

[TimingPoints]
1482,461.538461538462,4,1,0,70,1,0
1486,-100,4,1,0,70,0,0

[Colours]
Combo1 : 128,255,255
Combo2 : 128,255,0
Combo3 : 255,36,36

[HitObjects]
48,48,1482,5,0,0:0:0:0:
97,48,1712,1,0,0:0:0:0:
147,48,1943,1,0,0:0:0:0:
197,48,2174,1,0,0:0:0:0:
247,48,2405,1,0,0:0:0:0:
247,48,2635,1,0,0:0:0:0:
297,48,2866,1,0,0:0:0:0:
297,48,2982,1,0,0:0:0:0:
297,48,3097,1,0,0:0:0:0:
297,48,3212,1,0,0:0:0:0:
297,48,3328,5,0,0:0:0:0:
346,48,3558,1,0,0:0:0:0:
396,48,3789,1,0,0:0:0:0:
446,48,4020,1,0,0:0:0:0:
446,98,4251,1,0,0:0:0:0:
446,148,4482,1,0,0:0:0:0:
446,197,4712,1,0,0:0:0:0:
446,197,4828,1,0,0:0:0:0:
446,197,4943,1,0,0:0:0:0:
446,197,5058,1,0,0:0:0:0:
446,197,5174,5,0,0:0:0:0:
446,247,5405,1,0,0:0:0:0:
446,247,5520,1,0,0:0:0:0:
446,247,5635,1,0,0:0:0:0:
446,297,5866,1,0,0:0:0:0:
446,297,5982,1,0,0:0:0:0:
446,297,6097,1,0,0:0:0:0:
395,297,6328,1,0,0:0:0:0:
395,297,6443,1,0,0:0:0:0:
395,297,6558,1,0,0:0:0:0:
395,297,6674,1,0,0:0:0:0:
395,297,6789,1,0,0:0:0:0:
395,297,6905,1,0,0:0:0:0:
395,297,7020,5,0,0:0:0:0:
344,297,7251,1,0,0:0:0:0:
344,297,7366,1,0,0:0:0:0:
344,297,7482,1,0,0:0:0:0:
294,297,7712,1,0,0:0:0:0:
294,297,7828,1,0,0:0:0:0:
294,297,7943,1,0,0:0:0:0:
243,297,8174,1,0,0:0:0:0:
243,297,8289,1,0,0:0:0:0:
243,297,8405,1,0,0:0:0:0:
243,297,8520,1,0,0:0:0:0:
243,297,8635,1,0,0:0:0:0:
243,297,8751,1,0,0:0:0:0:
243,297,8866,5,0,0:0:0:0:
192,297,9097,1,0,0:0:0:0:
192,297,9212,1,0,0:0:0:0:
192,297,9328,1,0,0:0:0:0:
142,297,9558,1,0,0:0:0:0:
142,297,9789,1,0,0:0:0:0:
91,297,10020,1,0,0:0:0:0:
91,297,10135,1,0,0:0:0:0:
91,297,10251,1,0,0:0:0:0:
91,246,10482,1,0,0:0:0:0:
91,246,10712,5,0,0:0:0:0:
91,195,10943,1,0,0:0:0:0:
91,195,11058,1,0,0:0:0:0:
91,195,11174,1,0,0:0:0:0:
92,144,11405,1,0,0:0:0:0:
92,144,11520,1,0,0:0:0:0:
92,144,11635,1,0,0:0:0:0:
92,93,11866,1,0,0:0:0:0:
92,93,11982,1,0,0:0:0:0:
92,93,12097,1,0,0:0:0:0:
92,42,12328,1,0,0:0:0:0:
141,42,12558,5,0,0:0:0:0:
191,42,12789,1,0,0:0:0:0:
241,42,13020,1,0,0:0:0:0:
291,42,13251,1,0,0:0:0:0:
315,42,13366,1,0,0:0:0:0:
340,42,13482,1,0,0:0:0:0:
389,42,13712,1,0,0:0:0:0:
414,42,13828,1,0,0:0:0:0:
438,42,13943,1,0,0:0:0:0:
438,92,14174,1,0,0:0:0:0:
438,142,14405,5,0,0:0:0:0:
438,191,14635,1,0,0:0:0:0:
438,241,14866,1,0,0:0:0:0:
438,291,15097,1,0,0:0:0:0:
413,291,15212,1,0,0:0:0:0:
387,291,15328,1,0,0:0:0:0:
337,291,15558,1,0,0:0:0:0:
311,291,15674,1,0,0:0:0:0:
286,291,15789,1,0,0:0:0:0:
235,291,16020,1,0,0:0:0:0:
184,291,16251,5,0,0:0:0:0:
133,291,16482,1,0,0:0:0:0:
133,340,16712,1,0,0:0:0:0:
82,340,16943,1,0,0:0:0:0:
31,340,17174,1,0,0:0:0:0:
31,289,17405,1,0,0:0:0:0:
31,239,17635,1,0,0:0:0:0:
31,239,17751,1,0,0:0:0:0:
31,188,17982,1,0,0:0:0:0:
31,188,18097,5,0,0:0:0:0:
31,137,18328,1,0,0:0:0:0:
31,137,18443,1,0,0:0:0:0:
31,137,18558,1,0,0:0:0:0:
31,86,18789,1,0,0:0:0:0:
81,86,19020,1,0,0:0:0:0:
81,86,19135,1,0,0:0:0:0:
81,86,19251,1,0,0:0:0:0:
131,86,19482,1,0,0:0:0:0:
180,86,19712,1,0,0:0:0:0:
205,86,19828,1,0,0:0:0:0:
229,86,19943,5,0,0:0:0:0:
279,86,20174,1,0,0:0:0:0:
329,86,20405,1,0,0:0:0:0:
329,86,20520,1,0,0:0:0:0:
329,86,20635,1,0,0:0:0:0:
379,86,20866,1,0,0:0:0:0:
379,86,21097,1,0,0:0:0:0:
429,86,21328,1,0,0:0:0:0:
429,86,21443,1,0,0:0:0:0:
429,86,21558,1,0,0:0:0:0:
429,136,21789,5,0,0:0:0:0:
429,161,21905,1,0,0:0:0:0:
429,185,22020,1,0,0:0:0:0:
429,235,22251,1,0,0:0:0:0:
429,285,22482,1,0,0:0:0:0:
404,285,22597,1,0,0:0:0:0:
379,285,22712,1,0,0:0:0:0:
353,285,22828,1,0,0:0:0:0:
328,285,22943,1,0,0:0:0:0:
303,285,23058,1,0,0:0:0:0:
277,285,23174,1,0,0:0:0:0:
252,285,23289,1,0,0:0:0:0:
226,285,23405,1,0,0:0:0:0:
201,285,23520,1,0,0:0:0:0:
176,285,23635,5,0,0:0:0:0:
124,284,23866,1,0,0:0:0:0:
72,284,24097,1,0,0:0:0:0:
72,232,24328,1,0,0:0:0:0:
72,182,24558,1,0,0:0:0:0:
72,182,24674,1,0,0:0:0:0:
72,182,24789,1,0,0:0:0:0:
72,131,25020,1,0,0:0:0:0:
72,80,25251,1,0,0:0:0:0:
72,80,25482,5,0,0:0:0:0:
72,80,25597,1,0,0:0:0:0:
72,80,25712,1,0,0:0:0:0:
122,80,25943,1,0,0:0:0:0:
172,80,26174,1,0,0:0:0:0:
172,80,26289,1,0,0:0:0:0:
172,80,26405,1,0,0:0:0:0:
221,80,26635,1,0,0:0:0:0:
221,80,26866,1,0,0:0:0:0:
271,80,27097,1,0,0:0:0:0:
295,80,27212,1,0,0:0:0:0:
320,80,27328,5,0,0:0:0:0:
369,80,27558,1,0,0:0:0:0:
419,80,27789,1,0,0:0:0:0:
419,80,27905,1,0,0:0:0:0:
419,129,28135,1,0,0:0:0:0:
419,129,28251,1,0,0:0:0:0:
419,179,28482,1,0,0:0:0:0:
419,228,28712,1,0,0:0:0:0:
419,228,28943,1,0,0:0:0:0:
419,278,29174,5,0,0:0:0:0:
419,278,29405,1,0,0:0:0:0:
419,327,29635,1,0,0:0:0:0:
368,327,29866,1,0,0:0:0:0:
350,309,29982,1,0,0:0:0:0:
332,291,30097,1,0,0:0:0:0:
314,273,30212,1,0,0:0:0:0:
296,255,30328,1,0,0:0:0:0:
278,237,30443,1,0,0:0:0:0:
260,219,30558,1,0,0:0:0:0:
242,201,30674,1,0,0:0:0:0:
224,183,30789,1,0,0:0:0:0:
206,165,30905,1,0,0:0:0:0:
188,147,31020,5,0,0:0:0:0:
137,147,31251,1,0,0:0:0:0:
137,147,31366,1,0,0:0:0:0:
137,147,31482,1,0,0:0:0:0:
137,147,31712,1,0,0:0:0:0:
86,147,31943,1,0,0:0:0:0:
86,122,32058,1,0,0:0:0:0:
86,96,32174,1,0,0:0:0:0:
136,96,32405,1,0,0:0:0:0:
136,96,32635,1,0,0:0:0:0:
136,45,32866,5,0,0:0:0:0:
136,45,32982,1,0,0:0:0:0:
136,45,33097,1,0,0:0:0:0:
186,45,33328,1,0,0:0:0:0:
235,45,33558,1,0,0:0:0:0:
260,45,33674,1,0,0:0:0:0:
284,45,33789,1,0,0:0:0:0:
319,80,34020,1,0,0:0:0:0:
336,97,34135,1,0,0:0:0:0:
353,114,34251,1,0,0:0:0:0:
370,131,34366,1,0,0:0:0:0:
387,148,34482,1,0,0:0:0:0:
404,165,34597,1,0,0:0:0:0:
421,182,34712,5,0,0:0:0:0:
421,232,34943,1,0,0:0:0:0:
421,256,35058,1,0,0:0:0:0:
421,281,35174,1,0,0:0:0:0:
385,316,35405,1,0,0:0:0:0:
385,316,35635,1,0,0:0:0:0:
349,280,35866,1,0,0:0:0:0:
349,254,35982,1,0,0:0:0:0:
349,229,36097,1,0,0:0:0:0:
298,229,36328,1,0,0:0:0:0:
298,253,36443,1,0,0:0:0:0:
298,277,36558,5,0,0:0:0:0:
262,312,36789,1,0,0:0:0:0:
262,312,37020,1,0,0:0:0:0:
226,276,37251,1,0,0:0:0:0:
208,293,37366,1,0,0:0:0:0:
189,310,37482,1,0,0:0:0:0:
139,310,37712,1,0,0:0:0:0:
156,292,37828,1,0,0:0:0:0:
173,274,37943,1,0,0:0:0:0:
190,256,38058,1,0,0:0:0:0:
207,238,38174,1,0,0:0:0:0:
224,220,38289,1,0,0:0:0:0:
241,202,38405,5,0,0:0:0:0:
256,192,38520,12,0,42097,0:0:0:0:
256,72,42789,6,0,L|256:0,10,50,0|0|0|0|0|0|0|0|0|0|0,0:0|0:0|0:0|0:0|0:0|0:0|0:0|0:0|0:0|0:0|0:0,0:0:0:0:
256,192,45097,5,0,0:0:0:0:
256,192,45328,1,0,0:0:0:0:
32,356,45558,5,0,0:0:0:0:
57,356,45674,1,0,0:0:0:0:
81,356,45789,1,0,0:0:0:0:
106,356,45905,1,0,0:0:0:0:
130,356,46020,1,0,0:0:0:0:
154,356,46135,1,0,0:0:0:0:
179,356,46251,1,0,0:0:0:0:
203,356,46366,1,0,0:0:0:0:
228,356,46482,1,0,0:0:0:0:
252,356,46597,1,0,0:0:0:0:
276,356,46712,1,0,0:0:0:0:
301,356,46828,1,0,0:0:0:0:
325,356,46943,1,0,0:0:0:0:
349,356,47058,1,0,0:0:0:0:
374,356,47174,1,0,0:0:0:0:
398,356,47289,1,0,0:0:0:0:
423,356,47405,1,0,0:0:0:0:
447,356,47520,1,0,0:0:0:0:
471,356,47635,5,0,0:0:0:0:
471,330,47751,1,0,0:0:0:0:
471,305,47866,1,0,0:0:0:0:
471,279,47982,1,0,0:0:0:0:
471,254,48097,1,0,0:0:0:0:
471,229,48212,1,0,0:0:0:0:
471,203,48328,1,0,0:0:0:0:
471,178,48443,1,0,0:0:0:0:
471,153,48558,1,0,0:0:0:0:
471,127,48674,1,0,0:0:0:0:
471,102,48789,1,0,0:0:0:0:
471,76,48905,1,0,0:0:0:0:
471,51,49020,1,0,0:0:0:0:
471,26,49135,1,0,0:0:0:0:
445,26,49251,1,0,0:0:0:0:
420,26,49366,1,0,0:0:0:0:
394,26,49482,5,0,0:0:0:0:
344,26,49712,1,0,0:0:0:0:
318,26,49828,1,0,0:0:0:0:
293,26,49943,1,0,0:0:0:0:
242,26,50174,1,0,0:0:0:0:
217,26,50289,1,0,0:0:0:0:
191,26,50405,1,0,0:0:0:0:
166,26,50520,1,0,0:0:0:0:
141,26,50635,1,0,0:0:0:0:
115,26,50751,1,0,0:0:0:0:
90,26,50866,1,0,0:0:0:0:
39,26,51097,1,0,0:0:0:0:
39,50,51212,1,0,0:0:0:0:
39,75,51328,5,0,0:0:0:0:
39,99,51443,1,0,0:0:0:0:
39,123,51558,1,0,0:0:0:0:
39,148,51674,1,0,0:0:0:0:
39,172,51789,1,0,0:0:0:0:
39,197,51905,1,0,0:0:0:0:
39,221,52020,1,0,0:0:0:0:
39,245,52135,1,0,0:0:0:0:
39,270,52251,1,0,0:0:0:0:
39,320,52482,1,0,0:0:0:0:
88,320,52712,1,0,0:0:0:0:
113,320,52828,1,0,0:0:0:0:
137,320,52943,1,0,0:0:0:0:
161,320,53058,1,0,0:0:0:0:
186,320,53174,5,0,0:0:0:0:
210,320,53289,1,0,0:0:0:0:
235,320,53405,1,0,0:0:0:0:
259,320,53520,1,0,0:0:0:0:
283,320,53635,1,0,0:0:0:0:
308,320,53751,1,0,0:0:0:0:
332,320,53866,1,0,0:0:0:0:
357,320,53982,1,0,0:0:0:0:
381,320,54097,1,0,0:0:0:0:
405,320,54212,1,0,0:0:0:0:
430,320,54328,1,0,0:0:0:0:
454,320,54443,1,0,0:0:0:0:
478,320,54558,1,0,0:0:0:0:
478,294,54674,1,0,0:0:0:0:
478,269,54789,1,0,0:0:0:0:
478,243,54905,1,0,0:0:0:0:
478,218,55020,5,0,0:0:0:0:
478,193,55135,1,0,0:0:0:0:
478,167,55251,1,0,0:0:0:0:
478,142,55366,1,0,0:0:0:0:
478,116,55482,1,0,0:0:0:0:
478,91,55597,1,0,0:0:0:0:
478,66,55712,1,0,0:0:0:0:
478,40,55828,1,0,0:0:0:0:
453,40,55943,1,0,0:0:0:0:
428,40,56058,1,0,0:0:0:0:
402,40,56174,1,0,0:0:0:0:
377,40,56289,1,0,0:0:0:0:
351,40,56405,1,0,0:0:0:0:
326,40,56520,1,0,0:0:0:0:
301,40,56635,1,0,0:0:0:0:
275,40,56751,1,0,0:0:0:0:
250,40,56866,5,0,0:0:0:0:
199,40,57097,1,0,0:0:0:0:
174,40,57212,1,0,0:0:0:0:
148,40,57328,1,0,0:0:0:0:
98,40,57558,1,0,0:0:0:0:
72,40,57674,1,0,0:0:0:0:
47,40,57789,1,0,0:0:0:0:
47,65,57905,1,0,0:0:0:0:
47,89,58020,1,0,0:0:0:0:
47,113,58135,1,0,0:0:0:0:
47,138,58251,1,0,0:0:0:0:
47,188,58482,1,0,0:0:0:0:
47,212,58597,1,0,0:0:0:0:
47,236,58712,5,0,0:0:0:0:
47,286,58943,1,0,0:0:0:0:
47,310,59058,1,0,0:0:0:0:
47,335,59174,1,0,0:0:0:0:
71,335,59289,1,0,0:0:0:0:
96,335,59405,1,0,0:0:0:0:
120,335,59520,1,0,0:0:0:0:
144,335,59635,1,0,0:0:0:0:
194,335,59866,1,0,0:0:0:0:
243,335,60097,1,0,0:0:0:0:
293,335,60328,5,0,0:0:0:0:
342,335,60443,1,0,0:0:0:0:
391,335,60558,5,0,0:0:0:0:
461,264,60789,1,0,0:0:0:0:
461,213,60905,1,0,0:0:0:0:
461,163,61020,1,0,0:0:0:0:
461,62,61251,1,0,0:0:0:0:
425,26,61366,1,0,0:0:0:0:
374,26,61482,1,0,0:0:0:0:
274,26,61712,1,0,0:0:0:0:
223,26,61828,1,0,0:0:0:0:
173,26,61943,1,0,0:0:0:0:
72,26,62174,1,0,0:0:0:0:
36,61,62289,1,0,0:0:0:0:
36,111,62405,5,0,0:0:0:0:
36,210,62635,1,0,0:0:0:0:
36,260,62751,1,0,0:0:0:0:
36,309,62866,1,0,0:0:0:0:
136,309,63097,1,0,0:0:0:0:
171,344,63212,1,0,0:0:0:0:
221,344,63328,1,0,0:0:0:0:
320,344,63558,1,0,0:0:0:0:
370,344,63674,1,0,0:0:0:0:
419,344,63789,1,0,0:0:0:0:
419,243,64020,1,0,0:0:0:0:
419,193,64135,1,0,0:0:0:0:
419,142,64251,5,0,0:0:0:0:
256,192,64366,12,0,65635,0:0:0:0:
40,36,66097,5,0,0:0:0:0:
90,36,66328,1,0,0:0:0:0:
139,36,66558,1,0,0:0:0:0:
189,36,66789,1,0,0:0:0:0:
239,36,67020,1,0,0:0:0:0:
289,36,67251,1,0,0:0:0:0:
339,36,67482,1,0,0:0:0:0:
184,136,67712,1,0,0:0:0:0:
184,136,67828,1,0,0:0:0:0:
184,136,67943,5,0,0:0:0:0:
184,136,68058,1,0,0:0:0:0:
184,136,68174,1,0,0:0:0:0:
184,136,68289,1,0,0:0:0:0:
184,136,68405,1,0,0:0:0:0:
184,136,68520,1,0,0:0:0:0:
184,136,68635,1,0,0:0:0:0:
184,136,68751,1,0,0:0:0:0:
184,136,68866,1,0,0:0:0:0:
184,136,68982,1,0,0:0:0:0:
184,136,69097,1,0,0:0:0:0:
184,136,69212,1,0,0:0:0:0:
184,136,69328,1,0,0:0:0:0:
184,136,69443,1,0,0:0:0:0:
184,136,69558,1,0,0:0:0:0:
184,136,69674,1,0,0:0:0:0:
184,136,69789,5,0,0:0:0:0:
184,136,69905,1,0,0:0:0:0:
184,136,70020,1,0,0:0:0:0:
184,136,70135,1,0,0:0:0:0:
184,136,70251,1,0,0:0:0:0:
184,136,70366,1,0,0:0:0:0:
184,136,70482,1,0,0:0:0:0:
184,136,70597,1,0,0:0:0:0:
184,136,70712,1,0,0:0:0:0:
184,136,70828,1,0,0:0:0:0:
184,136,70943,1,0,0:0:0:0:
184,136,71058,1,0,0:0:0:0:
184,136,71174,1,0,0:0:0:0:
184,136,71289,1,0,0:0:0:0:
184,136,71405,1,0,0:0:0:0:
184,136,71520,1,0,0:0:0:0:
184,136,71635,5,0,0:0:0:0:
256,192,71751,12,0,73251,0:0:0:0:
256,192,73482,5,0,0:0:0:0:
256,192,73597,12,0,74866,0:0:0:0:
328,292,75328,5,0,0:0:0:0:
428,292,75559,1,0,0:0:0:0:
428,192,75789,1,0,0:0:0:0:
428,91,76020,1,0,0:0:0:0:
327,91,76251,1,0,0:0:0:0:
226,91,76482,1,0,0:0:0:0:
126,91,76712,1,0,0:0:0:0:
126,91,76828,1,0,0:0:0:0:
25,91,77059,1,0,0:0:0:0:
25,91,77174,5,0,0:0:0:0:
25,191,77405,1,0,0:0:0:0:
25,240,77520,1,0,0:0:0:0:
25,289,77635,1,0,0:0:0:0:
95,359,77866,1,0,0:0:0:0:
195,359,78097,1,0,0:0:0:0:
195,359,78212,1,0,0:0:0:0:
195,359,78328,1,0,0:0:0:0:
295,359,78559,1,0,0:0:0:0:
394,359,78789,1,0,0:0:0:0:
429,323,78905,1,0,0:0:0:0:
464,287,79020,5,0,0:0:0:0:
464,186,79251,1,0,0:0:0:0:
464,85,79482,1,0,0:0:0:0:
464,85,79597,1,0,0:0:0:0:
464,85,79712,1,0,0:0:0:0:
363,85,79943,1,0,0:0:0:0:
363,85,80174,1,0,0:0:0:0:
262,85,80405,1,0,0:0:0:0:
262,85,80520,1,0,0:0:0:0:
262,85,80635,1,0,0:0:0:0:
161,85,80866,5,0,0:0:0:0:
110,85,80982,1,0,0:0:0:0:
60,85,81097,1,0,0:0:0:0:
60,185,81328,1,0,0:0:0:0:
60,285,81559,1,0,0:0:0:0:
109,285,81674,1,0,0:0:0:0:
158,285,81789,1,0,0:0:0:0:
208,285,81905,1,0,0:0:0:0:
257,285,82020,1,0,0:0:0:0:
306,285,82135,1,0,0:0:0:0:
356,285,82251,1,0,0:0:0:0:
405,285,82366,1,0,0:0:0:0:
455,285,82482,1,0,0:0:0:0:
455,235,82597,1,0,0:0:0:0:
455,185,82712,5,0,0:0:0:0:
455,84,82943,1,0,0:0:0:0:
354,84,83174,1,0,0:0:0:0:
253,84,83405,1,0,0:0:0:0:
153,84,83635,1,0,0:0:0:0:
153,84,83751,1,0,0:0:0:0:
153,84,83866,1,0,0:0:0:0:
52,84,84097,1,0,0:0:0:0:
52,184,84328,1,0,0:0:0:0:
52,284,84559,5,0,0:0:0:0:
87,319,84674,1,0,0:0:0:0:
136,319,84789,1,0,0:0:0:0:
236,319,85020,1,0,0:0:0:0:
336,319,85251,1,0,0:0:0:0:
336,319,85366,1,0,0:0:0:0:
336,319,85482,1,0,0:0:0:0:
435,319,85712,1,0,0:0:0:0:
435,218,85943,1,0,0:0:0:0:
435,117,86174,1,0,0:0:0:0:
435,67,86289,1,0,0:0:0:0:
399,31,86405,5,0,0:0:0:0:
299,31,86635,1,0,0:0:0:0:
198,31,86866,1,0,0:0:0:0:
198,31,86982,1,0,0:0:0:0:
98,31,87212,1,0,0:0:0:0:
98,31,87328,1,0,0:0:0:0:
27,101,87559,1,0,0:0:0:0:
27,200,87789,1,0,0:0:0:0:
27,300,88020,1,0,0:0:0:0:
127,300,88251,5,0,0:0:0:0:
227,300,88482,1,0,0:0:0:0:
326,300,88712,1,0,0:0:0:0:
426,300,88943,1,0,0:0:0:0:
390,264,89059,1,0,0:0:0:0:
354,228,89174,1,0,0:0:0:0:
318,192,89289,1,0,0:0:0:0:
282,156,89405,1,0,0:0:0:0:
246,120,89520,1,0,0:0:0:0:
210,84,89635,1,0,0:0:0:0:
174,48,89751,1,0,0:0:0:0:
124,48,89866,1,0,0:0:0:0:
73,48,89982,1,0,0:0:0:0:
37,83,90097,5,0,0:0:0:0:
37,183,90328,1,0,0:0:0:0:
37,183,90443,1,0,0:0:0:0:
37,183,90559,1,0,0:0:0:0:
37,183,90789,1,0,0:0:0:0:
37,283,91020,1,0,0:0:0:0:
72,318,91135,1,0,0:0:0:0:
107,353,91251,1,0,0:0:0:0:
207,353,91482,1,0,0:0:0:0:
207,353,91712,1,0,0:0:0:0:
307,353,91943,5,0,0:0:0:0:
307,353,92059,1,0,0:0:0:0:
307,353,92174,1,0,0:0:0:0:
407,353,92405,1,0,0:0:0:0:
477,282,92635,1,0,0:0:0:0:
477,282,92751,1,0,0:0:0:0:
477,282,92866,1,0,0:0:0:0:
477,181,93097,1,0,0:0:0:0:
441,145,93212,1,0,0:0:0:0:
405,109,93328,1,0,0:0:0:0:
369,73,93443,1,0,0:0:0:0:
333,37,93559,1,0,0:0:0:0:
283,37,93674,1,0,0:0:0:0:
233,37,93789,5,0,0:0:0:0:
132,37,94020,1,0,0:0:0:0:
82,37,94135,1,0,0:0:0:0:
46,72,94251,1,0,0:0:0:0:
46,172,94482,1,0,0:0:0:0:
46,271,94712,1,0,0:0:0:0:
116,341,94943,1,0,0:0:0:0:
166,341,95059,1,0,0:0:0:0:
215,341,95174,1,0,0:0:0:0:
315,341,95405,1,0,0:0:0:0:
364,341,95520,1,0,0:0:0:0:
413,341,95635,5,0,0:0:0:0:
483,270,95866,1,0,0:0:0:0:
483,169,96097,1,0,0:0:0:0:
483,68,96328,1,0,0:0:0:0:
447,103,96443,1,0,0:0:0:0:
411,138,96559,1,0,0:0:0:0:
411,38,96789,1,0,0:0:0:0:
375,73,96905,1,0,0:0:0:0:
339,108,97020,1,0,0:0:0:0:
303,143,97135,1,0,0:0:0:0:
267,178,97251,1,0,0:0:0:0:
231,213,97366,1,0,0:0:0:0:
195,248,97482,5,0,0:0:0:0:
256,192,97597,12,0,101174,0:0:0:0:
256,72,101866,6,0,L|256:0,10,50,0|0|0|0|0|0|0|0|0|0|0,0:0|0:0|0:0|0:0|0:0|0:0|0:0|0:0|0:0|0:0|0:0,0:0:0:0:
256,192,104174,5,0,0:0:0:0:
256,192,104405,1,0,0:0:0:0:
480,356,104635,5,0,0:0:0:0:
429,356,104751,1,0,0:0:0:0:
379,356,104866,1,0,0:0:0:0:
328,356,104982,1,0,0:0:0:0:
278,356,105097,1,0,0:0:0:0:
228,356,105212,1,0,0:0:0:0:
177,356,105328,1,0,0:0:0:0:
127,356,105443,1,0,0:0:0:0:
76,356,105559,1,0,0:0:0:0:
76,306,105674,1,0,0:0:0:0:
76,256,105789,1,0,0:0:0:0:
76,205,105905,1,0,0:0:0:0:
76,155,106020,1,0,0:0:0:0:
76,105,106135,1,0,0:0:0:0:
76,54,106251,1,0,0:0:0:0:
125,54,106366,1,0,0:0:0:0:
175,54,106482,1,0,0:0:0:0:
224,54,106597,1,0,0:0:0:0:
273,54,106712,5,0,0:0:0:0:
323,54,106828,1,0,0:0:0:0:
372,54,106943,1,0,0:0:0:0:
422,54,107059,1,0,0:0:0:0:
422,103,107174,1,0,0:0:0:0:
422,152,107289,1,0,0:0:0:0:
422,202,107405,1,0,0:0:0:0:
422,251,107520,1,0,0:0:0:0:
422,300,107635,1,0,0:0:0:0:
422,350,107751,1,0,0:0:0:0:
372,350,107866,1,0,0:0:0:0:
321,350,107982,1,0,0:0:0:0:
271,350,108097,1,0,0:0:0:0:
221,350,108212,1,0,0:0:0:0:
170,350,108328,1,0,0:0:0:0:
120,350,108443,1,0,0:0:0:0:
69,350,108559,5,0,0:0:0:0:
69,250,108789,1,0,0:0:0:0:
69,199,108905,1,0,0:0:0:0:
69,149,109020,1,0,0:0:0:0:
69,48,109251,1,0,0:0:0:0:
118,48,109366,1,0,0:0:0:0:
168,48,109482,1,0,0:0:0:0:
217,48,109597,1,0,0:0:0:0:
266,48,109712,1,0,0:0:0:0:
316,48,109828,1,0,0:0:0:0:
365,48,109943,1,0,0:0:0:0:
465,48,110174,1,0,0:0:0:0:
465,97,110289,1,0,0:0:0:0:
465,147,110405,5,0,0:0:0:0:
465,196,110520,1,0,0:0:0:0:
465,245,110635,1,0,0:0:0:0:
465,295,110751,1,0,0:0:0:0:
465,344,110866,1,0,0:0:0:0:
414,344,110982,1,0,0:0:0:0:
364,344,111097,1,0,0:0:0:0:
314,344,111212,1,0,0:0:0:0:
263,344,111328,1,0,0:0:0:0:
162,344,111559,1,0,0:0:0:0:
62,344,111789,1,0,0:0:0:0:
62,293,111905,1,0,0:0:0:0:
62,243,112020,1,0,0:0:0:0:
62,193,112135,1,0,0:0:0:0:
62,142,112251,5,0,0:0:0:0:
62,92,112366,1,0,0:0:0:0:
62,41,112482,1,0,0:0:0:0:
111,41,112597,1,0,0:0:0:0:
160,41,112712,1,0,0:0:0:0:
210,41,112828,1,0,0:0:0:0:
259,41,112943,1,0,0:0:0:0:
308,41,113058,1,0,0:0:0:0:
358,41,113174,1,0,0:0:0:0:
407,41,113289,1,0,0:0:0:0:
457,41,113405,1,0,0:0:0:0:
457,90,113520,1,0,0:0:0:0:
457,139,113635,1,0,0:0:0:0:
457,189,113751,1,0,0:0:0:0:
457,238,113866,1,0,0:0:0:0:
457,288,113982,1,0,0:0:0:0:
457,337,114097,5,0,0:0:0:0:
407,337,114212,1,0,0:0:0:0:
356,337,114328,1,0,0:0:0:0:
306,337,114443,1,0,0:0:0:0:
255,337,114559,1,0,0:0:0:0:
205,337,114674,1,0,0:0:0:0:
155,337,114789,1,0,0:0:0:0:
104,337,114905,1,0,0:0:0:0:
54,337,115020,1,0,0:0:0:0:
54,287,115135,1,0,0:0:0:0:
54,236,115251,1,0,0:0:0:0:
54,186,115366,1,0,0:0:0:0:
54,135,115482,1,0,0:0:0:0:
54,85,115597,1,0,0:0:0:0:
54,35,115712,1,0,0:0:0:0:
104,35,115828,1,0,0:0:0:0:
153,35,115943,5,0,0:0:0:0:
253,35,116174,1,0,0:0:0:0:
302,35,116289,1,0,0:0:0:0:
352,35,116405,1,0,0:0:0:0:
451,35,116635,1,0,0:0:0:0:
451,85,116751,1,0,0:0:0:0:
451,134,116866,1,0,0:0:0:0:
451,184,116982,1,0,0:0:0:0:
451,233,117097,1,0,0:0:0:0:
451,282,117212,1,0,0:0:0:0:
451,332,117328,1,0,0:0:0:0:
350,332,117559,1,0,0:0:0:0:
300,332,117674,1,0,0:0:0:0:
250,332,117789,5,0,0:0:0:0:
149,332,118020,1,0,0:0:0:0:
99,332,118135,1,0,0:0:0:0:
48,332,118251,1,0,0:0:0:0:
48,282,118366,1,0,0:0:0:0:
48,231,118482,1,0,0:0:0:0:
48,181,118597,1,0,0:0:0:0:
48,131,118712,1,0,0:0:0:0:
48,30,118943,1,0,0:0:0:0:
148,30,119174,1,0,0:0:0:0:
248,30,119405,5,0,0:0:0:0:
322,30,119520,1,0,0:0:0:0:
396,30,119635,5,0,0:0:0:0:
396,180,119866,1,0,0:0:0:0:
396,255,119982,1,0,0:0:0:0:
396,329,120097,1,0,0:0:0:0:
245,329,120328,1,0,0:0:0:0:
170,329,120443,1,0,0:0:0:0:
95,329,120558,1,0,0:0:0:0:
95,178,120789,1,0,0:0:0:0:
95,102,120905,1,0,0:0:0:0:
95,27,121020,1,0,0:0:0:0:
245,27,121251,1,0,0:0:0:0:
319,27,121366,1,0,0:0:0:0:
394,27,121482,5,0,0:0:0:0:
394,176,121712,1,0,0:0:0:0:
394,251,121828,1,0,0:0:0:0:
394,325,121943,1,0,0:0:0:0:
243,325,122174,1,0,0:0:0:0:
168,325,122289,1,0,0:0:0:0:
92,325,122405,1,0,0:0:0:0:
92,175,122635,1,0,0:0:0:0:
92,99,122751,1,0,0:0:0:0:
92,24,122866,1,0,0:0:0:0:
242,24,123097,1,0,0:0:0:0:
316,24,123212,1,0,0:0:0:0:
391,24,123328,5,0,0:0:0:0:
256,192,123443,12,0,124712,0:0:0:0:
472,36,125174,5,0,0:0:0:0:
371,36,125405,1,0,0:0:0:0:
271,36,125635,1,0,0:0:0:0:
170,36,125866,1,0,0:0:0:0:
69,36,126097,1,0,0:0:0:0:
69,136,126328,1,0,0:0:0:0:
69,236,126559,1,0,0:0:0:0:
328,136,126789,1,0,0:0:0:0:
328,136,126905,1,0,0:0:0:0:
328,136,127020,5,0,0:0:0:0:
328,136,127135,1,0,0:0:0:0:
328,136,127251,1,0,0:0:0:0:
328,136,127366,1,0,0:0:0:0:
328,136,127482,1,0,0:0:0:0:
328,136,127597,1,0,0:0:0:0:
328,136,127712,1,0,0:0:0:0:
328,136,127828,1,0,0:0:0:0:
328,136,127943,1,0,0:0:0:0:
328,136,128059,1,0,0:0:0:0:
328,136,128174,1,0,0:0:0:0:
328,136,128289,1,0,0:0:0:0:
328,136,128405,1,0,0:0:0:0:
328,136,128520,1,0,0:0:0:0:
328,136,128635,1,0,0:0:0:0:
328,136,128751,1,0,0:0:0:0:
328,136,128866,5,0,0:0:0:0:
328,136,128982,1,0,0:0:0:0:
328,136,129097,1,0,0:0:0:0:
328,136,129212,1,0,0:0:0:0:
328,136,129328,1,0,0:0:0:0:
328,136,129443,1,0,0:0:0:0:
328,136,129559,1,0,0:0:0:0:
328,136,129674,1,0,0:0:0:0:
328,136,129789,1,0,0:0:0:0:
328,136,129905,1,0,0:0:0:0:
328,136,130020,1,0,0:0:0:0:
328,136,130135,1,0,0:0:0:0:
328,136,130251,1,0,0:0:0:0:
328,136,130366,1,0,0:0:0:0:
328,136,130482,1,0,0:0:0:0:
328,136,130597,1,0,0:0:0:0:
328,136,130712,5,0,0:0:0:0:
256,192,130828,12,0,132328,0:0:0:0:
256,192,132559,5,0,0:0:0:0:
256,192,132674,12,0,133943,0:0:0:0:
40,44,148943,5,0,0:0:0:0:
190,44,149174,1,0,0:0:0:0:
340,44,149405,1,0,0:0:0:0:
489,44,149635,1,0,0:0:0:0:
489,194,149866,1,0,0:0:0:0:
489,344,150097,1,0,0:0:0:0:
338,344,150328,1,0,0:0:0:0:
263,344,150443,1,0,0:0:0:0:
188,344,150558,1,0,0:0:0:0:
37,344,150789,1,0,0:0:0:0:
37,193,151020,5,0,0:0:0:0:
37,42,151251,1,0,0:0:0:0:
187,42,151482,1,0,0:0:0:0:
336,42,151712,1,0,0:0:0:0:
411,42,151828,1,0,0:0:0:0:
485,42,151943,1,0,0:0:0:0:
485,192,152174,1,0,0:0:0:0:
485,342,152405,1,0,0:0:0:0:
335,342,152635,1,0,0:0:0:0:
184,342,152866,5,0,0:0:0:0:
108,342,152982,1,0,0:0:0:0:
33,342,153097,1,0,0:0:0:0:
33,191,153328,1,0,0:0:0:0:
33,41,153558,1,0,0:0:0:0:
183,41,153789,1,0,0:0:0:0:
258,41,153905,1,0,0:0:0:0:
332,41,154020,1,0,0:0:0:0:
482,41,154251,1,0,0:0:0:0:
482,191,154482,1,0,0:0:0:0:
482,340,154712,5,0,0:0:0:0:
406,340,154828,1,0,0:0:0:0:
331,340,154943,1,0,0:0:0:0:
256,340,155058,1,0,0:0:0:0:
180,340,155174,1,0,0:0:0:0:
105,340,155289,1,0,0:0:0:0:
29,340,155405,1,0,0:0:0:0:
29,265,155520,1,0,0:0:0:0:
29,190,155635,1,0,0:0:0:0:
29,114,155751,1,0,0:0:0:0:
29,39,155866,1,0,0:0:0:0:
104,39,155982,1,0,0:0:0:0:
178,39,156097,1,0,0:0:0:0:
252,39,156212,1,0,0:0:0:0:
327,39,156328,1,0,0:0:0:0:
401,39,156443,1,0,0:0:0:0:
475,39,156558,5,0,0:0:0:0:
475,189,156789,1,0,0:0:0:0:
475,339,157020,1,0,0:0:0:0:
324,339,157251,1,0,0:0:0:0:
173,339,157482,1,0,0:0:0:0:
23,339,157712,1,0,0:0:0:0:
23,188,157943,1,0,0:0:0:0:
23,37,158174,1,0,0:0:0:0:
173,37,158405,5,0,0:0:0:0:
247,37,158520,1,0,0:0:0:0:
321,37,158635,1,0,0:0:0:0:
471,37,158866,1,0,0:0:0:0:
471,112,158982,1,0,0:0:0:0:
471,186,159097,1,0,0:0:0:0:
471,260,159212,1,0,0:0:0:0:
471,335,159328,1,0,0:0:0:0:
321,335,159558,1,0,0:0:0:0:
170,335,159789,1,0,0:0:0:0:
94,335,159905,1,0,0:0:0:0:
94,260,160020,1,0,0:0:0:0:
94,185,160135,1,0,0:0:0:0:
94,109,160251,5,0,0:0:0:0:
256,32,160712,5,0,0:0:0:0:
94,335,161174,1,0,0:0:0:0:
418,335,161635,1,0,0:0:0:0:
256,192,162097,5,0,0:0:0:0:
256,192,163251,5,0,0:0:0:0:
256,192,163482,1,0,0:0:0:0:
32,28,163712,5,0,0:0:0:0:
107,28,163828,1,0,0:0:0:0:
181,28,163943,1,0,0:0:0:0:
256,28,164059,1,0,0:0:0:0:
330,28,164174,1,0,0:0:0:0:
404,28,164289,1,0,0:0:0:0:
479,28,164405,1,0,0:0:0:0:
479,102,164520,1,0,0:0:0:0:
479,177,164636,1,0,0:0:0:0:
479,251,164751,1,0,0:0:0:0:
479,325,164866,1,0,0:0:0:0:
403,325,164982,1,0,0:0:0:0:
328,325,165097,1,0,0:0:0:0:
253,325,165212,1,0,0:0:0:0:
177,325,165328,1,0,0:0:0:0:
102,325,165443,1,0,0:0:0:0:
26,325,165559,1,0,0:0:0:0:
26,250,165674,1,0,0:0:0:0:
26,175,165789,5,0,0:0:0:0:
26,99,165905,1,0,0:0:0:0:
26,24,166020,1,0,0:0:0:0:
101,24,166136,1,0,0:0:0:0:
175,24,166251,1,0,0:0:0:0:
249,24,166366,1,0,0:0:0:0:
324,24,166482,1,0,0:0:0:0:
398,24,166597,1,0,0:0:0:0:
472,24,166712,1,0,0:0:0:0:
472,99,166828,1,0,0:0:0:0:
472,173,166943,1,0,0:0:0:0:
472,248,167059,1,0,0:0:0:0:
472,322,167174,1,0,0:0:0:0:
397,322,167289,1,0,0:0:0:0:
321,322,167405,1,0,0:0:0:0:
246,322,167520,1,0,0:0:0:0:
170,322,167636,5,0,0:0:0:0:
170,172,167866,1,0,0:0:0:0:
170,96,167982,1,0,0:0:0:0:
170,21,168097,1,0,0:0:0:0:
320,21,168328,1,0,0:0:0:0:
394,21,168443,1,0,0:0:0:0:
469,21,168559,1,0,0:0:0:0:
469,95,168674,1,0,0:0:0:0:
469,169,168789,1,0,0:0:0:0:
469,244,168905,1,0,0:0:0:0:
469,318,169020,1,0,0:0:0:0:
318,318,169251,1,0,0:0:0:0:
243,318,169366,1,0,0:0:0:0:
167,318,169482,5,0,0:0:0:0:
92,318,169597,1,0,0:0:0:0:
17,318,169712,1,0,0:0:0:0:
17,242,169828,1,0,0:0:0:0:
17,167,169943,1,0,0:0:0:0:
17,91,170059,1,0,0:0:0:0:
17,16,170174,1,0,0:0:0:0:
91,16,170289,1,0,0:0:0:0:
166,16,170405,1,0,0:0:0:0:
316,16,170636,1,0,0:0:0:0:
465,16,170866,1,0,0:0:0:0:
465,91,170982,1,0,0:0:0:0:
465,165,171097,1,0,0:0:0:0:
465,239,171212,1,0,0:0:0:0:
465,314,171328,5,0,0:0:0:0:
390,314,171443,1,0,0:0:0:0:
314,314,171559,1,0,0:0:0:0:
239,314,171674,1,0,0:0:0:0:
164,314,171789,1,0,0:0:0:0:
88,314,171905,1,0,0:0:0:0:
88,239,172020,1,0,0:0:0:0:
88,164,172135,1,0,0:0:0:0:
88,88,172251,1,0,0:0:0:0:
162,88,172366,1,0,0:0:0:0:
237,88,172482,1,0,0:0:0:0:
311,88,172597,1,0,0:0:0:0:
385,88,172712,1,0,0:0:0:0:
385,163,172828,1,0,0:0:0:0:
385,237,172943,1,0,0:0:0:0:
309,237,173059,1,0,0:0:0:0:
234,237,173174,5,0,0:0:0:0:
159,237,173289,1,0,0:0:0:0:
159,161,173405,1,0,0:0:0:0:
233,161,173520,1,0,0:0:0:0:
308,161,173636,1,0,0:0:0:0:
308,235,173751,1,0,0:0:0:0:
308,309,173866,1,0,0:0:0:0:
232,309,173982,1,0,0:0:0:0:
157,309,174097,1,0,0:0:0:0:
82,309,174212,1,0,0:0:0:0:
82,233,174328,1,0,0:0:0:0:
82,158,174443,1,0,0:0:0:0:
82,82,174559,1,0,0:0:0:0:
156,82,174674,1,0,0:0:0:0:
230,82,174789,1,0,0:0:0:0:
305,82,174905,1,0,0:0:0:0:
379,82,175020,5,0,0:0:0:0:
485,188,175251,1,0,0:0:0:0:
485,262,175366,1,0,0:0:0:0:
485,337,175482,1,0,0:0:0:0:
335,337,175712,1,0,0:0:0:0:
259,337,175828,1,0,0:0:0:0:
184,337,175943,1,0,0:0:0:0:
108,337,176059,1,0,0:0:0:0:
108,262,176174,1,0,0:0:0:0:
108,187,176289,1,0,0:0:0:0:
108,111,176405,1,0,0:0:0:0:
258,111,176636,1,0,0:0:0:0:
332,111,176751,1,0,0:0:0:0:
406,111,176866,5,0,0:0:0:0:
406,261,177097,1,0,0:0:0:0:
331,261,177212,1,0,0:0:0:0:
255,261,177328,1,0,0:0:0:0:
180,261,177443,1,0,0:0:0:0:
104,261,177559,1,0,0:0:0:0:
29,261,177674,1,0,0:0:0:0:
29,186,177789,1,0,0:0:0:0:
29,35,178020,1,0,0:0:0:0:
179,35,178251,1,0,0:0:0:0:
329,35,178482,5,0,0:0:0:0:
329,134,178597,1,0,0:0:0:0:
329,233,178712,5,0,0:0:0:0:
128,233,178943,1,0,0:0:0:0:
128,132,179059,1,0,0:0:0:0:
128,32,179174,1,0,0:0:0:0:
328,32,179405,1,0,0:0:0:0:
328,131,179520,1,0,0:0:0:0:
328,230,179635,1,0,0:0:0:0:
127,230,179866,1,0,0:0:0:0:
127,129,179982,1,0,0:0:0:0:
127,29,180097,1,0,0:0:0:0:
327,29,180328,1,0,0:0:0:0:
327,128,180443,1,0,0:0:0:0:
327,228,180559,5,0,0:0:0:0:
127,228,180789,1,0,0:0:0:0:
127,127,180905,1,0,0:0:0:0:
127,27,181020,1,0,0:0:0:0:
327,27,181251,1,0,0:0:0:0:
327,126,181366,1,0,0:0:0:0:
327,226,181482,1,0,0:0:0:0:
127,226,181712,1,0,0:0:0:0:
127,125,181828,1,0,0:0:0:0:
127,25,181943,1,0,0:0:0:0:
127,225,182174,1,0,0:0:0:0:
226,225,182289,1,0,0:0:0:0:
326,225,182405,5,0,0:0:0:0:
256,192,182520,12,0,183789,0:0:0:0:
40,348,184251,5,0,0:0:0:0:
190,348,184482,1,0,0:0:0:0:
339,348,184712,1,0,0:0:0:0:
489,348,184943,1,0,0:0:0:0:
489,197,185174,1,0,0:0:0:0:
489,46,185405,1,0,0:0:0:0:
338,46,185636,1,0,0:0:0:0:
196,144,185866,1,0,0:0:0:0:
196,144,185982,1,0,0:0:0:0:
196,144,186097,5,0,0:0:0:0:
196,144,186212,1,0,0:0:0:0:
196,144,186328,1,0,0:0:0:0:
196,144,186443,1,0,0:0:0:0:
196,144,186559,1,0,0:0:0:0:
196,144,186674,1,0,0:0:0:0:
196,144,186789,1,0,0:0:0:0:
196,144,186905,1,0,0:0:0:0:
196,144,187020,1,0,0:0:0:0:
196,144,187136,1,0,0:0:0:0:
196,144,187251,1,0,0:0:0:0:
196,144,187366,1,0,0:0:0:0:
196,144,187482,1,0,0:0:0:0:
196,144,187597,1,0,0:0:0:0:
196,144,187712,1,0,0:0:0:0:
196,144,187828,1,0,0:0:0:0:
196,144,187943,5,0,0:0:0:0:
196,144,188059,1,0,0:0:0:0:
196,144,188174,1,0,0:0:0:0:
196,144,188289,1,0,0:0:0:0:
196,144,188405,1,0,0:0:0:0:
196,144,188520,1,0,0:0:0:0:
196,144,188636,1,0,0:0:0:0:
196,144,188751,1,0,0:0:0:0:
196,144,188866,1,0,0:0:0:0:
196,144,188982,1,0,0:0:0:0:
196,144,189097,1,0,0:0:0:0:
196,144,189212,1,0,0:0:0:0:
196,144,189328,1,0,0:0:0:0:
196,144,189443,1,0,0:0:0:0:
196,144,189559,1,0,0:0:0:0:
196,144,189674,1,0,0:0:0:0:
196,144,189789,5,0,0:0:0:0:
256,192,189905,12,0,191405,0:0:0:0:
256,192,191636,5,0,0:0:0:0:
256,192,191751,12,0,193020,0:0:0:0:
256,292,193251,5,0,0:0:0:0:
256,192,193366,1,0,0:0:0:0:
256,91,193482,1,0,0:0:0:0:
