osu file format v14

[General]
AudioFilename: LBP Vita OST #22 - High Together.mp3
AudioLeadIn: 0
PreviewTime: 118290
Countdown: 0
SampleSet: Normal
StackLeniency: 0.7
Mode: 0
LetterboxInBreaks: 1
WidescreenStoryboard: 1

[Editor]
DistanceSpacing: 1.2
BeatDivisor: 1
GridSize: 16
TimelineZoom: 1

[Metadata]
Title:High Together
TitleUnicode:High Together
Artist:Siriusmo
ArtistUnicode:Siriusmo
Creator:Notester82
Version:Normal
Source:Little Big Planet Vita
Tags:LBP little big planet vita
BeatmapID:741217
BeatmapSetID:334844

[Difficulty]
HPDrainRate:6
CircleSize:4
OverallDifficulty:4
ApproachRate:5
SliderMultiplier:1.4
SliderTickRate:1

[Events]
//Background and Video events
0,0,"LittleBigPlanetVita.jpg",0,0
//Break Periods
2,142800,148125
//Storyboard Layer 0 (Background)
//Storyboard Layer 1 (Fail)
//Storyboard Layer 2 (Pass)
//Storyboard Layer 3 (Foreground)
//Storyboard Sound Samples

[TimingPoints]
359.591631237732,517.241379310345,4,1,0,50,1,0
81049,-100,4,1,0,50,0,1
118290,-100,4,1,0,50,0,0

[Colours]
Combo1 : 15,230,203
Combo2 : 5,134,239
Combo3 : 57,14,231
Combo4 : 35,209,62

[HitObjects]
48,48,16911,5,0,0:0:0:0:
144,48,17816,1,2,0:0:0:0:
144,144,18980,1,0,0:0:0:0:
224,144,19497,1,0,0:0:0:0:
304,144,20014,1,0,0:0:0:0:
384,144,20532,1,0,0:0:0:0:
480,144,21049,5,0,0:0:0:0:
480,272,21954,1,2,0:0:0:0:
384,272,23118,1,0,0:0:0:0:
288,272,23635,1,0,0:0:0:0:
192,272,24152,1,0,0:0:0:0:
112,224,24669,1,0,0:0:0:0:
192,176,25187,6,4,B|320:80|320:80|432:48,1,245
448,96,27256,1,0,0:0:0:0:
448,192,27773,1,2,0:0:0:0:
336,192,28290,1,0,0:0:0:0:
336,96,28807,1,2,0:0:0:0:
256,192,29325,12,0,31394,0:0:0:0:
256,192,32428,6,8,L|256:48,1,140
256,48,33463,2,8,L|400:48,1,140
400,48,34497,2,8,L|400:208,1,140
400,192,35532,2,12,L|272:64,1,140
256,52,36566,1,4,0:0:0:0:
256,52,36825,1,4,0:0:0:0:
256,52,37083,1,2,0:0:0:0:
192,48,38506,6,4,L|32:160,1,175
128,160,39669,1,0,0:0:0:0:
208,160,40187,1,2,0:0:0:0:
208,240,40704,1,0,0:0:0:0:
128,240,41221,1,2,0:0:0:0:
160,192,42644,6,4,B|256:112|256:112|272:192,1,175
352,160,43807,1,0,0:0:0:0:
352,224,44325,1,2,0:0:0:0:
288,224,44842,1,0,0:0:0:0:
224,224,45359,1,2,0:0:0:0:
144,160,46782,6,8,L|320:160,1,175
384,160,47945,1,8,0:0:0:0:
384,240,48463,1,8,0:0:0:0:
384,320,48980,2,8,L|480:320,1,70
448,240,49497,1,10,0:0:0:0:
464,144,50919,6,8,P|352:80|304:112,1,175
240,128,52083,1,8,0:0:0:0:
304,160,52600,1,8,0:0:0:0:
240,192,53118,2,8,L|320:256,1,70
240,272,53635,1,10,0:0:0:0:
176,256,55187,6,0,L|32:256,1,140
176,256,56221,2,0,L|176:112,1,140
176,256,57256,2,2,L|320:256,1,140
336,128,59325,6,0,L|476:128,1,140
336,128,60359,2,0,L|336:268,1,140
336,128,61394,2,2,L|196:128,1,140
384,64,63463,5,0,0:0:0:0:
288,64,63980,1,0,0:0:0:0:
192,64,64497,1,0,0:0:0:0:
224,96,65014,1,0,0:0:0:0:
192,112,65532,1,8,0:0:0:0:
208,144,65790,1,8,0:0:0:0:
192,160,66049,1,8,0:0:0:0:
160,208,67471,6,0,L|96:32,1,175
176,32,68635,1,4,0:0:0:0:
256,32,69152,1,4,0:0:0:0:
336,32,69669,1,4,0:0:0:0:
416,32,70187,1,4,0:0:0:0:
416,112,70704,6,4,L|320:224,1,140
352,112,71738,2,0,L|256:224,1,140
288,112,72773,2,0,L|192:224,1,140
224,112,73807,2,0,L|128:224,1,140
304,112,75876,5,0,0:0:0:0:
304,112,76394,1,0,0:0:0:0:
256,16,76911,6,8,L|96:16,1,140
256,96,77945,2,8,L|416:96,1,140
256,176,78980,2,10,L|96:176,1,140
256,256,80014,2,10,L|416:256,1,140
256,336,81566,5,0,0:0:0:0:
256,240,82600,1,8,0:0:0:0:
256,144,83635,1,0,0:0:0:0:
256,64,84152,1,8,0:0:0:0:
256,64,84669,2,4,L|112:64,2,140
336,64,86738,5,8,0:0:0:0:
432,64,87773,1,8,0:0:0:0:
432,160,88290,1,8,0:0:0:0:
336,160,88807,2,4,L|176:160,2,140
416,160,90876,5,8,0:0:0:0:
416,240,91911,1,8,0:0:0:0:
416,320,92428,1,8,0:0:0:0:
336,320,92945,2,4,L|176:320,2,140
336,240,94497,2,4,L|176:240,2,140
336,160,96049,2,6,L|160:160,2,140
416,160,97600,5,0,0:0:0:0:
416,80,98635,1,8,0:0:0:0:
336,80,98894,1,0,0:0:0:0:
256,80,99152,1,8,0:0:0:0:
176,80,99669,2,0,P|64:144|64:160,3,140
64,192,101738,5,0,0:0:0:0:
144,192,102256,1,8,0:0:0:0:
224,192,102773,1,0,0:0:0:0:
304,192,103290,1,8,0:0:0:0:
384,192,103807,2,4,L|384:272,1,70
448,256,104325,2,4,L|448:160,1,70
448,128,104842,2,4,L|368:128,1,70
384,64,105359,2,4,L|464:64,1,70
512,64,105876,1,6,0:0:0:0:
432,80,107945,5,0,0:0:0:0:
320,80,108463,1,0,0:0:0:0:
208,80,108980,1,0,0:0:0:0:
96,80,109497,1,0,0:0:0:0:
96,144,110014,1,8,0:0:0:0:
128,144,110273,1,8,0:0:0:0:
160,144,110532,1,2,0:0:0:0:
192,144,110790,1,8,0:0:0:0:
224,144,111049,1,8,0:0:0:0:
256,144,111307,1,2,0:0:0:0:
288,144,111566,1,8,0:0:0:0:
304,144,111825,1,2,0:0:0:0:
368,144,112083,6,0,L|368:288,1,140
304,288,113118,1,2,0:0:0:0:
304,240,113376,1,2,0:0:0:0:
304,192,113635,1,2,0:0:0:0:
304,144,113894,1,2,0:0:0:0:
208,144,114152,6,0,L|208:288,1,140
144,288,115187,1,2,0:0:0:0:
144,240,115445,1,2,0:0:0:0:
144,192,115704,1,2,0:0:0:0:
144,144,115963,1,2,0:0:0:0:
144,80,116221,5,8,0:0:0:0:
224,80,116738,1,8,0:0:0:0:
224,160,117256,1,0,0:0:0:0:
272,160,117514,1,0,0:0:0:0:
320,160,117773,1,8,0:0:0:0:
352,160,118032,1,0,0:0:0:0:
384,160,118290,1,8,0:0:0:0:
416,192,120359,6,0,B|416:48|240:48|256:224,1,280
208,192,121911,1,2,0:0:0:0:
144,192,122169,1,2,0:0:0:0:
64,192,122687,5,0,0:0:0:0:
64,112,123204,1,0,0:0:0:0:
144,112,123721,1,0,0:0:0:0:
224,112,124497,2,2,L|384:112,3,140
464,128,127600,6,4,B|464:288|464:288|336:288|336:288|336:144|336:144,1,420
320,80,129669,1,8,0:0:0:0:
288,80,129928,1,10,0:0:0:0:
256,80,130187,1,10,0:0:0:0:
176,80,130963,5,0,0:0:0:0:
176,160,131480,1,0,0:0:0:0:
176,240,131997,1,8,0:0:0:0:
176,240,132256,1,8,0:0:0:0:
176,240,132514,1,8,0:0:0:0:
176,240,132773,2,10,L|336:240,1,140
256,368,134842,6,8,B|303:314|303:314|254:251,1,140
256,256,135876,2,0,B|303:202|303:202|254:139,1,140
256,144,136911,2,8,B|303:90|303:90|254:27,1,140
176,32,137945,2,0,B|128:85|128:85|177:148,1,140
176,144,138980,2,8,B|128:197|128:197|177:260,1,140
176,256,140014,2,0,B|128:309|128:309|177:372,1,140
240,368,141049,1,4,0:0:0:0:
304,368,141566,1,4,0:0:0:0:
368,368,142083,1,4,0:0:0:0:
432,368,142600,1,4,0:0:0:0:
256,192,149325,6,4,L|160:192,1,70
176,192,149842,2,12,L|80:192,1,70
96,192,150359,2,4,L|96:96,1,70
96,112,150876,2,12,L|192:112,1,70
176,112,151394,2,12,L|272:112,1,70
256,112,152428,5,0,0:0:0:0:
256,112,152945,1,0,0:0:0:0:
256,112,153463,2,2,B|320:64|320:64|432:64,1,140
368,64,155532,6,8,L|208:64,4,140
256,192,158118,12,0,159669,0:0:0:0:
80,192,160445,5,2,0:0:0:0:
96,192,160704,1,2,0:0:0:0:
176,192,161738,1,0,0:0:0:0:
256,192,162773,1,8,0:0:0:0:
336,192,163807,1,0,0:0:0:0:
432,192,164583,1,2,0:0:0:0:
464,192,164842,1,2,0:0:0:0:
464,144,165876,1,4,0:0:0:0:
432,144,166135,1,4,0:0:0:0:
384,144,166652,1,2,0:0:0:0:
384,64,167945,5,0,0:0:0:0:
320,64,168850,1,10,0:0:0:0:
320,128,170014,1,2,0:0:0:0:
256,128,170532,1,2,0:0:0:0:
256,192,172083,1,0,0:0:0:0:
192,192,172988,1,10,0:0:0:0:
192,128,174152,1,2,0:0:0:0:
256,128,174669,1,2,0:0:0:0:
256,0,176221,6,8,L|320:64,2,70
256,64,177256,2,8,L|192:128,2,70
256,128,178290,2,8,L|320:192,2,70
256,192,179325,2,8,L|192:256,2,70
256,256,180359,2,8,L|320:320,2,70
256,320,181394,2,8,L|192:384,2,70
256,256,182428,2,6,L|336:256,6,70
208,272,184497,6,0,L|208:112,1,140
208,64,186566,2,0,L|432:112,1,210
416,176,187859,1,2,0:0:0:0:
416,176,188118,1,2,0:0:0:0:
304,272,188635,6,0,L|304:112,1,140
304,64,190704,2,0,L|80:112,1,210
96,176,191997,1,2,0:0:0:0:
96,176,192256,1,2,0:0:0:0:
160,176,192773,5,0,0:0:0:0:
240,176,193290,1,0,0:0:0:0:
160,256,193807,1,0,0:0:0:0:
240,256,194325,1,0,0:0:0:0:
160,336,194842,1,2,0:0:0:0:
240,336,195359,1,2,0:0:0:0:
320,336,195876,2,6,L|320:176,1,140
320,128,196911,5,0,0:0:0:0:
320,128,197428,1,0,0:0:0:0:
320,128,197945,1,0,0:0:0:0:
320,128,198463,1,0,0:0:0:0:
320,128,198980,1,2,0:0:0:0:
320,128,199497,1,2,0:0:0:0:
256,192,200014,12,0,201049,0:0:0:0:
256,192,201566,5,8,0:0:0:0:
256,192,202083,12,0,203118,0:0:0:0:
256,192,203635,5,8,0:0:0:0:
256,192,204152,12,12,204669,0:0:0:0:
