osu file format v14

[General]
AudioFilename: LBP Vita OST #22 - High Together.mp3
AudioLeadIn: 0
PreviewTime: 118290
Countdown: 0
SampleSet: Normal
StackLeniency: 0.7
Mode: 0
LetterboxInBreaks: 1
WidescreenStoryboard: 0

[Editor]
DistanceSpacing: 1.2
BeatDivisor: 1
GridSize: 32
TimelineZoom: 1

[Metadata]
Title:High Together
TitleUnicode:High Together
Artist:Siriusmo
ArtistUnicode:Siriusmo
Creator:Notester82
Version:Easy
Source:Little Big Planet Vita
Tags:LBP little big planet vita
BeatmapID:741216
BeatmapSetID:334844

[Difficulty]
HPDrainRate:6
CircleSize:4
OverallDifficulty:4
ApproachRate:4
SliderMultiplier:1.4
SliderTickRate:1

[Events]
//Background and Video events
0,0,"LittleBigPlanetVita.jpg",0,0
//Break Periods
2,118490,133522
//Storyboard Layer 0 (Background)
//Storyboard Layer 1 (Fail)
//Storyboard Layer 2 (Pass)
//Storyboard Layer 3 (Foreground)
//Storyboard Sound Samples

[TimingPoints]
359.591631237732,517.241379310345,4,1,0,55,1,0
81049,-100,4,1,0,55,0,1
118290,-100,4,1,0,55,0,0

[Colours]
Combo1 : 15,230,203
Combo2 : 5,134,239
Combo3 : 57,14,231
Combo4 : 35,209,62

[HitObjects]
64,192,16911,5,0,0:0:0:0:
160,192,17945,1,8,0:0:0:0:
160,96,18980,1,0,0:0:0:0:
32,96,20014,1,8,0:0:0:0:
128,96,21049,5,0,0:0:0:0:
128,192,22083,1,8,0:0:0:0:
224,192,23118,1,0,0:0:0:0:
224,96,24152,1,8,0:0:0:0:
320,96,25187,6,0,L|320:256,2,140
416,96,27256,2,0,L|416:256,2,140
336,232,29325,2,4,B|176:232|176:232|176:104|176:104|448:104|448:104,1,560
448,176,33463,5,0,0:0:0:0:
384,176,33980,1,0,0:0:0:0:
320,176,34497,1,0,0:0:0:0:
448,80,35532,1,0,0:0:0:0:
384,80,36049,1,2,0:0:0:0:
320,80,36566,1,2,0:0:0:0:
224,80,38635,5,0,0:0:0:0:
224,80,39152,1,0,0:0:0:0:
160,80,39669,2,2,P|160:240|256:240,1,280
240,176,41221,1,2,0:0:0:0:
288,80,42773,5,0,0:0:0:0:
288,80,43290,1,0,0:0:0:0:
352,80,43807,2,2,P|352:240|256:240,1,280
272,176,45359,1,2,0:0:0:0:
192,176,46911,6,8,L|48:176,1,140
48,240,47945,2,8,L|192:240,1,140
192,304,48980,2,8,L|48:304,1,140
48,240,50014,2,8,L|48:64,4,140
96,224,54152,5,0,0:0:0:0:
160,224,55187,1,0,0:0:0:0:
224,224,56221,1,2,0:0:0:0:
288,224,56738,1,8,0:0:0:0:
352,224,57256,1,2,0:0:0:0:
352,160,58290,5,0,0:0:0:0:
288,160,59325,1,0,0:0:0:0:
224,160,60359,1,2,0:0:0:0:
160,160,60876,1,8,0:0:0:0:
96,160,61394,1,2,0:0:0:0:
32,160,62428,6,0,B|32:0|32:0|480:0|480:0|480:192|480:256,1,840
480,288,66566,1,4,0:0:0:0:
416,288,67600,1,4,0:0:0:0:
480,352,68635,1,4,0:0:0:0:
416,352,69669,1,4,0:0:0:0:
352,352,70704,6,4,L|256:240,1,140
288,352,71738,2,0,L|192:240,1,140
224,352,72773,2,0,L|128:240,1,140
160,352,73807,2,0,L|64:240,1,140
256,192,74842,12,0,78980,0:0:0:0:
256,192,81049,5,8,0:0:0:0:
336,192,82083,1,8,0:0:0:0:
336,128,84152,2,4,L|192:128,2,140
256,128,86221,5,8,0:0:0:0:
336,128,87255,1,8,0:0:0:0:
336,64,88290,2,2,L|192:64,2,140
336,128,90359,5,8,0:0:0:0:
272,128,90876,1,8,0:0:0:0:
208,128,91394,1,4,0:0:0:0:
208,192,92428,1,8,0:0:0:0:
272,192,92945,1,8,0:0:0:0:
336,192,93463,1,4,0:0:0:0:
336,256,94497,2,0,L|192:256,1,140
336,320,95532,2,10,L|192:320,1,140
336,384,96566,2,0,L|192:384,1,140
208,320,98635,5,0,0:0:0:0:
272,320,99152,1,0,0:0:0:0:
336,320,100187,1,8,0:0:0:0:
400,320,100704,1,8,0:0:0:0:
464,320,101221,1,2,0:0:0:0:
464,256,102773,2,0,L|464:112,1,140
464,64,103807,1,4,0:0:0:0:
464,64,104325,1,4,0:0:0:0:
464,64,104842,1,4,0:0:0:0:
464,64,105359,1,4,0:0:0:0:
464,64,105876,1,4,0:0:0:0:
384,64,106911,6,2,L|224:64,1,140
240,128,107945,1,8,0:0:0:0:
304,128,108463,1,8,0:0:0:0:
240,192,108980,1,8,0:0:0:0:
304,192,109497,1,8,0:0:0:0:
336,240,110014,6,4,B|192:240|192:240|192:96|192:96|336:96|336:96,1,420
400,96,112083,1,0,0:0:0:0:
320,160,113118,1,0,0:0:0:0:
224,224,114152,1,0,0:0:0:0:
128,288,115187,1,0,0:0:0:0:
32,288,116221,1,0,0:0:0:0:
32,192,116738,1,2,0:0:0:0:
128,192,117256,1,0,0:0:0:0:
128,288,117773,1,2,0:0:0:0:
224,288,118290,1,4,0:0:0:0:
112,192,134842,5,0,0:0:0:0:
208,192,135876,1,2,0:0:0:0:
304,192,136911,1,0,0:0:0:0:
400,192,137945,1,2,0:0:0:0:
400,256,138980,5,0,0:0:0:0:
304,256,140014,1,2,0:0:0:0:
192,256,141049,1,0,0:0:0:0:
96,256,142083,1,2,0:0:0:0:
80,192,143118,6,8,L|224:192,2,140
80,128,144669,2,8,L|224:128,2,140
80,64,146221,2,0,L|224:64,1,140
288,64,147256,6,8,L|432:64,2,140
288,128,148807,2,8,L|432:128,2,140
288,192,150359,2,0,L|432:192,1,140
416,240,151394,5,0,0:0:0:0:
352,240,152428,1,0,0:0:0:0:
352,176,153463,1,2,0:0:0:0:
416,176,154497,1,2,0:0:0:0:
448,112,155532,5,0,0:0:0:0:
384,112,156049,1,0,0:0:0:0:
320,112,156566,1,0,0:0:0:0:
256,112,157083,1,0,0:0:0:0:
192,112,157600,1,2,0:0:0:0:
128,112,158118,1,2,0:0:0:0:
64,112,158635,1,2,0:0:0:0:
0,112,159152,1,2,0:0:0:0:
0,176,159669,6,0,B|144:176|144:176|144:320,1,280
208,320,161738,1,0,0:0:0:0:
208,240,162773,1,8,0:0:0:0:
208,160,163807,6,0,B|352:160|352:160|352:16,1,280
432,32,165876,1,0,0:0:0:0:
432,96,166911,1,8,0:0:0:0:
432,160,167945,1,8,0:0:0:0:
368,160,170014,5,2,0:0:0:0:
304,160,170532,1,2,0:0:0:0:
256,192,172083,12,0,175704,0:0:0:0:
256,192,176221,6,0,P|80:192|96:144,1,280
80,144,178290,2,0,P|256:144|240:192,1,280
176,160,179842,1,8,0:0:0:0:
256,192,180359,6,0,P|432:192|416:144,1,280
432,144,182428,2,0,P|256:144|272:192,1,280
336,160,183980,1,8,0:0:0:0:
272,160,184497,5,2,0:0:0:0:
272,160,185014,1,2,0:0:0:0:
256,160,186566,2,0,L|256:320,2,140
256,80,188635,5,2,0:0:0:0:
256,144,189152,1,2,0:0:0:0:
192,144,190704,2,0,L|32:144,2,140
256,192,194842,1,2,0:0:0:0:
256,192,195359,1,2,0:0:0:0:
256,192,198980,5,2,0:0:0:0:
256,192,199497,1,2,0:0:0:0:
256,192,200014,12,4,204669,0:0:0:0:
