osu file format v9

[General]
AudioFilename: Sirio & D-Tox - Loudness War.mp3
AudioLeadIn: 1500
PreviewTime: 72993
Countdown: 0
SampleSet: Normal
StackLeniency: 0.5
Mode: 0
LetterboxInBreaks: 0
EpilepsyWarning: 1

[Editor]
DistanceSpacing: 0.8
BeatDivisor: 4
GridSize: 8

[Metadata]
Title:Loudness War
Artist:Sirio & D-Tox
Creator:-Lennox-
Version:Normal
Source:
Tags:hardtek Onosakihito

[Difficulty]
HPDrainRate:1
CircleSize:3
OverallDifficulty:3
ApproachRate:5
SliderMultiplier:1.2
SliderTickRate:1

[Events]
//Background and Video events
0,0,"The Darkness_wallpaper 06_1280x1024.jpg"
//Break Periods
2,36397,36710
2,97860,102271
//Storyboard Layer 0 (Background)
//Storyboard Layer 1 (Fail)
//Storyboard Layer 2 (Pass)
//Storyboard Layer 3 (Foreground)
Sprite,Foreground,Centre,"pulse.jpg.jpg",320,240 L,404,1 F,0,1,584,0.3,0 S,0,1,584,1,1.2 L,2745,1 F,0,1,584,0.3,0 S,0,1,584,1,1.2 L,5087,1 F,0,1,584,0.3,0 S,0,1,584,1,1.2 L,6258,1 F,0,1,584,0.3,0 S,0,1,584,1,1.2 L,6843,1 F,0,1,584,0.3,0 S,0,1,584,1,1.2 L,7428,1 F,0,1,584,0.3,0 S,0,1,584,1,1.2 L,9770,1 F,0,1,584,0.3,0 S,0,1,584,1,1.2 L,10940,1 F,0,1,584,0.3,0 S,0,1,584,1,1.2 L,12111,1 F,0,1,584,0.3,0 S,0,1,584,1,1.2 L,14453,1 F,0,1,584,0.3,0 S,0,1,584,1,1.2 L,15623,1 F,0,1,584,0.3,0 S,0,1,584,1,1.2 L,16209,1 F,0,1,584,0.3,0 S,0,1,584,1,1.2 L,16800,1 F,0,1,584,0.3,0 S,0,1,584,1,1.2 L,14453,1 F,0,1,584,0.3,0 S,0,1,584,1,1.2 L,35530,1 F,0,1,584,0.3,0 S,0,1,584,1,1.2 L,36117,1 F,0,1,584,0.3,0 S,0,1,584,1,1.2 L,37867,30 F,0,1,292,0.5,0 S,0,1,292,1,1.4 L,47233,79 F,0,1,292,0.5,0 S,0,1,292,1,1.4 L,70648,9 F,0,1,292,0.5,0 S,0,1,292,1,1.4 L,73575,1 F,0,1,584,0.5,0 S,0,1,584,1,1.3 L,75331,68 F,0,1,292,0.5,0 S,0,1,292,1,1.4 L,103428,1 F,0,1,2356,0.6,0 S,0,1,2356,1,1.6 L,122160,1 F,0,1,584,0.5,0 S,0,1,584,1,1.3 L,124501,1 F,0,1,584,0.5,0 S,0,1,584,1,1.3 L,126258,1 F,0,1,584,0.5,0 S,0,1,584,1,1.3 L,126843,1 F,0,1,584,0.5,0 S,0,1,584,1,1.3 L,128014,1 F,0,1,584,0.5,0 S,0,1,584,1,1.3 L,128599,1 F,0,1,584,0.5,0 S,0,1,584,1,1.3 L,129184,1 F,0,1,584,0.5,0 S,0,1,584,1,1.3 L,130355,10 F,0,1,48,0.5,0 S,0,1,48,1,1.3 L,135623,72 F,0,1,70,0.5,0 S,0,1,70,1,1.2 L,140892,1 F,0,1,2356,0.6,0 S,0,1,2356,1,1.6
Sprite,Foreground,Centre,"black.png",320,240 L,75331,68 F,0,1,292,0.5,0 L,135623,72 F,0,1,70,0.5,0 F,0,97575,103428,1,0 F,1,131526,135623,0.7,0.5
Sprite,Foreground,Centre,"white.png",320,240 L,84415,1 F,0,1,292,0.5,0 S,0,1,292,1,1.3
Sprite,Foreground,Centre,"o_3.png",320,240 L,404,1 F,0,1,584,0.5,0 S,0,1,584,1,1.3 L,2745,1 F,0,1,584,0.5,0 S,0,1,584,1,1.3 L,5087,1 F,0,1,584,0.5,0 S,0,1,584,1,1.3 L,6258,1 F,0,1,584,0.5,0 S,0,1,584,1,1.3 L,6843,1 F,0,1,584,0.5,0 S,0,1,584,1,1.3 L,7428,1 F,0,1,584,0.5,0 S,0,1,584,1,1.3 L,9770,1 F,0,1,584,0.5,0 S,0,1,584,1,1.3 L,10940,1 F,0,1,584,0.5,0 S,0,1,584,1,1.3 L,12111,1 F,0,1,584,0.5,0 S,0,1,584,1,1.3 L,14453,1 F,0,1,584,0.5,0 S,0,1,584,1,1.3 L,15623,1 F,0,1,584,0.5,0 S,0,1,584,1,1.3 L,16209,1 F,0,1,584,0.5,0 S,0,1,584,1,1.3 L,16800,1 F,0,1,584,0.5,0 S,0,1,584,1,1.3 L,14453,1 F,0,1,584,0.5,0 S,0,1,584,1,1.3 L,35530,1 F,0,1,584,0.5,0 S,0,1,584,1,1.3 L,36117,1 F,0,1,584,0.5,0 S,0,1,584,1,1.3 L,122160,1 F,0,1,584,0.5,0 S,0,1,584,1,1.3 L,124501,1 F,0,1,584,0.5,0 S,0,1,584,1,1.3 L,126258,1 F,0,1,584,0.5,0 S,0,1,584,1,1.3 L,126843,1 F,0,1,584,0.5,0 S,0,1,584,1,1.3 L,128014,1 F,0,1,584,0.5,0 S,0,1,584,1,1.3 L,128599,1 F,0,1,584,0.5,0 S,0,1,584,1,1.3 L,129184,1 F,0,1,584,0.5,0 S,0,1,584,1,1.3 L,131526,56 F,0,1,77,0.5,0
Sprite,Foreground,Centre,"o_1.png",320,240 F,0,95239,103428,1,0 S,2,97575,103428,1,1.2
//Storyboard Sound Samples
//Background Colour Transformations
3,100,0,0,0

[TimingPoints]
447,292.682926829268,4,1,1,40,1,0
6269,-100,4,1,1,60,0,0
7440,-100,4,1,1,40,0,0
15635,-100,4,1,1,60,0,0
16806,-100,4,1,1,40,0,0
21489,-100,4,1,1,60,0,0
23830,-100,4,1,1,40,0,0
37879,-100,4,1,1,60,0,0
39262,-100,4,1,1,45,0,0
39554,-100,4,1,1,30,0,0
39847,-100,4,1,1,60,0,0
45993,-133.333333333333,4,1,1,20,0,0
47276,-100,4,1,1,70,0,1
47306,-100,4,1,1,70,0,0
51562,-100,4,1,1,30,0,0
51782,-100,4,1,1,70,0,0
55652,-100,4,1,1,55,0,0
55871,-100,4,1,1,50,0,0
56164,-100,4,1,1,30,0,0
56603,-100,4,1,1,70,0,1
56676,-100,4,1,1,70,0,0
60708,-100,4,1,1,50,0,0
61001,-100,4,1,1,35,0,0
61294,-100,4,1,1,70,0,0
65233,-100,4,1,1,45,0,0
65896,-100,4,1,1,70,0,0
70653,-100,4,1,1,70,0,1
70727,-100,4,1,1,70,0,0
75373,-100,4,1,1,85,0,1
77018,-100,4,1,1,50,0,1
77164,-100,4,1,1,85,0,1
77599,-100,4,1,1,85,0,1
83457,-133.333333333333,4,1,1,20,0,1
84556,-100,4,1,1,85,0,1
88140,-100,4,1,1,50,0,1
88725,-100,4,1,1,35,0,1
89018,-100,4,1,1,35,0,0
89422,-100,4,1,1,85,0,1
93520,-100,4,1,1,20,0,0
103288,-133.333333333333,4,2,1,40,0,0
112721,-133.333333333333,4,1,1,60,0,0
113603,-133.333333333333,4,1,1,30,0,0
113749,-133.333333333333,4,1,1,60,0,0
115944,-133.333333333333,4,1,1,30,0,0
116091,-133.333333333333,4,1,1,60,0,0
118286,-133.333333333333,4,1,1,30,0,0
118432,-133.333333333333,4,1,1,60,0,0
120627,-133.333333333333,4,1,1,30,0,0
120782,-133.333333333333,4,1,1,60,0,0
121721,-100,4,1,1,60,0,0
126269,-100,4,1,1,80,0,0
126342,-100,4,1,1,20,0,0
126562,-100,4,1,1,80,0,0
131568,-100,4,1,1,60,0,1
132409,-100,4,1,1,45,0,1
133214,-100,4,1,1,30,0,1
133873,-100,4,1,1,20,0,1
134453,-100,4,1,1,40,0,1
134892,-100,4,1,1,20,0,1
135258,-100,4,1,1,20,0,1
135623,-100,4,1,1,70,0,1
135774,-100,4,1,1,35,0,1
138481,-100,4,1,1,60,0,1
140934,-100,4,1,1,85,0,0

[Colours]
Combo1 : 192,192,192
Combo2 : 187,0,0
Combo3 : 128,128,0
Combo4 : 128,128,255

[HitObjects]
168,112,447,2,0,B|184:40|248:16|328:48|336:120,1,240,4|0
256,288,1617,2,0,B|256:168,4,120,0|0|0|0|4
256,312,3959,5,0
256,216,4251,1,0
208,128,4544,1,0
304,128,4837,1,0
344,216,5129,6,0,B|320:288|256:304|192:288|160:208,1,240,4|0
256,56,6300,1,4
256,56,6886,1,4
256,56,7471,1,4
200,216,8642,6,0,B|256:256|312:216,2,120
256,80,9812,1,4
184,136,10983,6,0,B|144:192|192:272,1,120,12|0
256,312,11568,1,0
328,248,11861,2,0,B|360:192|320:120,1,120,0|12
136,128,13325,6,0,B|104:184|136:264,2,120,8|0|0
208,192,14203,2,0,B|240:128|208:56,1,120,0|12
376,192,15666,5,4
376,192,16251,1,4
376,192,16837,1,4
256,192,17422,12,0,18886
200,144,19471,6,0,B|256:104|312:144,1,120
312,240,20056,2,0,B|256:280|192:232,1,120
120,192,20642,2,0,B|72:176|48:216|0:176,2,120
120,192,21520,1,4
176,112,21812,5,0
256,56,22105,2,0,B|240:104|272:136|248:184,2,120
336,112,22983,1,0
392,192,23276,1,0
208,240,23861,6,0,B|208:320|128:320,1,120
112,224,24446,1,0
16,208,24739,2,0,B|16:128|96:128,1,120
112,224,25325,2,0,B|128:184|176:176|192:136,2,120,0|0|4
56,296,26203,1,4
256,192,26495,12,0,27959
168,192,28544,6,0,B|184:264|256:264,1,120
264,168,29129,1,0
360,144,29422,2,0,B|344:72|272:56,2,120
440,200,30300,6,0,B|440:288|368:304|296:288|296:200,1,240
296,200,31178,2,0,B|296:112|224:96|152:112|152:200,1,240
224,256,32056,1,0
224,256,32349,2,0,B|200:296|240:336|208:384,1,120
352,240,33227,6,0,B|400:192|352:120,2,120,4|0|0
272,184,34105,1,0
224,96,34398,2,0,B|120:120|120:240|240:264,2,240,0|0|4
392,192,36154,1,4
256,192,37910,5,0
256,192,38203,1,8
176,248,38495,1,0
96,192,38788,1,8
176,144,39081,2,0,B|176:72|256:72,3,120,0|8|0|2
264,168,40251,6,0,B|280:216|328:216|352:280,1,120,0|8
256,304,40837,1,0
176,248,41129,2,0,B|240:232|232:168|280:160,1,120,8|0
360,168,41715,5,12
432,112,42007,2,0,B|464:184|432:248,1,120,0|12
392,312,42593,2,0,B|344:376|272:336,1,120,0|8
320,256,43178,1,0
264,176,43471,6,0,B|216:80|104:136|72:16,2,240,8|8|12
192,240,44934,2,0,B|216:304|296:296,1,120,0|8
368,240,45520,2,0,B|384:176|352:112,1,120,0|8
272,184,46105,2,0,B|248:120|176:112|160:40,1,180
160,48,47276,5,4
72,64,47568,1,8
72,160,47861,1,0
120,240,48154,2,0,B|160:264|160:320|216:344,2,120,8|0|8
176,160,49032,5,0
248,96,49325,2,0,B|232:56|192:48|176:0,2,120,10|0|8
320,160,50203,1,0
400,216,50495,6,0,B|424:152|392:72,1,120,8|0
320,40,51081,2,0,B|256:8|184:48,1,120,8|0
136,104,51666,2,4,B|112:176|144:240,1,120,8|4
176,304,52251,5,8
272,304,52544,1,0
320,216,52837,2,0,B|336:160|312:96,1,120,8|0
240,160,53422,2,0,B|208:80|232:8|312:-8|360:32,1,240,8|12
328,120,54300,2,0,B|376:128|392:176|448:184,2,120,0|8|0
328,120,55178,5,12
288,208,55471,1,0
200,248,55764,1,8
104,248,56056,1,2
104,56,56642,6,0,B|176:56|176:144,1,120,4|8
175,133,57227,2,0,B|176:208|256:208,1,120,0|8
250,207,57812,2,0,B|328:208|328:120,1,120,0|12
327,134,58398,2,0,B|328:56|408:56,1,120,4|12
496,56,58983,5,0
448,136,59276,1,8
448,232,59568,1,0
400,312,59861,1,8
400,312,60154,2,0,B|336:312|296:256|296:256|296:256|256:312|184:320,1,240,0|10
104,320,61032,1,2
48,240,61325,1,8
104,160,61617,1,0
152,240,61910,6,0,B|224:240|224:152,1,120,8|0
256,72,62495,1,8
288,160,62788,2,0,B|288:240|360:240,1,120,0|8
376,144,63373,6,0,B|392:96|432:96|448:48,2,120,0|8|0
376,240,64251,1,8
288,272,64544,2,0,B|240:288|248:328|176:352,2,120,0|8|10
280,176,65422,6,0,B|248:88|160:128|120:-16,2,240,8|8|8
200,232,66886,2,0,B|224:304|296:288,1,120,0|8
368,232,67471,2,0,B|400:176|352:112,1,120,0|8
168,80,68349,6,0,B|104:104|104:176,1,120,8|0
200,168,68934,2,0,B|208:256|288:256,1,120,8|0
280,160,69520,2,0,B|344:144|344:72,2,120,12|12|12
112,256,70690,6,0,B|112:336|184:336,1,120,8|0
192,240,71276,2,0,B|192:160|280:160,1,120,8|0
272,256,71861,1,8
336,328,72154,1,0
400,256,72446,1,8
336,184,72739,2,0,B|320:128|352:112|344:48,2,120,0|4|4
256,192,73617,12,12,75373
256,168,75666,6,0,B|280:128|240:88|264:48,2,120,0|8|0
160,184,76544,2,0,B|192:248|256:272|320:248|352:184,2,240,8|8|8
88,120,78007,6,0,B|88:40|168:48,1,120,0|8
200,136,78593,1,0
256,56,78886,1,8
312,136,79178,1,4
352,48,79471,2,0,B|424:48|424:136,1,120,12|4
408,224,80056,5,8
352,304,80349,2,0,B|288:304|256:248|256:248|216:304|128:304,1,240,0|4
128,208,81227,1,8
152,120,81520,2,0,B|232:120|256:168|256:168|272:120|360:120,1,240,0|4
357,120,82398,1,8
440,64,82690,2,0,B|504:96|480:184,1,120,0|8
448,256,83276,1,0
352,248,83568,6,0,B|328:176|216:176|200:32,1,269.999991953373,12|12
104,56,84739,5,0
48,136,85032,1,8
64,232,85325,1,0
128,304,85617,1,8
192,232,85910,2,0,B|208:184|264:184|280:144,1,120,0|8
376,152,86495,2,0,B|392:184|451:193|467:249,1,120,0|8
368,264,87081,5,0
320,352,87373,1,8
272,264,87666,1,0
176,248,87959,2,0,B|128:208|128:128,1,120,8|0
224,152,88544,2,0,B|224:88|168:40,2,120,8|0|8
224,152,89422,6,0,B|264:128|296:168|352:152,1,120,4|8
360,56,90007,1,0
432,128,90300,1,8
432,224,90593,1,0
360,288,90886,1,8
344,192,91178,6,0,B|264:136|200:224|112:152,2,240,0|4|4
440,168,92642,2,0,B|464:240|456:320|384:336|320:288,1,240,8|8
256,192,93520,12,0,94837
256,192,94983,12,0,97617
184,296,103471,6,0,B|208:336|256:376|312:336|328:288,1,179.999994635582,0|2
256,264,104349,1,2
256,184,105812,6,0,B|240:144|264:112|248:80,2,89.9999973177911,0|0|2
256,256,106690,1,2
408,112,108154,6,0,B|472:152|472:240|408:264,1,179.999994635582,0|2
376,192,109032,1,2
80,176,110495,6,0,B|80:56|200:56,1,179.999994635582,0|2
326,56,111666,2,0,B|432:56|432:176,1,179.999994635582,0|2
328,264,112837,6,0,B|303:231|252:192|196:232|183:271,1,179.999994635582,0|2
256,304,113715,1,2
256,96,115178,6,0,B|240:56|264:24|248:-8,2,89.9999973177911,0|0|2
256,168,116056,1,2
96,112,117520,6,0,B|32:152|32:240|96:264,1,179.999994635582,0|2
128,192,118398,1,2
152,312,119861,6,0,B|152:192|272:192,1,179.999994635582,0|2
256,280,120739,1,2
256,368,121032,2,0,B|368:368|352:240,1,179.999994635582,0|0
256,192,121910,2,0,B|256:152|256:152|256:144|256:144|256:136|256:136|256:120|256:120|256:64,1,120
256,344,123373,6,0,B|224:320|176:368|136:320,2,120
256,344,124251,2,0,B|288:320|336:368|376:320,1,120
256,48,125715,5,0
256,144,126007,1,0
176,200,126300,2,0,B|184:272|256:304|328:272|336:192,1,240,4|4
256,360,128056,5,4
160,192,128642,1,4
352,192,129227,1,4
256,272,130398,6,0,B|256:304,8,30,0|0|0|0|0|0|0|0|4
256,176,131276,1,4
256,192,131568,12,0,135666
256,192,136251,6,0,B|208:160|168:192|128:160,2,120,0|8|0
256,192,137129,2,0,B|304:168|344:200|376:168,2,120,8|0|8
256,192,138007,2,0,B|232:240|264:288|240:336,2,120,0|8|4
184,136,138886,5,4
256,72,139178,1,4
328,136,139471,1,4
256,192,139764,12,4,140934
