osu file format v9

[General]
AudioFilename: Sirio & D-Tox - Loudness War.mp3
AudioLeadIn: 1500
PreviewTime: 72993
Countdown: 0
SampleSet: Normal
StackLeniency: 0.5
Mode: 0
LetterboxInBreaks: 0
EpilepsyWarning: 1

[Editor]
Bookmarks: 134458
DistanceSpacing: 1.2
BeatDivisor: 4
GridSize: 8

[Metadata]
Title:Loudness War
Artist:Sirio & D-Tox
Creator:-Lennox-
Version:Insane
Source:
Tags:hardtek Onosakihito

[Difficulty]
HPDrainRate:7
CircleSize:4
OverallDifficulty:8
ApproachRate:9
SliderMultiplier:1.59999990463257
SliderTickRate:2

[Events]
//Background and Video events
0,0,"The Darkness_wallpaper 06_1280x1024.jpg"
//Break Periods
2,97860,102871
//Storyboard Layer 0 (Background)
//Storyboard Layer 1 (Fail)
//Storyboard Layer 2 (Pass)
//Storyboard Layer 3 (Foreground)
Sprite,Foreground,Centre,"pulse.jpg.jpg",320,240 L,468,1 F,0,1,584,0.3,0 S,0,1,584,1,1.2 L,2809,1 F,0,1,584,0.3,0 S,0,1,584,1,1.2 L,5151,1 F,0,1,584,0.3,0 S,0,1,584,1,1.2 L,6322,1 F,0,1,584,0.3,0 S,0,1,584,1,1.2 L,6907,1 F,0,1,584,0.3,0 S,0,1,584,1,1.2 L,7492,1 F,0,1,584,0.3,0 S,0,1,584,1,1.2 L,9834,1 F,0,1,584,0.3,0 S,0,1,584,1,1.2 L,11004,1 F,0,1,584,0.3,0 S,0,1,584,1,1.2 L,12175,1 F,0,1,584,0.3,0 S,0,1,584,1,1.2 L,14517,1 F,0,1,584,0.3,0 S,0,1,584,1,1.2 L,15687,1 F,0,1,584,0.3,0 S,0,1,584,1,1.2 L,16273,1 F,0,1,584,0.3,0 S,0,1,584,1,1.2 L,16864,1 F,0,1,584,0.3,0 S,0,1,584,1,1.2 L,14517,1 F,0,1,584,0.3,0 S,0,1,584,1,1.2 L,35594,1 F,0,1,584,0.3,0 S,0,1,584,1,1.2 L,36181,1 F,0,1,584,0.3,0 S,0,1,584,1,1.2 L,37931,30 F,0,1,292,0.5,0 S,0,1,292,1,1.4 L,47297,79 F,0,1,292,0.5,0 S,0,1,292,1,1.4 L,70712,9 F,0,1,292,0.5,0 S,0,1,292,1,1.4 L,73639,1 F,0,1,584,0.5,0 S,0,1,584,1,1.3 L,75395,68 F,0,1,292,0.5,0 S,0,1,292,1,1.4 L,103492,1 F,0,1,2356,0.6,0 S,0,1,2356,1,1.6 L,122224,1 F,0,1,584,0.5,0 S,0,1,584,1,1.3 L,124565,1 F,0,1,584,0.5,0 S,0,1,584,1,1.3 L,126322,1 F,0,1,584,0.5,0 S,0,1,584,1,1.3 L,126907,1 F,0,1,584,0.5,0 S,0,1,584,1,1.3 L,128078,1 F,0,1,584,0.5,0 S,0,1,584,1,1.3 L,128663,1 F,0,1,584,0.5,0 S,0,1,584,1,1.3 L,129248,1 F,0,1,584,0.5,0 S,0,1,584,1,1.3 L,130419,10 F,0,1,48,0.5,0 S,0,1,48,1,1.3 L,135687,72 F,0,1,70,0.5,0 S,0,1,70,1,1.2 L,140956,1 F,0,1,2356,0.6,0 S,0,1,2356,1,1.6
Sprite,Foreground,Centre,"black.png",320,240 L,75395,68 F,0,1,292,0.5,0 L,135687,72 F,0,1,70,0.5,0 F,0,97639,103492,1,0 F,1,131590,135687,0.7,0.5
Sprite,Foreground,Centre,"white.png",320,240 L,84479,1 F,0,1,292,0.5,0 S,0,1,292,1,1.3
Sprite,Foreground,Centre,"o_3.png",320,240 L,468,1 F,0,1,584,0.5,0 S,0,1,584,1,1.3 L,2809,1 F,0,1,584,0.5,0 S,0,1,584,1,1.3 L,5151,1 F,0,1,584,0.5,0 S,0,1,584,1,1.3 L,6322,1 F,0,1,584,0.5,0 S,0,1,584,1,1.3 L,6907,1 F,0,1,584,0.5,0 S,0,1,584,1,1.3 L,7492,1 F,0,1,584,0.5,0 S,0,1,584,1,1.3 L,9834,1 F,0,1,584,0.5,0 S,0,1,584,1,1.3 L,11004,1 F,0,1,584,0.5,0 S,0,1,584,1,1.3 L,12175,1 F,0,1,584,0.5,0 S,0,1,584,1,1.3 L,14517,1 F,0,1,584,0.5,0 S,0,1,584,1,1.3 L,15687,1 F,0,1,584,0.5,0 S,0,1,584,1,1.3 L,16273,1 F,0,1,584,0.5,0 S,0,1,584,1,1.3 L,16864,1 F,0,1,584,0.5,0 S,0,1,584,1,1.3 L,14517,1 F,0,1,584,0.5,0 S,0,1,584,1,1.3 L,35594,1 F,0,1,584,0.5,0 S,0,1,584,1,1.3 L,36181,1 F,0,1,584,0.5,0 S,0,1,584,1,1.3 L,122224,1 F,0,1,584,0.5,0 S,0,1,584,1,1.3 L,124565,1 F,0,1,584,0.5,0 S,0,1,584,1,1.3 L,126322,1 F,0,1,584,0.5,0 S,0,1,584,1,1.3 L,126907,1 F,0,1,584,0.5,0 S,0,1,584,1,1.3 L,128078,1 F,0,1,584,0.5,0 S,0,1,584,1,1.3 L,128663,1 F,0,1,584,0.5,0 S,0,1,584,1,1.3 L,129248,1 F,0,1,584,0.5,0 S,0,1,584,1,1.3 L,131590,56 F,0,1,77,0.5,0
Sprite,Foreground,Centre,"o_1.png",320,240 F,0,95303,103492,1,0 S,2,97639,103492,1,1.2
//Storyboard Sound Samples
//Background Colour Transformations
3,100,0,0,0

[TimingPoints]
447,292.682926829268,4,1,1,60,1,0
1586,-100,4,1,1,50,0,0
1879,-100,4,1,1,40,0,0
2172,-100,4,1,1,30,0,0
2678,-100,4,1,1,60,0,0
3928,-100,4,1,1,50,0,0
4220,-100,4,1,1,40,0,0
4513,-100,4,1,1,29,0,0
5019,-133.333333333333,4,1,1,60,0,0
5684,-100,4,1,1,60,0,0
21775,-100,4,1,1,30,0,0
23092,-100,4,1,1,40,0,0
25214,-100,4,1,1,50,0,0
28361,-100,4,1,1,45,0,0
30263,-133.333333333333,4,1,1,60,0,0
30556,-100,4,1,1,60,0,0
37653,-100,4,1,1,70,0,0
39262,-100,4,1,1,45,0,0
39554,-100,4,1,1,30,0,0
39847,-100,4,1,1,60,0,0
46068,-100,4,1,1,40,0,0
47160,-100,4,1,1,70,0,1
47306,-100,4,1,1,70,0,0
51702,-100,4,1,1,40,0,0
51849,-100,4,1,1,70,0,0
56605,-100,4,1,1,70,0,1
56678,-100,4,1,1,70,0,0
65233,-100,4,1,1,45,0,0
65599,-100,4,1,1,20,0,0
65745,-100,4,1,1,70,0,0
70653,-100,4,1,1,70,0,1
70727,-100,4,1,1,70,0,0
75373,-100,4,1,1,75,0,1
76867,-100,4,1,1,50,0,1
77160,-100,4,1,1,35,0,1
77453,-100,4,1,1,70,0,1
77599,-100,4,1,1,75,0,1
83458,-100,4,1,1,40,0,1
83892,-100,4,1,1,55,0,1
84038,-100,4,1,1,40,0,1
84184,-100,4,1,1,40,0,1
84697,-100,4,1,1,75,0,1
86824,-100,4,1,1,40,0,1
86970,-100,4,1,1,70,0,1
88140,-100,4,1,1,50,0,1
89018,-100,4,1,1,75,0,1
89310,-100,4,1,1,70,0,1
92349,-100,4,1,1,50,0,1
92934,-100,4,1,1,30,0,1
93520,-100,4,1,1,20,0,0
103361,-133.333333333333,4,2,1,40,0,0
112721,-133.333333333333,4,1,1,60,0,0
113603,-133.333333333333,4,1,1,30,0,0
115066,-133.333333333333,4,1,1,60,0,0
115944,-133.333333333333,4,1,1,30,0,0
117408,-133.333333333333,4,1,1,60,0,0
118286,-133.333333333333,4,1,1,20,0,0
119749,-133.333333333333,4,1,1,60,0,0
120627,-133.333333333333,4,1,1,20,0,0
120774,-133.333333333333,4,1,1,60,0,0
121721,-100,4,1,1,60,0,0
131568,-100,4,1,1,60,0,1
134453,-100,4,1,1,40,0,1
134892,-100,4,1,1,20,0,1
135258,-100,4,1,1,20,0,1
135666,-100,4,1,1,30,0,0
135702,-100,4,1,1,30,0,1
135993,-100,4,1,1,40,0,1
136286,-100,4,1,1,50,0,1
136579,-100,4,1,1,60,0,1
136871,-100,4,1,1,70,0,1
137164,-100,4,1,1,80,0,1
137457,-100,4,1,1,85,0,1
137749,-100,4,1,1,90,0,1
138481,-100,4,1,1,40,0,1
140934,-100,4,1,1,100,0,0

[Colours]
Combo1 : 192,192,192
Combo2 : 187,0,0
Combo3 : 128,128,0
Combo4 : 128,128,255

[HitObjects]
248,352,447,2,0,B|328:248|192:120|280:32,1,319.999980926514,4|0
112,112,1617,2,0,B|80:192|112:280,1,159.999990463257
400,272,2203,2,0,B|432:192|400:104,1,159.999990463257,0|2
256,192,2788,1,4
256,128,3959,6,0,B|256:72|304:64,1,79.9999952316285
320,192,4251,2,0,B|376:192|384:240,1,79.9999952316285
256,256,4544,2,0,B|256:312|208:320,1,79.9999952316285
192,192,4837,2,0,B|136:192|128:144,2,79.9999952316285
96,192,6300,5,4
416,192,6886,1,4
256,32,7471,2,0,B|288:168|200:256|264:360,1,319.999980926514,4|0
80,80,8642,1,0
144,224,8934,2,0,B|222:245|302:221,1,159.999990463257
376,80,9520,2,0,B|297:58|217:82,1,159.999990463257,0|4
256,256,10983,6,0,B|256:344,1,79.9999952316285,4|0
320,192,11276,2,0,B|408:192,1,79.9999952316285
256,128,11568,2,0,B|256:40,1,79.9999952316285
192,192,11861,2,0,B|104:192,2,79.9999952316285,2|0|0
256,304,13325,5,0
168,272,13471,1,0
120,192,13617,1,0
168,104,13764,1,0
256,72,13910,1,0
344,104,14056,1,0
392,192,14203,1,0
344,272,14349,1,0
256,304,14495,1,0
32,32,15666,5,0
480,352,16251,1,0
256,192,16837,5,0
256,192,17129,1,0
256,192,17422,2,0,B|240:256|288:280|256:360,1,159.999990463257
176,48,18007,2,0,B|256:16|336:48,1,159.999990463257
336,336,18593,2,0,B|256:368|176:336,1,159.999990463257
256,192,19178,12,4,21520
80,128,21812,2,0,B|160:104|248:136,1,159.999990463257
280,256,22398,2,0,B|360:280|448:248,1,159.999990463257
192,368,22983,2,0,B|168:288|200:200,1,159.999990463257
320,168,23568,2,0,B|344:88|312:0,1,159.999990463257
256,192,24446,1,0
256,192,24593,12,0,25617
192,232,25910,5,0
320,232,26056,1,0
256,120,26203,1,4
256,192,26495,12,0,28544
256,272,28837,1,0
200,192,28983,1,0
256,112,29129,1,0
312,192,29276,1,0
256,272,29422,6,0,B|208:344,1,79.9999952316285,8|0
200,192,29715,2,0,B|136:136,1,79.9999952316285,0|0
256,112,30007,2,0,B|304:48,1,79.9999952316285,8|0
312,192,30300,2,0,B|400:280,1,119.999989271164,0|10
216,336,30886,5,0
96,192,31178,1,8
40,112,31325,1,0
96,192,31471,2,0,B|168:144|248:192,1,159.999990463257,0|8
440,192,32056,1,0
480,280,32203,1,0
440,192,32349,2,0,B|368:240|288:192,1,159.999990463257,8|4
256,384,32934,1,4
256,192,33227,5,8
160,192,33373,2,0,B|72:192,1,79.9999952316285
352,192,33666,2,0,B|440:192,1,79.9999952316285,0|8
384,104,33959,1,0
296,136,34105,1,0
256,48,34251,1,0
216,136,34398,1,8
128,104,34544,1,0
80,192,34690,6,0,B|16:272,1,79.9999952316285
256,240,34983,2,0,B|256:336,1,79.9999952316285,8|0
432,192,35276,2,0,B|496:272,1,79.9999952316285
481,254,35568,1,12
80,192,36154,1,4
256,192,36739,12,0,37910
120,72,38056,5,0
120,72,38203,2,0,B|216:72,1,79.9999952316285,8|0
256,152,38495,1,0
392,312,38642,2,0,B|296:312,1,79.9999952316285,0|8
256,232,38934,1,0
168,192,39081,6,0,B|80:192,2,79.9999952316285,0|0|8
264,192,39520,1,0
376,192,39666,1,0
264,192,39812,1,0
376,192,39959,1,10
320,48,40105,5,4
224,40,40251,2,0,B|136:16|72:96,1,159.999990463257,0|8
8,264,40837,2,0,B|96:288|160:208,1,159.999990463257,0|8
248,216,41276,1,0
312,288,41422,1,0
376,216,41568,1,0
312,72,41715,5,8
112,320,42007,1,0
312,72,42300,1,8
112,320,42593,5,0
64,240,42739,1,0
112,160,42886,1,8
168,240,43032,2,0,B|224:184|224:80,1,159.999990463257
312,120,43471,2,0,B|352:48,1,79.9999952316285,8|0
416,120,43764,5,0
416,120,43910,1,0
448,208,44056,2,0,B|416:248|368:248,1,79.9999952316285,8|0
272,328,44349,2,0,B|296:288|296:240,1,79.9999952316285
240,56,44642,2,0,B|216:96|216:144,1,79.9999952316285,8|8
144,200,44934,2,0,B|168:240|216:248,1,79.9999952316285
296,288,45227,5,8
384,328,45373,1,0
472,288,45520,1,0
496,192,45666,1,0
472,96,45812,1,8
384,64,45959,1,0
384,192,46105,5,0
384,192,46178,1,0
384,192,46251,1,0
384,192,46325,1,0
384,192,46398,1,0
384,192,46471,1,0
384,192,46544,1,0
384,192,46617,1,0
384,192,46690,1,0
112,192,47276,5,8
184,128,47422,1,0
256,192,47568,1,0
184,256,47715,1,0
112,320,47861,2,0,B|184:368|264:320,1,159.999990463257,8|0
352,344,48300,6,0,B|392:312|392:272,1,79.9999952316285,0|8
360,184,48593,2,0,B|320:215|320:250,1,79.9999952316285
152,200,48886,2,0,B|191:168|191:133,1,79.9999952316285,0|8
160,40,49178,2,0,B|120:72|120:112,1,79.9999952316285,0|2
120,106,49398,1,2
120,106,49471,1,0
24,104,49617,5,8
40,200,49764,1,0
88,288,49910,1,0
88,384,50056,1,0
176,352,50203,2,0,B|256:312,1,79.9999952316285,8|0
192,240,50495,2,0,B|256:184,1,79.9999952316285
176,136,50788,2,0,B|216:64,1,79.9999952316285,8|0
296,120,51081,5,0
368,56,51227,1,0
464,56,51373,1,8
424,144,51520,2,0,B|344:168|304:256,1,159.999990463257,0|0
288,344,51959,2,0,B|224:280,1,79.9999952316285,8|0
104,264,52251,2,0,B|168:328,1,79.9999952316285
160,192,52544,2,0,B|96:128,1,79.9999952316285,8|0
103,135,52837,5,0
168,64,52983,1,0
264,64,53129,1,8
328,136,53276,2,0,B|368:128|392:88,1,79.9999952316285
328,224,53568,2,0,B|288:224|264:264,1,79.9999952316285,0|8
344,320,53861,1,0
440,320,54007,1,0
440,320,54081,1,0
440,320,54154,1,0
440,224,54300,1,8
376,112,54446,6,0,B|304:184|200:144,1,159.999990463257
144,104,54886,1,8
144,200,55032,1,0
56,152,55178,1,0
56,248,55325,2,0,B|64:304|104:320,1,79.9999952316285,0|8
192,336,55617,2,0,B|240:328|256:272,1,79.9999952316285
256,192,55910,1,0
256,96,56056,1,8
336,280,56349,5,0
176,280,56495,1,0
256,144,56642,1,8
72,192,56788,1,0
72,192,56934,6,0,B|112:176|128:136,1,79.9999952316285
176,224,57227,2,0,B|216:224|248:264,1,79.9999952316285,8|0
304,184,57520,1,0
376,240,57666,1,0
384,336,57812,1,8
472,296,57959,1,0
464,200,58105,2,0,B|432:104|344:72,1,159.999990463257,0|8
288,24,58544,6,0,B|232:88,1,79.9999952316285,0|8
235,84,58837,1,0
104,88,58983,2,0,B|152:152,1,79.9999952316285,8|0
72,200,59276,1,0
160,240,59422,1,0
184,336,59568,2,0,B|232:320|248:272,1,79.9999952316285,8|0
288,200,59861,2,0,B|336:216|352:264,1,79.9999952316285
432,304,60154,6,0,B|464:216|400:128,1,159.999990463257,8|0
496,104,60593,2,0,B|440:40,1,79.9999952316285,0|8
352,24,60886,1,0
256,48,61032,1,8
256,344,61325,6,0,B|256:256,1,79.9999952316285,8|0
160,264,61617,1,0
160,168,61764,1,0
256,144,61910,1,8
256,48,62056,1,0
336,104,62203,2,0,B|400:160,1,79.9999952316285
400,288,62495,2,0,B|336:224,1,79.9999952316285,8|0
216,224,62788,2,0,B|280:288,1,79.9999952316285
200,344,63081,5,8
112,312,63227,1,0
56,232,63373,2,2,B|64:136|144:96,1,159.999990463257,2|8
200,176,63812,2,0,B|272:128|280:40,1,159.999990463257
368,80,64251,2,0,B|384:168,1,79.9999952316285,8|0
400,256,64544,1,0
400,256,64690,1,0
304,240,64837,1,8
256,320,64983,1,0
96,320,65129,6,2,B|56:288|56:240,1,79.9999952316285,2|0
160,128,65422,2,2,B|200:160|200:208,1,79.9999952316285,10|0
360,200,65715,2,2,B|320:168|320:120,1,79.9999952316285,2|0
424,8,66007,2,4,B|464:40|464:88,1,79.9999952316285,12|0
464,168,66300,1,0
416,248,66446,1,0
416,344,66593,1,8
320,344,66739,1,0
248,288,66886,6,0,B|200:264|200:208,1,79.9999952316285
256,152,67178,2,0,B|304:128|304:72,1,79.9999952316285,8|0
344,176,67471,2,0,B|408:232,1,79.9999952316285
320,272,67764,1,10
288,312,67837,1,2
256,352,67910,1,2
160,352,68056,2,0,B|80:320|48:232,1,159.999990463257,0|8
176,216,68495,6,0,B|136:144,1,79.9999952316285
264,152,68788,2,0,B|304:224,1,79.9999952316285,0|8
368,112,69081,2,0,B|328:40,2,79.9999952316285
416,200,69520,1,8
360,280,69666,1,0
360,280,69739,1,2
360,280,69812,1,0
264,280,69959,1,0
264,280,70032,1,2
264,280,70105,1,8
64,192,70690,5,8
160,184,70837,1,0
216,104,70983,1,0
264,184,71129,2,0,B|368:216|416:104,1,159.999990463257
464,208,71568,6,0,B|416:280,1,79.9999952316285
360,352,71861,1,8
360,352,72007,1,0
264,328,72154,1,0
176,288,72300,2,0,B|224:208,2,79.9999952316285,0|8|0
56,256,72739,2,0,B|8:328,2,79.9999952316285
256,24,73617,1,0
256,192,74203,12,0,75373
256,328,75520,5,0
176,272,75666,1,8
176,176,75812,1,0
256,232,75959,2,0,B|296:208|296:160,1,79.9999952316285
408,112,76251,2,0,B|368:136|368:184,1,79.9999952316285,8|0
456,216,76544,1,0
408,304,76690,1,0
320,336,76837,1,8
320,240,76983,1,0
240,288,77129,6,0,B|144:264|128:176,1,159.999990463257,0|10
40,216,77568,2,0,B|32:128,1,79.9999952316285,2|0
24,40,77861,1,0
24,40,78007,1,8
120,56,78154,1,0
216,56,78300,2,0,B|288:96,1,79.9999952316285
416,104,78593,2,0,B|376:184,1,79.9999952316285,8|0
368,304,78886,2,0,B|296:264,1,79.9999952316285
248,344,79178,5,8
8,136,79471,1,0
248,344,79764,1,8
8,136,80056,1,0
72,208,80203,6,0,B|104:184|104:136,1,79.9999952316285,0|8
184,192,80495,2,0,B|224:208|224:264,1,79.9999952316285
224,352,80788,1,0
320,352,80934,1,8
344,256,81081,1,0
440,240,81227,2,0,B|416:144|336:96,1,159.999990463257,0|8
304,24,81666,2,0,B|240:72,1,79.9999952316285
160,120,81959,5,0
32,32,82105,1,2
160,120,82251,1,8
96,192,82398,2,0,B|96:280,1,79.9999952316285
176,320,82690,1,8
240,248,82837,1,0
304,320,82983,2,0,B|384:320,1,79.9999952316285
480,320,83276,1,8
424,240,83422,1,0
328,216,83568,5,4
328,200,83642,1,4
328,184,83715,1,4
328,168,83788,1,4
328,152,83861,1,4
328,136,83934,1,4
328,120,84007,1,4
328,104,84081,1,4
328,88,84154,1,4
176,144,84300,6,0,B|80:144,1,79.9999952316285,0|8
176,280,84593,2,0,B|272:280,1,79.9999952316285
328,344,84886,2,0,B|384:280,1,79.9999952316285,0|8
480,288,85178,2,0,B|480:192,1,79.9999952316285
440,120,85471,1,0
472,32,85617,1,8
384,64,85764,1,0
288,72,85910,6,0,B|208:56|128:128,1,159.999990463257,0|8
48,144,86349,2,0,B|56:192|96:216,1,79.9999952316285
96,304,86642,2,0,B|152:320|176:280,1,79.9999952316285,0|10
240,224,86934,1,2
256,128,87081,1,0
256,32,87227,1,0
336,88,87373,2,0,B|368:176|456:200,1,159.999990463257,8|0
360,248,87812,2,0,B|408:320,1,79.9999952316285,0|8
404,314,88105,1,0
216,344,88251,5,0
200,344,88398,1,0
184,344,88544,1,8
168,344,88690,1,0
152,344,88837,1,0
136,344,88983,1,0
120,344,89129,2,0,B|96:264|128:176,1,159.999990463257,8|0
56,120,89568,6,0,B|144:96,1,79.9999952316285,0|8
224,72,89861,1,0
304,128,90007,1,0
400,128,90154,1,0
352,208,90300,2,0,B|352:288,1,79.9999952316285,8|0
240,232,90593,2,0,B|240:144,1,79.9999952316285
128,208,90886,2,0,B|128:288,1,79.9999952316285,8|0
128,208,91178,1,0
192,136,91325,1,0
256,64,91471,5,8
256,64,91544,1,0
256,64,91617,1,0
256,192,91764,2,0,B|256:360,1,159.999990463257,0|8
328,104,92349,2,0,B|496:104,1,159.999990463257,0|8
184,104,92934,2,0,B|16:104,1,159.999990463257,0|8
256,192,93520,12,0,94837
256,192,94983,12,0,97617
432,200,103471,6,0,B|416:352|248:320,1,239.999978542329,0|2
296,184,104349,1,0
256,184,105812,6,0,B|256:56,2,119.999989271164,2|0|2
256,328,106690,1,0
80,184,108154,6,0,B|104:24|264:64,1,239.999978542329,2|2
208,200,109032,1,0
176,112,110495,6,0,B|240:88|256:24|256:24|272:88|344:112,1,239.999978542329,2|2
256,232,111666,2,0,B|256:352,2,119.999989271164,2|0|0
256,40,112544,1,2
80,200,112837,6,0,B|96:352|264:320,1,239.999978542329,0|2
216,184,113715,1,0
256,184,115178,6,0,B|256:56,2,119.999989271164,0|0|2
256,328,116056,1,2
432,184,117520,6,0,B|408:24|248:64,1,239.999978542329,0|2
304,200,118398,1,2
176,272,119861,6,0,B|240:296|256:360|256:360|272:296|344:272,1,239.999978542329,0|2
256,152,120739,1,0
256,152,121032,2,0,B|256:32,2,119.999989271164
160,320,121910,1,0
360,320,122203,1,0
184,200,123373,6,0,B|256:272|336:192,1,159.999990463257
256,96,123959,2,0,B|256:16,2,79.9999952316285,2|0|2
256,160,124398,2,0,B|256:248,1,79.9999952316285
256,200,125715,5,0
128,200,126007,2,0,B|160:112|128:40,1,159.999990463257
376,200,126593,2,0,B|344:287|374:355,1,159.999990463257,0|4
48,40,128056,5,0
256,192,128642,1,0
464,352,129227,1,0
256,296,130398,6,0,B|256:336,8,39.9999976158142
448,296,131276,1,0
480,192,131568,5,0
472,192,131642,1,0
464,192,131715,1,0
456,192,131788,1,0
448,192,131861,1,0
440,192,131934,1,0
432,192,132007,1,0
424,192,132081,1,0
416,192,132154,1,0
408,192,132227,1,0
400,192,132300,5,0
392,192,132373,1,0
384,192,132446,1,0
376,192,132520,1,0
368,192,132593,1,0
360,192,132666,1,0
352,192,132739,1,0
344,192,132812,1,0
336,192,132886,1,0
328,192,132959,1,0
320,192,133032,1,0
312,192,133105,1,0
304,192,133178,1,0
296,192,133251,1,0
288,192,133325,1,0
280,192,133398,1,0
272,192,133471,5,0
264,192,133544,1,0
256,192,133617,1,0
248,192,133690,1,0
240,192,133764,1,0
232,192,133837,1,0
224,192,133910,1,0
216,192,133983,1,0
208,192,134056,1,0
200,192,134129,1,0
192,192,134203,1,0
184,192,134276,1,0
176,192,134349,1,0
168,192,134422,1,0
160,192,134495,1,0
152,192,134568,5,0
144,192,134642,1,0
136,192,134715,1,0
128,192,134788,1,0
120,192,134861,1,0
112,192,134934,1,0
104,192,135007,1,0
96,192,135081,1,0
88,192,135154,1,0
80,192,135227,1,0
72,192,135300,1,0
64,192,135373,1,0
40,272,135520,6,0,B|56:328|128:336,1,79.9999952316285
176,328,135812,2,0,B|212:328|228:272,1,79.9999952316285,0|0
284,109,136105,2,0,B|299:55|336:56,1,79.9999952316285,0|0
419,56,136398,2,0,B|456:56|472:112,1,79.9999952316285
472,272,136690,6,0,B|456:328|384:336,1,79.9999952316285
336,328,136983,2,0,B|299:328|283:272,1,79.9999952316285,0|0
227,109,137276,2,0,B|212:55|176:56,1,79.9999952316285,0|0
92,56,137568,2,0,B|56:56|40:112,1,79.9999952316285
40,272,137861,6,0,B|56:328|128:336,1,79.9999952316285
176,328,138154,2,0,B|212:328|228:272,1,79.9999952316285,0|0
256,120,138446,6,0,B|264:88|264:24,1,79.9999952316285,0|4
256,344,138886,1,0
472,192,139178,1,4
32,192,139471,1,0
256,192,139764,12,4,140934
