osu file format v9

[General]
AudioFilename: Sirio & D-Tox - Loudness War.mp3
AudioLeadIn: 1500
PreviewTime: 72993
Countdown: 0
SampleSet: Normal
StackLeniency: 0.5
Mode: 0
LetterboxInBreaks: 0
EpilepsyWarning: 1

[Editor]
DistanceSpacing: 0.8
BeatDivisor: 4
GridSize: 8

[Metadata]
Title:Loudness War
Artist:Sirio & D-Tox
Creator:-Lennox-
Version:Hard
Source:
Tags:hardtek Onosakihito

[Difficulty]
HPDrainRate:5
CircleSize:4
OverallDifficulty:6
ApproachRate:7
SliderMultiplier:1.39999990463257
SliderTickRate:2

[Events]
//Background and Video events
0,0,"The Darkness_wallpaper 06_1280x1024.jpg"
//Break Periods
2,97860,102571
//Storyboard Layer 0 (Background)
//Storyboard Layer 1 (Fail)
//Storyboard Layer 2 (Pass)
//Storyboard Layer 3 (Foreground)
Sprite,Foreground,Centre,"pulse.jpg.jpg",320,240 L,404,1 F,0,1,584,0.3,0 S,0,1,584,1,1.2 L,2745,1 F,0,1,584,0.3,0 S,0,1,584,1,1.2 L,5087,1 F,0,1,584,0.3,0 S,0,1,584,1,1.2 L,6258,1 F,0,1,584,0.3,0 S,0,1,584,1,1.2 L,6843,1 F,0,1,584,0.3,0 S,0,1,584,1,1.2 L,7428,1 F,0,1,584,0.3,0 S,0,1,584,1,1.2 L,9770,1 F,0,1,584,0.3,0 S,0,1,584,1,1.2 L,10940,1 F,0,1,584,0.3,0 S,0,1,584,1,1.2 L,12111,1 F,0,1,584,0.3,0 S,0,1,584,1,1.2 L,14453,1 F,0,1,584,0.3,0 S,0,1,584,1,1.2 L,15623,1 F,0,1,584,0.3,0 S,0,1,584,1,1.2 L,16209,1 F,0,1,584,0.3,0 S,0,1,584,1,1.2 L,16800,1 F,0,1,584,0.3,0 S,0,1,584,1,1.2 L,14453,1 F,0,1,584,0.3,0 S,0,1,584,1,1.2 L,35530,1 F,0,1,584,0.3,0 S,0,1,584,1,1.2 L,36117,1 F,0,1,584,0.3,0 S,0,1,584,1,1.2 L,37867,30 F,0,1,292,0.5,0 S,0,1,292,1,1.4 L,47233,79 F,0,1,292,0.5,0 S,0,1,292,1,1.4 L,70648,9 F,0,1,292,0.5,0 S,0,1,292,1,1.4 L,73575,1 F,0,1,584,0.5,0 S,0,1,584,1,1.3 L,75331,68 F,0,1,292,0.5,0 S,0,1,292,1,1.4 L,103428,1 F,0,1,2356,0.6,0 S,0,1,2356,1,1.6 L,122160,1 F,0,1,584,0.5,0 S,0,1,584,1,1.3 L,124501,1 F,0,1,584,0.5,0 S,0,1,584,1,1.3 L,126258,1 F,0,1,584,0.5,0 S,0,1,584,1,1.3 L,126843,1 F,0,1,584,0.5,0 S,0,1,584,1,1.3 L,128014,1 F,0,1,584,0.5,0 S,0,1,584,1,1.3 L,128599,1 F,0,1,584,0.5,0 S,0,1,584,1,1.3 L,129184,1 F,0,1,584,0.5,0 S,0,1,584,1,1.3 L,130355,10 F,0,1,48,0.5,0 S,0,1,48,1,1.3 L,135623,72 F,0,1,70,0.5,0 S,0,1,70,1,1.2 L,140892,1 F,0,1,2356,0.6,0 S,0,1,2356,1,1.6
Sprite,Foreground,Centre,"black.png",320,240 L,75331,68 F,0,1,292,0.5,0 L,135623,72 F,0,1,70,0.5,0 F,0,97575,103428,1,0 F,1,131526,135623,0.7,0.5
Sprite,Foreground,Centre,"white.png",320,240 L,84415,1 F,0,1,292,0.5,0 S,0,1,292,1,1.3
Sprite,Foreground,Centre,"o_3.png",320,240 L,404,1 F,0,1,584,0.5,0 S,0,1,584,1,1.3 L,2745,1 F,0,1,584,0.5,0 S,0,1,584,1,1.3 L,5087,1 F,0,1,584,0.5,0 S,0,1,584,1,1.3 L,6258,1 F,0,1,584,0.5,0 S,0,1,584,1,1.3 L,6843,1 F,0,1,584,0.5,0 S,0,1,584,1,1.3 L,7428,1 F,0,1,584,0.5,0 S,0,1,584,1,1.3 L,9770,1 F,0,1,584,0.5,0 S,0,1,584,1,1.3 L,10940,1 F,0,1,584,0.5,0 S,0,1,584,1,1.3 L,12111,1 F,0,1,584,0.5,0 S,0,1,584,1,1.3 L,14453,1 F,0,1,584,0.5,0 S,0,1,584,1,1.3 L,15623,1 F,0,1,584,0.5,0 S,0,1,584,1,1.3 L,16209,1 F,0,1,584,0.5,0 S,0,1,584,1,1.3 L,16800,1 F,0,1,584,0.5,0 S,0,1,584,1,1.3 L,14453,1 F,0,1,584,0.5,0 S,0,1,584,1,1.3 L,35530,1 F,0,1,584,0.5,0 S,0,1,584,1,1.3 L,36117,1 F,0,1,584,0.5,0 S,0,1,584,1,1.3 L,122160,1 F,0,1,584,0.5,0 S,0,1,584,1,1.3 L,124501,1 F,0,1,584,0.5,0 S,0,1,584,1,1.3 L,126258,1 F,0,1,584,0.5,0 S,0,1,584,1,1.3 L,126843,1 F,0,1,584,0.5,0 S,0,1,584,1,1.3 L,128014,1 F,0,1,584,0.5,0 S,0,1,584,1,1.3 L,128599,1 F,0,1,584,0.5,0 S,0,1,584,1,1.3 L,129184,1 F,0,1,584,0.5,0 S,0,1,584,1,1.3 L,131526,56 F,0,1,77,0.5,0
Sprite,Foreground,Centre,"o_1.png",320,240 F,0,95239,103428,1,0 S,2,97575,103428,1,1.2
//Storyboard Sound Samples
//Background Colour Transformations
3,100,0,0,0

[TimingPoints]
447,292.682926829268,4,1,1,60,1,0
1586,-100,4,1,1,50,0,0
1879,-100,4,1,1,40,0,0
2172,-100,4,1,1,30,0,0
2678,-100,4,1,1,60,0,0
3928,-100,4,1,1,50,0,0
4220,-100,4,1,1,40,0,0
5392,-100,4,1,1,30,0,0
5684,-100,4,1,1,60,0,0
21775,-100,4,1,1,30,0,0
23092,-100,4,1,1,40,0,0
25214,-100,4,1,1,50,0,0
28361,-100,4,1,1,60,0,0
37653,-100,4,1,1,70,0,0
39262,-100,4,1,1,45,0,0
39554,-100,4,1,1,30,0,0
39847,-100,4,1,1,60,0,0
45995,-133.333333333333,4,1,1,60,0,0
46873,-133.333333333333,4,1,1,20,0,0
47276,-100,4,1,1,70,0,1
47306,-100,4,1,1,70,0,0
51702,-100,4,1,1,40,0,0
51849,-100,4,1,1,70,0,0
56605,-100,4,1,1,70,0,1
56678,-100,4,1,1,70,0,0
65233,-100,4,1,1,45,0,0
65599,-100,4,1,1,20,0,0
65745,-100,4,1,1,70,0,0
70690,-100,4,1,1,70,0,1
75336,-100,4,1,1,75,0,1
76867,-100,4,1,1,50,0,1
77160,-100,4,1,1,35,0,1
77453,-100,4,1,1,70,0,1
77599,-100,4,1,1,75,0,1
83892,-100,4,1,1,60,0,1
84038,-100,4,1,1,40,0,1
84184,-100,4,1,1,20,0,1
84331,-50,4,1,1,70,0,1
84697,-100,4,1,1,75,0,1
86824,-100,4,1,1,40,0,1
86970,-100,4,1,1,70,0,1
88140,-100,4,1,1,50,0,1
89018,-100,4,1,1,75,0,1
89310,-100,4,1,1,70,0,1
92495,-100,4,1,1,50,0,1
92934,-100,4,1,1,30,0,1
93520,-100,4,1,1,20,0,0
103288,-133.333333333333,4,2,1,40,0,0
112721,-133.333333333333,4,1,1,60,0,0
113603,-133.333333333333,4,1,1,30,0,0
115066,-133.333333333333,4,1,1,60,0,0
115944,-133.333333333333,4,1,1,30,0,0
117408,-133.333333333333,4,1,1,60,0,0
118286,-133.333333333333,4,1,1,20,0,0
119749,-133.333333333333,4,1,1,60,0,0
120627,-133.333333333333,4,1,1,20,0,0
120774,-133.333333333333,4,1,1,60,0,0
121721,-100,4,1,1,60,0,0
131530,-100,4,1,1,60,0,1
131568,-100,4,1,1,60,0,1
134453,-100,4,1,1,40,0,1
134892,-100,4,1,1,20,0,1
135258,-100,4,1,1,20,0,1
135666,-100,4,1,1,30,0,0
135959,-100,4,1,1,40,0,1
136286,-100,4,1,1,50,0,1
136579,-100,4,1,1,60,0,1
136871,-100,4,1,1,70,0,1
137164,-100,4,1,1,80,0,1
137457,-100,4,1,1,85,0,1
137749,-100,4,1,1,90,0,1
138042,-100,4,1,1,100,0,1
138481,-100,4,1,1,40,0,1
140056,-100,4,1,1,50,0,1
140934,-100,4,1,1,100,0,0

[Colours]
Combo1 : 192,192,192
Combo2 : 187,0,0
Combo3 : 128,128,0
Combo4 : 128,128,255

[HitObjects]
144,264,447,2,0,B|184:336|256:360|336:336|368:256,1,279.999980926514
192,128,1617,1,0
256,40,1910,1,0
320,128,2202,1,0
256,216,2495,2,0,B|256:368,2,139.999990463257,2|4|0
256,104,3373,1,0
192,256,3959,5,0
256,344,4251,1,0
320,256,4544,1,0
256,160,4837,2,0,B|256:16,2,139.999990463257
256,272,5715,1,0
32,192,6301,5,4
256,192,6886,1,4
480,192,7472,1,4
248,304,8641,6,0,B|184:272|152:200,1,139.999990463257
264,80,9227,2,0,B|328:112|360:184,1,139.999990463257
200,136,9812,1,0
432,192,10983,5,4
336,144,11276,1,0
256,216,11568,1,8
176,144,11861,1,2
72,192,12154,1,4
248,80,13324,6,0,B|184:112|152:184,1,139.999990463257
264,304,13910,2,0,B|328:272|360:200,1,139.999990463257
200,248,14495,1,0
72,192,15666,5,4
256,64,16251,1,4
440,192,16837,1,4
256,288,17422,5,0
256,288,18007,1,0
256,176,18300,2,0,B|240:120|280:88|248:16,2,139.999990463257
256,192,19178,12,0,21227
256,352,21519,5,0
256,240,21812,1,0
192,144,22105,1,8
256,56,22398,1,0
320,144,22690,1,0
320,256,22983,6,0,B|256:304|176:248,2,139.999990463257,0|8|0
408,328,23861,2,0,B|455:261|407:197,1,139.999990463257,0|0
336,112,24446,1,8
320,224,24739,2,0,B|256:288|168:264,1,139.999990463257,0|0
80,256,25324,5,8
40,216,25471,1,0
80,120,25763,1,0
120,160,25910,2,0,B|184:128|200:40,1,139.999990463257,8|0
312,72,26495,5,8
360,104,26641,1,0
312,208,26934,1,0
360,240,27080,1,8
312,344,27373,2,0,B|232:336|192:248,1,139.999990463257,0|8
112,328,27959,2,0,B|64:272|96:168,1,139.999990463257,0|0
136,96,28544,5,8
160,48,28690,1,0
256,104,28983,1,0
280,56,29129,1,8
368,128,29422,2,0,B|408:184,1,69.9999952316285,0|8
368,224,29715,2,0,B|416:288,1,69.9999952316285,0|8
376,320,30007,2,0,B|312:368|248:296,1,139.999990463257,8|0
184,208,30593,1,2
144,104,30885,5,0
88,88,31032,1,8
64,136,31178,2,0,B|32:200|72:288,2,139.999990463257
168,168,32056,2,0,B|216:104|168:16,2,139.999990463257,8|0|8
264,112,32934,1,4
256,192,33227,12,0,35276
144,272,35568,5,4
368,272,36154,1,4
192,128,36739,2,0,B|256:72|320:128,2,139.999990463257
256,216,37617,2,0,B|256:368,1,139.999990463257
144,344,38202,5,8
56,272,38495,1,0
144,208,38788,1,8
144,96,39080,2,0,B|72:112|48:200,2,139.999990463257,0|8|0
256,96,39959,5,8
256,96,40105,1,0
256,96,40251,2,0,B|328:96|360:184,1,139.999990463257,0|8
384,288,40837,1,0
400,344,40983,1,8
304,288,41276,1,0
288,232,41422,1,8
200,304,41715,5,8
144,312,41861,1,0
112,264,42007,1,0
56,240,42154,1,0
48,184,42300,1,8
112,96,42593,2,0,B|168:136|168:224,1,139.999990463257,0|8
224,320,43178,2,0,B|224:237|280:189,1,139.999990463257,0|8
296,80,43763,2,0,B|349:123|349:203,1,139.999990463257,0|8
400,304,44349,2,0,B|399:223|455:175,2,139.999990463257,0|8|0
296,344,45227,5,8
192,304,45519,1,0
272,232,45812,1,8
152,192,46105,2,0,B|152:80|288:88|368:160|368:16,1,314.999969154598
416,224,47276,5,0
456,264,47422,1,8
376,344,47715,1,0
296,264,48007,1,0
256,224,48154,1,8
208,256,48300,1,0
200,312,48446,2,0,B|128:304|88:224,1,139.999990463257,0|8
48,128,49032,5,0
48,128,49178,1,0
48,128,49324,1,10
160,152,49617,2,0,B|248:120|248:48,1,139.999990463257,0|8
344,112,50202,1,0
384,72,50349,1,8
440,168,50641,1,8
480,128,50788,1,0
488,240,51080,1,8
408,320,51373,5,0
376,272,51519,1,0
328,240,51666,2,0,B|272:312|200:248,1,139.999990463257,8|4
200,144,52251,2,0,B|128:176|120:272,1,139.999990463257,8|0
88,144,52837,2,0,B|144:88|144:16,1,139.999990463257,8|0
256,40,53422,1,8
312,24,53568,1,0
352,128,53861,1,4
408,112,54007,1,12
456,216,54300,6,0,B|416:280,1,69.9999952316285
376,240,54593,2,0,B|336:304,1,69.9999952316285,8|0
288,272,54885,2,0,B|224:320|152:272,1,139.999990463257,0|8
72,208,55471,2,0,B|136:160|208:208,1,139.999990463257,0|8
288,136,56056,2,0,B|344:80,1,69.9999952316285
360,136,56349,2,2,B|416:80,1,69.9999952316285,10|0
408,88,56641,1,4
424,256,56934,6,0,B|384:320|288:320,1,139.999990463257,8|0
200,280,57519,1,8
152,256,57666,1,0
240,192,57959,1,0
288,168,58105,1,8
216,80,58398,5,0
216,80,58544,1,0
168,56,58690,1,8
120,88,58837,1,10
136,144,58983,2,0,B|128:224|64:272,1,139.999990463257,0|8
184,288,59568,6,0,B|232:344,1,69.9999952316285
256,288,59861,2,0,B|304:344,1,69.9999952316285,8|0
328,288,60154,2,0,B|400:240|400:152,1,139.999990463257,0|8
352,72,60739,1,0
232,192,61032,1,8
200,24,61324,6,0,B|128:72|128:160,1,139.999990463257,0|8
112,248,61910,1,0
88,296,62056,1,8
200,272,62349,1,8
224,320,62495,1,0
296,232,62788,5,8
344,256,62934,1,0
352,200,63080,2,0,B|400:176|424:136|424:80,2,139.999990463257,0|10|0
312,96,63959,1,8
216,40,64251,1,0
136,120,64544,1,8
232,184,64837,1,0
152,264,65129,6,2,B|200:320,1,69.9999952316285,8|2
312,304,65422,2,2,B|264:248,1,69.9999952316285
376,224,65715,2,0,B|424:280,2,69.9999952316285,10|2|4
312,136,66300,1,8
280,88,66446,1,0
168,120,66739,1,0
128,80,66885,1,8
88,184,67178,6,0,B|32:240|48:312,1,139.999990463257,0|8
96,344,67617,2,0,B|160:320,1,69.9999952316285,0|4
136,272,67910,2,4,B|208:248,1,69.9999952316285,4|12
296,304,68349,1,8
352,288,68495,1,0
344,160,68788,1,0
400,144,68934,2,0,B|472:128,2,69.9999952316285,8|0|0
240,160,69519,6,0,B|152:128|136:48,2,139.999990463257,12|4|12
208,208,70251,2,0,B|280:248,1,69.9999952316285,4|8
368,296,70690,1,8
456,224,70983,1,0
456,112,71276,1,8
368,40,71568,1,0
368,152,71861,5,8
368,152,72007,2,0,B|304:208|216:192,1,139.999990463257
232,136,72446,2,0,B|144:136|104:200,2,139.999990463257,8|0|8
288,232,73324,1,0
344,328,73617,2,0,B|432:328|472:264,2,139.999990463257
336,96,75374,5,8
296,56,75520,1,0
256,96,75667,2,0,B|200:160|216:224,1,139.999990463257,0|8
328,192,76252,2,0,B|392:232,1,69.9999952316285
400,280,76545,2,0,B|360:352|264:336,1,139.999990463257,8|0
168,336,77130,1,8
104,248,77423,5,0
104,248,77569,1,2
64,208,77716,1,8
88,160,77862,1,0
136,184,78008,2,0,B|200:144|200:64,1,139.999990463257,0|8
304,104,78594,5,8
360,120,78740,1,0
336,232,79033,1,0
392,256,79179,1,12
304,328,79472,1,4
192,328,79764,5,0
152,288,79911,1,4
192,248,80057,2,0,B|224:208|216:112,1,139.999990463257,8|0
328,104,80642,2,0,B|376:40,1,69.9999952316285,8|0
392,96,80935,2,0,B|456:72,1,69.9999952316285
456,128,81228,2,0,B|512:184|480:272,1,139.999990463257,8|0
400,336,81813,5,8
352,304,81960,1,0
264,232,82252,1,0
312,200,82399,1,8
400,128,82691,1,8
352,96,82838,1,0
256,48,83130,5,8
224,96,83277,1,0
168,104,83423,1,0
168,160,83569,2,0,B|96:184,1,69.9999952316285,8|0
64,144,83862,2,0,B|24:216,1,69.9999952316285
64,248,84155,2,0,B|88:328|176:344,1,139.999990463257,8|2
272,344,84740,5,8
272,344,84886,1,0
320,320,85033,1,0
296,272,85179,1,0
352,264,85325,2,0,B|432:248|440:168,1,139.999990463257,8|0
328,168,85911,5,8
288,64,86203,2,0,B|208:80|200:160,1,139.999990463257,0|8
224,264,86789,1,2
264,304,86935,1,10
368,256,87228,1,8
408,296,87374,1,0
288,176,87667,6,0,B|288:80,1,69.9999952316285,8|0
184,64,87960,2,0,B|184:144,1,69.9999952316285
160,184,88252,1,8
176,240,88399,1,0
136,272,88545,1,0
88,240,88691,2,0,B|40:184,2,69.9999952316285,0|8|0
40,272,89130,2,2,B|56:352|144:376,1,139.999990463257,0|8
240,352,89716,5,0
296,344,89862,1,0
288,288,90008,1,8
248,248,90155,2,0,B|312:216,2,69.9999952316285
232,192,90594,2,0,B|152:168|144:88,1,139.999990463257,8|0
256,88,91179,1,8
304,56,91325,1,0
384,136,91618,1,0
432,104,91764,1,8
448,216,92057,5,0
448,216,92203,1,0
456,272,92350,2,0,B|392:312,1,69.9999952316285,8|0
360,264,92642,1,0
312,288,92789,1,0
272,248,92935,2,0,B|224:184,2,69.9999952316285,8|0|0
256,192,93520,12,0,94838
256,192,94983,12,0,97617
120,120,103471,6,0,B|88:184|48:192|48:192|88:200|128:272,1,209.999979436398,0|2
224,192,104349,1,2
392,264,105812,6,0,B|424:200|464:192|464:192|424:184|384:112,1,209.999979436398,0|2
288,192,106690,1,2
432,104,108154,6,0,B|488:136|504:192|488:240|432:272,1,209.999979436398,0|2
336,192,109032,1,2
80,280,110495,6,0,B|24:248|8:192|24:144|80:112,1,209.999979436398,0|2
176,192,111373,1,2
304,192,111666,2,0,B|344:176|368:200|424:176,2,104.999989718199
184,104,112837,6,0,B|248:72|256:32|256:32|264:72|336:112,1,209.999979436398,0|2
256,208,113715,1,2
328,280,115178,6,0,B|264:312|256:352|256:352|248:312|176:272,1,209.999979436398,0|2
256,176,116056,1,2
80,104,117519,6,0,B|24:136|8:192|24:240|80:272,1,209.999979436398,0|2
176,192,118398,1,2
432,280,119861,6,0,B|488:248|504:192|488:144|432:112,1,209.999979436398,0|2
336,192,120739,1,2
256,192,122202,5,4
64,192,123373,5,0
176,192,123666,1,0
256,112,123959,1,0
336,192,124251,1,2
448,192,124544,1,4
256,352,125715,5,0
256,240,126007,1,0
152,200,126300,2,4,B|240:160|256:112|256:112|272:160|376:208,1,279.999980926514,4|4
104,192,128056,5,4
256,352,128641,1,4
408,192,129227,1,4
256,64,130398,6,0,B|256:16,8,34.9999976158143
256,176,131276,2,0,B|256:320,1,139.999990463257
256,192,131861,12,4,135666
256,96,135960,6,0,B|256:16,2,69.9999952316285
296,136,136399,2,0,B|368:136,2,69.9999952316285
256,176,136838,2,0,B|256:256,2,69.9999952316285
216,136,137277,2,0,B|144:136,2,69.9999952316285
256,96,137716,2,0,B|256:16,2,69.9999952316285
296,136,138155,2,0,B|368:136,2,69.9999952316285
256,176,138594,5,4
256,288,138886,2,0,B|256:376,2,69.9999952316285,0|4|4
256,176,139472,1,4
256,192,139764,12,4,140935
