osu file format v9

[General]
AudioFilename: Sirio & D-Tox - Loudness War.mp3
AudioLeadIn: 1500
PreviewTime: 72993
Countdown: 0
SampleSet: Normal
StackLeniency: 0.5
Mode: 0
LetterboxInBreaks: 0
EpilepsyWarning: 1

[Editor]
DistanceSpacing: 1.1
BeatDivisor: 4
GridSize: 8

[Metadata]
Title:Loudness War
Artist:Sirio & D-Tox
Creator:-Lennox-
Version:Easy
Source:
Tags:hardtek Onosakihito

[Difficulty]
HPDrainRate:1
CircleSize:3
OverallDifficulty:1
ApproachRate:3
SliderMultiplier:0.8
SliderTickRate:1

[Events]
//Background and Video events
0,0,"The Darkness_wallpaper 06_1280x1024.jpg"
//Break Periods
2,97860,102031
//Storyboard Layer 0 (Background)
//Storyboard Layer 1 (Fail)
//Storyboard Layer 2 (Pass)
//Storyboard Layer 3 (Foreground)
Sprite,Foreground,Centre,"pulse.jpg.jpg",320,240 L,404,1 F,0,1,584,0.3,0 S,0,1,584,1,1.2 L,2745,1 F,0,1,584,0.3,0 S,0,1,584,1,1.2 L,5087,1 F,0,1,584,0.3,0 S,0,1,584,1,1.2 L,6258,1 F,0,1,584,0.3,0 S,0,1,584,1,1.2 L,6843,1 F,0,1,584,0.3,0 S,0,1,584,1,1.2 L,7428,1 F,0,1,584,0.3,0 S,0,1,584,1,1.2 L,9770,1 F,0,1,584,0.3,0 S,0,1,584,1,1.2 L,10940,1 F,0,1,584,0.3,0 S,0,1,584,1,1.2 L,12111,1 F,0,1,584,0.3,0 S,0,1,584,1,1.2 L,14453,1 F,0,1,584,0.3,0 S,0,1,584,1,1.2 L,15623,1 F,0,1,584,0.3,0 S,0,1,584,1,1.2 L,16209,1 F,0,1,584,0.3,0 S,0,1,584,1,1.2 L,16800,1 F,0,1,584,0.3,0 S,0,1,584,1,1.2 L,14453,1 F,0,1,584,0.3,0 S,0,1,584,1,1.2 L,35530,1 F,0,1,584,0.3,0 S,0,1,584,1,1.2 L,36117,1 F,0,1,584,0.3,0 S,0,1,584,1,1.2 L,37867,30 F,0,1,292,0.5,0 S,0,1,292,1,1.4 L,47233,79 F,0,1,292,0.5,0 S,0,1,292,1,1.4 L,70648,9 F,0,1,292,0.5,0 S,0,1,292,1,1.4 L,73575,1 F,0,1,584,0.5,0 S,0,1,584,1,1.3 L,75331,68 F,0,1,292,0.5,0 S,0,1,292,1,1.4 L,103428,1 F,0,1,2356,0.6,0 S,0,1,2356,1,1.6 L,122160,1 F,0,1,584,0.5,0 S,0,1,584,1,1.3 L,124501,1 F,0,1,584,0.5,0 S,0,1,584,1,1.3 L,126258,1 F,0,1,584,0.5,0 S,0,1,584,1,1.3 L,126843,1 F,0,1,584,0.5,0 S,0,1,584,1,1.3 L,128014,1 F,0,1,584,0.5,0 S,0,1,584,1,1.3 L,128599,1 F,0,1,584,0.5,0 S,0,1,584,1,1.3 L,129184,1 F,0,1,584,0.5,0 S,0,1,584,1,1.3 L,130355,10 F,0,1,48,0.5,0 S,0,1,48,1,1.3 L,135623,72 F,0,1,70,0.5,0 S,0,1,70,1,1.2 L,140892,1 F,0,1,2356,0.6,0 S,0,1,2356,1,1.6
Sprite,Foreground,Centre,"white.png",320,240 L,84415,1 F,0,1,292,0.5,0 S,0,1,292,1,1.3
Sprite,Foreground,Centre,"o_1.png",320,240 F,0,95239,103428,1,0 S,2,97575,103428,1,1.2
Sprite,Foreground,Centre,"o_3.png",320,240 L,404,1 F,0,1,584,0.5,0 S,0,1,584,1,1.3 L,2745,1 F,0,1,584,0.5,0 S,0,1,584,1,1.3 L,5087,1 F,0,1,584,0.5,0 S,0,1,584,1,1.3 L,6258,1 F,0,1,584,0.5,0 S,0,1,584,1,1.3 L,6843,1 F,0,1,584,0.5,0 S,0,1,584,1,1.3 L,7428,1 F,0,1,584,0.5,0 S,0,1,584,1,1.3 L,9770,1 F,0,1,584,0.5,0 S,0,1,584,1,1.3 L,10940,1 F,0,1,584,0.5,0 S,0,1,584,1,1.3 L,12111,1 F,0,1,584,0.5,0 S,0,1,584,1,1.3 L,14453,1 F,0,1,584,0.5,0 S,0,1,584,1,1.3 L,15623,1 F,0,1,584,0.5,0 S,0,1,584,1,1.3 L,16209,1 F,0,1,584,0.5,0 S,0,1,584,1,1.3 L,16800,1 F,0,1,584,0.5,0 S,0,1,584,1,1.3 L,14453,1 F,0,1,584,0.5,0 S,0,1,584,1,1.3 L,35530,1 F,0,1,584,0.5,0 S,0,1,584,1,1.3 L,36117,1 F,0,1,584,0.5,0 S,0,1,584,1,1.3 L,122160,1 F,0,1,584,0.5,0 S,0,1,584,1,1.3 L,124501,1 F,0,1,584,0.5,0 S,0,1,584,1,1.3 L,126258,1 F,0,1,584,0.5,0 S,0,1,584,1,1.3 L,126843,1 F,0,1,584,0.5,0 S,0,1,584,1,1.3 L,128014,1 F,0,1,584,0.5,0 S,0,1,584,1,1.3 L,128599,1 F,0,1,584,0.5,0 S,0,1,584,1,1.3 L,129184,1 F,0,1,584,0.5,0 S,0,1,584,1,1.3 L,131526,56 F,0,1,77,0.5,0
Sprite,Foreground,Centre,"black.png",320,240 L,75331,68 F,0,1,292,0.5,0 L,135623,72 F,0,1,70,0.5,0 F,0,97575,103428,1,0 F,1,131526,135623,0.7,0.5
//Storyboard Sound Samples
//Background Colour Transformations
3,100,0,0,0

[TimingPoints]
447,292.682926829268,4,1,1,40,1,0
6269,-100,4,1,1,60,0,0
7440,-100,4,1,1,40,0,0
15635,-100,4,1,1,60,0,0
16806,-100,4,1,1,40,0,0
21489,-100,4,1,1,60,0,0
23830,-100,4,1,1,40,0,0
37879,-100,4,1,1,60,0,0
39262,-100,4,1,1,45,0,0
39554,-100,4,1,1,30,0,0
39847,-100,4,1,1,60,0,0
45993,-200,4,1,1,20,0,0
47160,-100,4,1,1,70,0,1
47306,-100,4,1,1,70,0,0
51562,-100,4,1,1,30,0,0
51782,-100,4,1,1,70,0,0
56603,-100,4,1,1,70,0,1
56676,-100,4,1,1,70,0,0
60708,-100,4,1,1,50,0,0
61001,-100,4,1,1,35,0,0
61294,-100,4,1,1,70,0,0
65896,-100,4,1,1,70,0,0
75331,-100,4,1,1,85,0,1
77018,-100,4,1,1,50,0,1
77164,-100,4,1,1,85,0,1
84697,-100,4,1,1,85,0,1
88140,-100,4,1,1,50,0,1
88837,-100,4,1,1,35,0,0
89422,-100,4,1,1,35,0,1
93227,-100,4,1,1,50,0,0
93812,-100,4,1,1,20,0,0
103288,-133.333333333333,4,2,1,40,0,0
112721,-133.333333333333,4,1,1,60,0,0
113603,-133.333333333333,4,1,1,30,0,0
113749,-133.333333333333,4,1,1,60,0,0
115944,-133.333333333333,4,1,1,30,0,0
116091,-133.333333333333,4,1,1,60,0,0
118286,-133.333333333333,4,1,1,30,0,0
118432,-133.333333333333,4,1,1,60,0,0
120627,-133.333333333333,4,1,1,30,0,0
120782,-133.333333333333,4,1,1,60,0,0
121721,-100,4,1,1,60,0,0
126269,-100,4,1,1,80,0,0
126342,-100,4,1,1,20,0,0
126562,-100,4,1,1,80,0,0
131568,-100,4,1,1,60,0,1
134453,-100,4,1,1,40,0,1
134892,-100,4,1,1,20,0,1
135258,-100,4,1,1,20,0,1
135623,-100,4,1,1,40,0,1
138481,-100,4,1,1,60,0,1
140934,-100,4,1,1,85,0,0

[Colours]
Combo1 : 192,192,192
Combo2 : 187,0,0
Combo3 : 128,128,0
Combo4 : 128,128,255

[HitObjects]
168,224,447,2,0,B|176:352|264:352|336:352|344:216,1,320,4|0
256,104,2788,5,8
216,32,3081,2,0,B|256:16|304:32,2,80,0|8|0
256,264,5129,6,0,B|288:208|216:168|256:104,1,160,8|0
408,192,6300,2,0,B|488:192,4,80,4|0|4|0|4
56,152,8642,6,0,B|40:192|56:232,2,80,8|0|8
224,192,9812,1,4
320,144,10983,6,0,B|320:64,2,80,8|0|0
320,232,11861,2,0,B|320:320,2,80,8|0|0
16,192,13325,5,8
80,128,13617,1,0
96,216,13910,2,0,B|168:264|256:208,1,160,0|8
376,112,15666,5,4
376,112,16251,1,4
376,112,16837,1,4
256,192,17129,12,0,18886
160,192,19764,5,8
264,48,20349,1,8
280,136,20642,2,0,B|312:176|368:200|424:200,1,160,0|0
504,184,21520,5,8
400,328,22105,1,0
296,184,22690,1,8
184,280,23861,5,0
120,120,24446,1,0
192,176,24739,2,0,B|232:136|232:72|192:24,2,160,8|0|8
264,224,26203,6,0,B|224:264|224:328|264:376,1,160,0|8
424,304,27373,2,0,B|504:304,2,80,0|0|8
336,304,28251,1,0
272,240,28544,5,0
216,168,28837,2,0,B|192:128|152:128,1,80
88,192,29422,2,0,B|88:264|120:304|184:304,1,160,0|8
224,376,30300,1,0
272,304,30593,2,0,B|327:304|359:264|359:192,1,160,0|8
120,120,32056,6,0,B|104:80|56:72,2,80,4|8|4
120,208,32934,1,12
200,168,33227,2,0,B|280:120|360:176,1,160
296,240,34105,2,0,B|360:296|424:240|432:192,1,160,8|0
464,128,34983,2,0,B|480:88|456:48,2,80,0|8|4
256,192,35861,12,0,37910
336,192,38495,6,0,B|312:240|272:248,1,80,0|8
192,240,39081,2,0,B|144:216|136:184,1,80,0|8
216,152,39666,2,0,B|256:96|256:0,2,160,0|0|8
136,112,41129,5,0
56,272,41715,1,12
232,264,42300,1,12
312,224,42593,6,0,B|336:264|392:264,1,80,0|8
416,184,43178,2,0,B|384:152|336:144,1,80,0|8
256,152,43764,2,0,B|232:112|160:120|128:56,2,160,0|0|8
176,192,45227,2,0,B|136:224|136:272,1,80,0|8
216,304,45812,2,0,B|256:280|256:232,1,80,0|8
256,152,46398,6,0,B|264:112|312:104|328:48|328:48,1,120
408,96,47568,5,8
432,184,47861,2,0,B|456:248|424:304|352:296,1,160
304,232,48739,2,0,B|264:216|256:176|256:176|248:216|192:232,1,160,8|2
136,296,49617,2,0,B|80:296|40:264|56:176,1,160,0|8
144,200,50495,5,0
216,144,50788,1,0
208,56,51081,2,0,B|264:32|320:56|320:56|328:120|296:184,1,240,0|8
256,256,52251,5,0
264,344,52544,2,0,B|192:384|152:344|152:344|144:264|184:224,1,240,0|8
232,160,53715,1,0
288,88,54007,2,0,B|312:56,2,40
208,56,54593,5,8
40,112,55178,1,8
96,280,55764,1,8
272,280,56349,1,8
304,200,56642,6,0,B|344:168|344:120,2,80,0|8|0
216,208,57520,1,8
136,184,57812,2,0,B|112:136|112:120|112:120|104:128|16:120,2,160
168,264,59276,2,0,B|192:312|192:328|192:328|200:320|288:320,1,160,8|8
248,240,60154,1,0
368,112,60739,6,0,B|424:56,2,80,0|8|0
296,64,61617,2,0,B|248:96|240:120|240:120|232:96|176:64,1,160,8|8
136,144,62495,2,0,B|176:192|192:200|192:200|176:216|152:272,1,160
80,216,63373,1,8
256,192,63666,12,0,65129
408,192,66007,5,0
344,256,66300,2,0,B|296:232|304:192,1,80,8|0
232,248,66886,2,0,B|200:184|224:128|280:104,1,160,8|8
344,72,67764,1,0
456,208,68349,6,0,B|480:320|392:344,1,160
376,256,69227,1,8
280,168,69666,2,0,B|312:128,3,40
152,216,70690,5,8
64,216,70983,1,0
112,296,71276,2,0,B|160:352|200:376|200:376|248:352|288:288,1,240,0|8
352,352,72446,2,0,B|408:288,1,80,0|12
256,192,73032,12,4,75081
312,176,75666,6,0,B|360:112,2,80,8|0|8
256,248,76544,1,0
200,176,76837,2,0,B|144:104,2,80,8|0|8
256,104,77715,1,0
424,56,78300,5,0
384,232,78886,1,8
336,304,79178,2,0,B|288:288|248:232|248:232|200:288|136:304,1,240,0|8
64,336,80349,1,4
88,192,80934,5,0
160,144,81227,2,0,B|208:112|256:96|320:128,1,160,0|8
256,192,82105,2,0,B|304:232|368:216|392:160,1,160
440,88,82983,5,8
272,40,83568,1,8
104,80,84154,1,8
264,176,84739,1,8
304,256,85032,6,0,B|352:224|352:176,1,80,0|8
264,176,85617,1,0
264,88,85910,2,0,B|208:96|184:128,1,80,8|0
144,192,86495,6,0,B|120:248|112:304|112:304|160:336|232:296,1,240,8|0
312,272,87666,2,0,B|384:288|424:256|424:256|440:184|384:136,1,240,8|0
344,72,88837,2,0,B|304:16|240:16|240:16|184:40|168:112,1,240,8|0
144,192,90007,5,8
280,304,90593,1,8
320,136,91178,1,8
192,256,91764,2,0,B|232:216|288:200|336:232,1,160,8|8
280,304,92642,2,0,B|336:336|384:320|424:272,1,160,0|8
344,112,93812,6,0,B|384:80,2,40
312,136,94251,2,0,B|248:200|200:192|200:192|144:112|200:40,1,280
256,192,95568,12,0,97617
328,344,103471,6,0,B|304:296|256:272|200:296|184:360,1,179.999994635582,0|2
256,40,105812,6,0,B|272:104|232:160|256:224,1,179.999994635582,0|2
480,272,108154,6,0,B|416:248|416:152|480:128,1,179.999994635582,0|2
152,192,110495,6,0,B|216:208|264:160|336:192,1,179.999994635582,0|0
392,200,111666,2,0,B|400:232|392:272,2,59.9999982118607,0|0|0
360,72,112837,1,4
256,344,115178,6,0,B|240:280|280:224|256:160,1,179.999994635582,0|2
32,112,117520,6,0,B|96:136|96:232|32:256,1,179.999994635582,0|2
360,192,119861,6,0,B|296:176|248:224|176:192,1,179.999994635582,0|0
120,184,121032,2,0,B|112:152|120:112,2,59.9999982118607,0|0|0
128,248,121910,2,0,B|128:296|160:328,1,80
176,184,123959,6,0,B|208:160|288:216|344:160,1,160,0|4
424,72,125715,5,0
456,152,126007,1,0
432,232,126300,2,0,B|408:296|336:296|304:224,1,160
256,24,128056,5,4
168,176,128642,1,4
344,176,129227,1,4
256,288,130398,6,0,B|256:320,8,20,0|0|0|0|0|0|0|0|4
256,200,131276,2,0,B|256:120,1,80,4|0
256,192,131861,12,0,135373
208,192,135959,6,0,B|120:192,2,80,0|0|8
256,120,136837,2,0,B|256:40,2,80,0|0|8
304,192,137715,2,0,B|384:192,2,80,0|0|8
256,264,138593,2,0,B|256:344,3,80,4|4|4|4
256,192,139764,12,4,140934
