osu file format v9

[General]
AudioFilename: lost in life.mp3
AudioLeadIn: 0
PreviewTime: 43849
Countdown: 1
SampleSet: Soft
StackLeniency: 0.7
Mode: 0
LetterboxInBreaks: 1

[Editor]
DistanceSpacing: 0.8
BeatDivisor: 4
GridSize: 8

[Metadata]
Title:Lost In Life
Artist:Sirenia
Creator:jmt_3
Version:Normal
Source:Sirenia Gothic Metal, Symphonic Metal
Tags:

[Difficulty]
HPDrainRate:2
CircleSize:5
OverallDifficulty:1
ApproachRate:3
SliderMultiplier:1.3
SliderTickRate:2

[Events]
//Background and Video events
0,0,"299899-20061002183819.jpg"
//Break Periods
2,96030,114890
//Storyboard Layer 0 (Background)
//Storyboard Layer 1 (Fail)
//Storyboard Layer 2 (Pass)
//Storyboard Layer 3 (Foreground)
//Storyboard Sound Samples
//Background Colour Transformations
3,100,163,162,255

[TimingPoints]
8330,500,4,2,0,60,1,0
39580,-100,4,1,2,60,0,0
44330,-100,4,1,1,50,0,1
59830,-100,4,2,2,50,0,0
75080,-100,4,1,1,60,0,0
80330,-100,4,1,1,57,0,1
96080,-100,4,2,2,49,0,0
116330,-100,4,1,2,49,0,1
131830,-100,4,1,2,5,0,0
132330,-100,4,1,2,40,0,0
134330,-100,4,1,2,49,0,1
149455,-100,4,1,2,20,0,0
150080,-100,4,1,1,40,0,0

[Colours]
Combo1 : 100,100,255
Combo2 : 255,128,192
Combo3 : 255,255,255

[HitObjects]
80,136,8330,1,0
153,62,8830,2,0,B|296:-8|400:128,1,260
459,184,10330,2,0,B|488:256|416:312,2,130
385,110,11830,1,0
311,36,12330,2,0,B|240:48|216:120,1,130
217,220,13330,5,0
253,256,13580,1,0
289,292,13830,2,0,B|353:252|361:324|441:268,4,130
185,292,16330,6,0,B|112:304|73:228,2,130
258,218,17830,1,0
331,144,18330,2,0,B|408:144|432:240,2,130
304,136,19580,2,0,B|264:136|240:80,3,65
147,102,20830,5,0
147,102,21080,1,0
147,206,21580,1,0
183,242,21830,2,0,B|183:306,2,65
219,205,22580,2,0,B|219:125,2,65
255,241,23330,2,0,B|255:306,2,65
255,137,24330,1,0
181,210,24830,6,0,B|101:219|69:131,2,130
285,210,26330,2,0,B|365:211|397:147,2,130
285,210,27830,1,0
256,192,28330,12,0,30330
256,192,30580,6,0,B|256:272,3,65
256,257,31580,1,0
360,257,32080,1,0
433,183,32580,2,0,B|409:110|337:102,1,130
236,102,33580,2,0,B|161:118|153:206,1,130
81,265,34580,6,0,B|5:265,3,65
16,161,35830,1,0
68,161,36080,1,0
104,124,36330,2,0,B|144:112|152:64,2,65
104,228,37330,5,0
194,280,37830,1,0
298,280,38330,1,0
371,206,38830,1,0
297,132,39330,6,0,B|352:88,2,65
244,132,40080,2,0,B|192:88,1,65
120,163,40830,1,0
68,163,41080,1,0
224,163,41830,1,0
328,163,42330,6,0,B|328:89|325:89,4,65
180,310,44330,6,0,B|112:352|48:304,2,130,8|0|0
253,236,45830,1,8
326,162,46330,2,0,B|392:120|464:176,2,130,0|0|8
326,162,47580,1,0
326,162,47830,1,0
252,88,48330,6,0,B|252:8,2,65,8|0|8
215,124,49080,2,0,B|151:124,2,65,0|8|0
251,160,49830,2,0,B|251:225,1,65,8|0
256,192,50205,12,0,51830
112,192,52580,6,0,B|96:224|112:264,2,65,0|8|0
148,155,53330,1,8
184,118,53580,2,0,B|224:112|256:152,2,65,0|8|0
80,118,54580,6,0,B|80:46,1,65,0|8
132,53,55080,2,0,B|132:124,1,65,0|8
132,170,55580,2,0,B|68:170,1,65,0|8
217,228,56580,6,0,B|217:296,2,65,0|8|0
217,175,57330,1,8
217,123,57580,2,0,B|217:50,2,65,0|8|0
256,192,58330,12,0,59830
312,104,60330,6,0,B|384:112|424:32,2,130,0|8|0
207,104,61830,2,0,B|136:120|128:208,2,130,8|0|0
280,176,63330,1,0
353,250,63830,1,8
256,192,64080,12,0,66330
256,96,66830,22,0,B|288:80|288:80|304:48,2,65,8|0|0
182,169,67830,2,0,B|128:208|128:208|140:298,1,130,8|0
210,344,68830,2,0,B|282:336|282:336|290:256,2,130,8|0|8
136,270,70330,5,0
136,244,70580,1,0
136,218,70830,1,8
136,192,71080,1,0
136,166,71330,1,0
136,140,71580,1,0
136,114,71830,2,0,B|168:56|168:56|240:48,2,130,8|0|8
256,192,73080,12,0,74830
256,192,75580,5,0
308,192,75830,1,0
308,244,76080,1,0
256,244,76330,1,0
256,192,76580,1,0
256,140,76830,1,0
256,88,77080,6,2,B|464:88,1,195
451,192,78330,6,2,B|451:272,1,65
399,257,78830,1,8
347,257,79080,1,0
295,257,79330,1,0
147,109,80330,5,0
73,182,80830,2,8,B|120:248|48:248|96:312,1,130
194,303,81830,2,0,B|152:240|224:240|184:176,2,130,8|8|8
298,303,83330,5,8
298,251,83580,1,0
350,251,83830,1,8
423,177,84330,1,0
349,103,84830,2,0,B|336:64|288:56,2,65,8|0|0
352,152,85580,2,0,B|347:189|304:208,2,65,0|8|0
256,192,86330,12,4,88080
256,192,88580,5,0
292,155,88830,1,8
328,118,89080,1,0
401,191,89580,1,0
364,227,89830,1,8
327,263,90080,1,0
223,263,90580,6,0,B|192:248|192:208,2,65,0|8|0
223,263,91330,1,8
259,299,91580,1,0
223,263,91830,1,8
296,189,92330,5,8
332,152,92580,2,0,B|384:104,2,65,0|8|0
279,152,93330,6,0,B|210:178,1,65,8|0
181,138,93830,1,8
181,138,94080,1,0
256,192,94205,12,0,95830
256,64,116330,22,0,B|192:56|136:112,1,130
212,182,117330,2,0,B|180:254|96:240,2,130
285,108,118830,6,0,B|304:72|352:64,1,65
370,105,119330,1,0
406,141,119580,2,0,B|391:176|351:184,2,65
406,36,120580,6,0,B|376:16|336:40,2,65
406,140,121580,2,0,B|376:160|344:144,2,65
406,244,122580,5,0
406,244,122830,1,0
406,244,123080,2,0,B|368:232|344:272,1,65
406,244,123580,2,0,B|424:208|456:200,1,65
452,201,124080,1,0
378,127,124580,6,0,B|360:96|376:64,2,65
304,200,125580,2,0,B|288:232|304:264,2,65
230,126,126580,6,0,B|216:96|232:64,2,65
230,126,127330,2,0,B|208:152|216:192,2,65
256,192,128080,12,0,129830
256,192,130080,12,0,131830
256,192,132330,6,0,B|256:128,1,65
256,192,132830,2,0,B|256:256,1,65
256,192,133330,1,0
403,44,134330,6,0,B|341:11|269:43,1,130
173,39,135330,2,0,B|112:16|40:40,1,130
45,142,136330,2,0,B|8:200|48:280,2,130
45,142,137580,1,0
45,142,137830,1,0
149,142,138330,2,0,B|176:120|184:88,3,65
288,88,139580,2,0,B|288:120|320:144,2,65
256,192,140205,12,0,141830
408,192,142580,6,0,B|472:192,2,65
303,192,143580,2,0,B|240:192,2,65
376,265,144580,5,0
376,265,144830,2,0,B|440:264,1,65
376,265,145330,2,0,B|312:264,1,65
311,263,145830,1,0
237,190,146330,2,0,B|236:116,3,65
162,51,147580,1,0
162,51,147830,1,0
162,51,148080,1,0
256,192,148330,12,0,149830
80,192,150330,6,0,B|40:248|88:320,1,130
187,313,151330,2,0,B|240:256|195:185,1,130
273,119,152330,2,0,B|320:72,2,65
199,192,153330,2,0,B|144:240,2,65
272,118,154330,2,0,B|336:80|416:128,1,130
396,221,155330,2,0,B|336:256|272:216,1,130
256,192,156330,12,0,157830
320,120,158580,6,0,B|352:112|368:72,2,65
246,193,159580,1,0
209,229,159830,1,0
172,265,160080,1,0
16,265,160830,6,0,B|-2:234|22:202,1,65
72,204,161330,2,0,B|94:178|78:138,1,65
27,142,161830,2,0,B|6:106|30:74,1,65
129,80,162580,2,0,B|192:48,2,65
202,153,163580,1,0
202,153,163830,1,0
202,153,164080,1,0
256,192,164330,12,0,166330
