osu file format v9

[General]
AudioFilename: lost in life.mp3
AudioLeadIn: 0
PreviewTime: 43849
Countdown: 1
SampleSet: Normal
StackLeniency: 0.6
Mode: 0
LetterboxInBreaks: 1

[Editor]
Bookmarks: 10830,14330,19580,22080,37330,42830,58080,67830,78330,112330,116330,118580,130080,132330,152080,159080,163580
DistanceSpacing: 0.8
BeatDivisor: 4
GridSize: 8

[Metadata]
Title:Lost In Life
Artist:Sirenia
Creator:jmt_3
Version:Insane
Source:Sirenia Gothic Metal, Symphonic Metal
Tags:

[Difficulty]
HPDrainRate:5
CircleSize:5
OverallDifficulty:5
ApproachRate:8
SliderMultiplier:2
SliderTickRate:2

[Events]
//Background and Video events
0,0,"299899-20061002183819.jpg"
//Break Periods
2,96530,115580
//Storyboard Layer 0 (Background)
//Storyboard Layer 1 (Fail)
//Storyboard Layer 2 (Pass)
//Storyboard Layer 3 (Foreground)
//Storyboard Sound Samples
//Background Colour Transformations
3,100,163,162,255

[TimingPoints]
8330,500,4,1,0,50,1,0
10830,-100,4,2,0,45,0,0
13080,-100,4,1,0,50,0,0
14080,-100,4,2,0,45,0,0
16080,-100,4,1,0,50,0,0
19580,-100,4,2,0,45,0,0
22080,-100,4,2,0,35,0,0
24955,-100,4,2,0,55,0,0
39580,-100,4,1,2,60,0,0
44330,-100,4,1,2,60,0,1
60330,-100,4,2,1,40,0,0
67830,-100,4,1,1,60,0,0
80330,-100,4,1,1,65,0,1
96330,-100,4,1,1,5,0,0
116330,-100,4,1,0,70,0,1
116330,-100,4,1,2,60,0,0
133330,-100,4,1,0,40,0,0
134080,-100,4,1,1,55,0,1
141080,-100,4,2,1,40,0,1
142580,-100,4,1,1,50,0,1
166580,-100,4,2,1,12,0,0
170080,-100,4,1,0,5,0,0

[Colours]
Combo1 : 119,119,255
Combo2 : 255,255,255
Combo3 : 255,128,192

[HitObjects]
256,40,8330,1,8
199,96,8580,1,0
255,152,8830,1,8
255,232,9080,1,0
255,232,9330,2,0,B|271:280|271:280|327:296,1,100,8|0
399,293,9830,1,0
455,236,10080,2,0,B|479:188|479:188|463:124,2,100
256,112,10830,5,2
149,218,11080,1,0
149,68,11330,1,2
255,174,11580,1,0
255,24,11830,1,2
148,130,12080,1,0
476,182,12330,6,4,B|360:175|360:47,1,200
210,48,13080,1,0
257,190,13580,1,0
257,190,13830,1,0
257,270,14080,1,0
407,270,14330,5,0
407,170,14580,1,0
336,99,14830,1,0
176,99,15080,1,0
105,169,15330,1,0
105,269,15580,1,0
255,269,15830,1,0
255,189,16080,2,0,B|254:77,1,100,8|0
67,192,16830,6,0,B|175:191,1,100,0|0
223,134,17330,1,0
279,190,17580,1,0
335,133,17830,2,0,B|392:112|400:64,2,100
278,189,18580,1,0
278,189,18705,1,0
278,189,18830,1,0
221,245,19080,1,0
164,188,19330,1,8
164,38,19580,5,0
57,144,19830,1,8
207,144,20080,1,0
100,37,20330,1,8
100,187,20580,1,0
206,80,20830,6,0,B|310:80,1,100
306,160,21330,1,2
306,80,21580,1,8
386,80,21830,1,2
386,80,22080,6,0,B|464:-4,1,100,8|2
326,134,22580,1,8
269,190,22830,2,0,B|189:262,1,100,2|8
138,200,23330,1,0
81,143,23580,2,0,B|81:36,2,100
137,199,24330,1,0
64,64,25080,5,0
64,64,25330,2,0,B|232:176,1,200
310,174,26080,1,0
390,174,26330,1,0
310,174,26580,1,0
390,174,26830,2,0,B|502:174,2,100
390,174,27580,1,0
390,174,27830,1,0
333,117,28080,1,0
256,192,28205,12,8,29830
312,136,30580,5,0
256,192,30830,1,8
312,135,31080,2,0,B|384:63,2,100
255,191,31830,1,8
198,134,32080,2,0,B|126:22|38:126,1,200
38,205,32830,1,8
38,285,33080,2,0,B|238:333,1,200
312,331,33830,1,8
368,274,34080,2,0,B|472:194|384:90,1,200
336,44,34830,5,8
279,100,35080,1,0
335,43,35330,1,0
278,99,35580,1,0
221,155,35830,5,0
277,98,36080,1,0
220,154,36330,1,0
163,210,36580,2,0,B|112:192|112:192|80:144,1,100
344,136,37330,5,0
264,136,37580,1,0
264,136,37705,1,0
264,136,37830,1,8
207,192,38080,1,0
150,248,38330,1,0
150,248,38455,1,0
150,248,38580,1,0
150,328,38830,1,8
170,328,38955,1,0
190,328,39080,1,0
210,328,39205,1,0
230,328,39330,1,0
286,271,39580,6,0,B|352:192,2,100
229,214,40330,2,0,B|160:120|241:21,1,200
290,86,41080,5,0
370,86,41330,1,0
450,86,41580,1,0
370,86,41830,6,0,B|370:302,1,200
290,286,42580,1,0
290,286,42830,5,0
261,257,42955,1,8
232,228,43080,1,0
203,199,43205,1,8
174,170,43330,1,0
145,141,43455,1,8
116,112,43580,1,0
87,83,43705,1,0
58,54,43830,1,0
256,32,44330,5,8
256,112,44580,1,2
312,168,44830,1,8
255,111,45080,1,2
311,167,45330,2,0,B|415:167,1,100
411,247,45830,1,8
411,327,46080,2,2,B|312:328,2,100,2|8|2
411,247,46830,5,8
411,237,46955,1,0
411,227,47080,1,2
411,147,47330,2,0,B|384:88|312:96,1,100,8|2
275,151,47830,1,8
218,94,48080,2,0,B|160:96|144:152,1,100
144,230,48580,2,0,B|136:288|72:304,2,100
200,173,49330,1,2
280,173,49580,1,8
336,229,49830,1,0
279,172,50080,2,0,B|279:68,1,100,2|8
256,192,50580,12,0,51830
256,188,52580,5,8
336,188,52830,1,0
256,188,53080,1,8
335,188,53330,2,0,B|384:188,2,50
256,188,53830,2,0,B|152:188,2,100,0|8|0
184,76,54830,5,4
240,132,55080,1,8
183,75,55330,1,0
240,132,55580,6,0,B|288:112|288:112|312:64,2,100
168,176,56330,2,0,B|120:192|120:192|88:240,2,100
240,132,57080,1,0
92,233,57330,1,0
240,132,57580,1,0
92,233,57830,1,0
149,176,58080,5,8
177,204,58205,1,0
205,232,58330,1,2
233,260,58455,1,0
261,288,58580,1,8
289,316,58705,1,0
317,344,58830,2,0,B|368:344,2,50,2|0|8
424,192,59330,6,0,B|424:85,1,100,2|8
424,92,59830,1,0
424,92,60080,1,0
256,184,60580,5,0
256,184,60830,1,0
200,240,61080,2,4,B|208:312|288:352|360:320,1,200
393,254,61830,1,0
393,174,62080,2,4,B|376:104|304:64|232:96,1,200
157,93,62830,5,8
100,149,63080,1,0
175,122,63330,1,8
95,122,63580,1,0
170,148,63830,1,8
113,91,64080,1,0
256,192,64330,12,4,66330
216,151,66580,5,0
296,151,66830,1,0
352,207,67080,2,0,B|420:280,2,100
295,150,67830,1,0
266,121,67955,1,0
237,92,68080,1,0
256,192,68205,12,0,69830
224,192,70330,5,0
304,192,70580,1,0
224,192,70830,2,0,B|112:192,1,100
67,135,71330,2,0,B|67:87,2,50
224,192,71830,1,0
144,192,72080,1,0
224,192,72330,2,0,B|328:192,1,100
324,192,72705,1,0
324,192,72830,1,0
256,192,73080,12,0,74830
80,192,75080,5,0
120,192,75205,1,0
200,192,75455,1,0
240,192,75580,1,0
320,192,75830,2,0,B|368:192,2,50
400,112,76330,5,0
343,55,76580,1,0
399,111,76830,1,0
319,111,77080,1,0
399,111,77330,1,0
342,167,77580,1,0
398,110,77830,5,0
341,166,78080,1,0
341,246,78330,1,8
301,246,78455,1,0
261,246,78580,1,8
221,246,78705,1,0
181,246,78830,1,8
141,246,78955,1,0
101,246,79080,2,0,B|72:200,2,50
368,72,80330,6,0,B|392:120|392:120|368:160,1,100
311,216,80830,1,0
254,159,81080,2,0,B|224:120|224:120|248:64,2,100
311,216,81830,1,0
254,159,82080,1,0
311,216,82330,2,0,B|352:256,2,50
254,159,82830,5,0
197,215,83080,1,0
140,158,83330,1,0
83,101,83580,2,0,B|157:27,2,100
254,159,84330,1,0
392,272,84580,2,0,B|320:344,2,100
254,159,85330,1,0
392,272,85580,1,0
254,159,85830,2,0,B|326:86|328:80,1,100
256,192,86330,12,0,87830
136,192,88330,5,0
192,248,88580,1,0
272,248,88830,1,0
352,248,89080,2,0,B|400:240|400:240|432:184,2,100
272,248,89830,1,0
425,195,90080,1,0
200,112,90830,6,0,B|160:80|160:80|168:16,2,100
256,168,91580,2,0,B|288:208|288:208|272:256,2,100
142,281,92580,5,0
198,337,92830,1,0
277,337,93080,1,0
333,280,93330,2,0,B|384:264|407:202,2,100
226,173,94080,1,0
256,192,94330,12,0,96330
256,80,116330,5,0
256,80,116455,1,0
256,80,116580,1,0
312,136,116830,1,0
368,79,117080,1,0
311,135,117330,1,0
311,135,117455,1,0
311,135,117580,1,0
367,191,117830,2,0,B|407:167|407:167|431:111,2,100
310,247,118580,5,8
270,247,118705,1,0
230,247,118830,1,8
190,247,118955,1,0
150,247,119080,2,0,B|128:296,2,50,8|0|8
150,166,119580,1,0
70,166,119830,1,0
150,166,120080,2,0,B|150:54,1,100
150,66,120455,5,0
150,66,120580,1,0
230,66,120830,1,0
230,66,120955,1,0
230,66,121080,1,0
286,122,121330,1,0
286,122,121455,1,0
286,122,121580,1,0
342,65,121830,1,0
342,65,121955,1,0
342,65,122080,1,0
422,65,122330,6,0,B|472:88|480:152,1,100
398,142,122830,2,0,B|376:192|416:248,1,100
489,237,123330,2,0,B|504:296|448:344,1,100
383,329,123830,1,0
302,329,124080,1,0
144,336,124330,6,0,B|104:304|104:304|96:256,1,100
152,199,124830,1,0
208,142,125080,2,0,B|256:158|256:158|288:214,1,100
337,257,125580,2,0,B|384:272|384:272|440:232,2,100
280,200,126330,1,0
337,257,126580,1,0
280,200,126830,1,0
336,143,127080,2,0,B|368:106|368:106|376:50,2,100
279,199,127830,2,0,B|247:241|247:241|255:297,1,100
256,192,128330,12,0,131830
256,192,132330,5,0
256,192,132580,1,0
200,136,132830,1,0
200,136,133080,1,0
256,192,133330,1,0
288,40,134330,5,8
208,40,134580,1,2
208,120,134830,1,8
288,120,135080,1,2
344,176,135330,1,8
344,176,135580,6,0,B|408:160|416:96,1,100
288,120,136080,1,2
208,120,136330,2,0,B|152:120|128:184,1,100
288,120,136830,1,0
208,120,137080,1,0
188,231,137330,5,2
188,231,137580,2,0,B|200:280|200:280|184:328,1,100
104,327,138080,1,2
96,319,138205,1,0
88,311,138330,2,0,B|64:264|64:264|80:208,1,100
133,161,138830,1,0
189,104,139080,1,0
245,160,139330,1,0
189,104,139580,1,0
132,160,139830,2,0,B|96:120|96:120|88:48,2,100,8|2|8
360,80,140830,5,0
360,80,141080,2,0,B|464:80,2,100
160,320,141830,2,0,B|56:320,1,100
160,192,142580,5,0
216,135,142830,1,0
272,78,143080,1,0
160,192,143580,1,0
216,248,143830,1,0
272,304,144080,2,0,B|320:280|320:280|344:232,2,100
215,247,144830,5,2
158,190,145080,1,8
96,144,145330,2,0,B|24:120|24:120|8:24,2,150
176,144,146330,5,8
256,144,146580,1,2
312,87,146830,2,4,B|368:88|400:144,1,100,8|2
337,192,147330,2,0,B|352:240|416:256,1,100
466,197,147830,2,2,B|520:224|512:304,2,100
256,192,148580,12,0,150330
72,160,150580,6,0,B|120:120|176:168,1,100,2|8
243,158,151080,2,0,B|291:118|355:174,1,100,2|8
415,158,151580,1,10
415,158,151830,1,0
416,240,152080,1,2
416,240,152205,1,0
416,240,152330,1,8
416,240,152455,1,0
416,240,152580,1,2
336,240,152830,2,2,B|288:288|240:232,1,100,8|0
168,241,153330,6,2,B|120:193|64:249,1,100,8|0
78,316,153830,1,8
158,316,154080,1,2
238,316,154330,1,8
238,316,154580,5,2
238,317,154830,2,0,B|272:200|336:280|376:160,1,200,8|8
426,121,155580,1,2
369,177,155830,1,8
312,120,156080,1,2
256,192,156330,12,0,158330
256,192,158580,5,2
256,112,158830,1,8
256,32,159080,1,2
256,32,159205,1,0
256,32,159330,1,8
256,32,159455,1,0
256,32,159580,1,2
336,32,159830,2,0,B|384:0|440:40,1,100,8|2
486,89,160330,2,0,B|526:129|494:185,1,100,8|2
496,260,160830,5,8
496,340,161080,1,2
416,340,161330,1,8
336,340,161580,1,2
256,340,161830,1,8
176,340,162080,1,2
96,340,162330,2,8,B|8:236|104:140,1,200
167,158,163080,5,2
247,158,163330,1,8
327,158,163580,1,2
367,158,163705,1,0
401,138,163830,1,8
416,104,163955,1,0
392,72,164080,5,2
352,56,164205,1,0
312,48,164330,1,8
272,40,164455,1,0
232,48,164580,5,2
200,64,164705,1,0
168,88,164830,1,8
144,120,164955,1,0
128,160,165080,5,2
120,200,165205,1,0
128,240,165330,1,8
144,280,165455,1,0
168,312,165580,5,2
208,336,165705,1,0
248,352,165830,1,8
328,352,166080,6,0,B|408:288,1,100,2|8
256,192,166455,12,0,170205
256,192,170330,12,0,173330
