osu file format v9

[General]
AudioFilename: lost in life.mp3
AudioLeadIn: 0
PreviewTime: 43849
Countdown: 1
SampleSet: Soft
StackLeniency: 0.7
Mode: 0
LetterboxInBreaks: 1

[Editor]
DistanceSpacing: 0.8
BeatDivisor: 4
GridSize: 8

[Metadata]
Title:Lost In Life
Artist:Sirenia
Creator:jmt_3
Version:Easy
Source:Sirenia Gothic Metal, Symphonic Metal
Tags:

[Difficulty]
HPDrainRate:0
CircleSize:5
OverallDifficulty:0
ApproachRate:0
SliderMultiplier:1.1
SliderTickRate:1

[Events]
//Background and Video events
0,0,"299899-20061002183819.jpg"
//Break Periods
//Storyboard Layer 0 (Background)
//Storyboard Layer 1 (Fail)
//Storyboard Layer 2 (Pass)
//Storyboard Layer 3 (Foreground)
//Storyboard Sound Samples
//Background Colour Transformations
3,100,163,162,255

[TimingPoints]
8330,500,4,2,0,60,1,0
24830,-100,4,1,0,40,0,0
44330,-100,4,2,1,50,0,1
59830,-100,4,2,0,30,0,0
60705,-100,4,1,0,30,0,0
61205,-100,4,2,0,30,0,0
62705,-100,4,1,0,30,0,0
63205,-100,4,2,0,30,0,0
63705,-100,4,1,0,30,0,0
66205,-100,4,2,0,30,0,0
66705,-100,4,1,0,40,0,0
67205,-100,4,2,0,30,0,0
67705,-100,4,1,0,40,0,0
68205,-100,4,2,0,30,0,0
68705,-100,4,1,0,40,0,0
80330,-100,4,1,0,40,0,1
95830,-100,4,1,0,5,0,0

[Colours]
Combo1 : 100,100,255
Combo2 : 255,128,192
Combo3 : 255,255,255

[HitObjects]
256,192,8330,1,0
168,192,8830,2,0,B|112:168|112:216|56:192,2,110
256,192,10330,1,0
344,192,10830,2,0,B|400:168|400:216|464:184,2,110
344,280,12330,5,0
281,342,12830,1,0
193,342,13330,1,0
130,279,13830,1,0
67,216,14330,6,0,B|48:152|104:120,1,110
189,121,15330,2,0,B|248:96|232:32,2,110
126,183,16830,1,0
188,245,17330,6,0,B|288:304|400:240,1,220
459,179,18830,2,0,B|492:125|468:69,1,110
407,11,19830,1,0
319,11,20330,2,0,B|204:37|156:173,1,220
225,215,21830,5,0
287,152,22330,2,0,B|340:125|340:173|396:141,1,110
392,230,23330,2,0,B|340:205|340:253|284:221,1,110
224,160,24330,1,0
161,97,24830,6,0,B|109:66|45:98,2,110,8|0|8
223,159,26330,2,0,B|277:191|341:159,2,110,0|8|0
160,221,27830,1,8
256,192,28330,12,8,29830
256,48,30330,5,0
318,110,30830,1,8
255,172,31330,1,0
192,109,31830,1,8
129,171,32330,6,0,B|104:224|152:224|120:280,1,110,0|8
210,276,33330,2,0,B|242:225|194:225|218:169,1,110,0|8
305,170,34330,2,0,B|280:224|328:224|304:280,1,110,0|8
393,275,35330,6,0,B|456:176|400:56,1,220
341,2,36830,1,8
278,64,37330,2,0,B|224:168|288:288,2,220
366,64,39830,5,8
366,64,40080,1,0
366,64,40330,1,0
428,126,40830,2,0,B|376:176|304:144,1,110,8|0
264,214,41830,2,0,B|208:240|144:208,1,110,8|0
126,182,42580,2,0,B|104:160|120:128,3,55,0|8|0|8
294,131,44330,6,0,B|352:96|416:144,1,110,2|0
398,220,45330,2,0,B|345:255|289:215,1,110,2|0
232,156,46330,1,0
232,156,46830,1,2
169,93,47330,6,0,B|160:64|128:48,2,55,0|0|2
232,156,48330,1,0
294,218,48830,2,0,B|270:282|192:280,1,110,0|2
148,217,49830,1,2
256,192,50330,12,4,51830
352,104,52580,6,0,B|392:104|392:72,2,55
352,192,53580,2,0,B|392:192|392:224,2,55
264,192,54580,6,0,B|224:192|224:232,1,55
224,266,55080,1,0
224,310,55330,2,0,B|224:344|256:344,1,55
301,344,55830,2,0,B|336:344|336:304,1,55
398,247,56580,5,0
398,247,56830,1,0
398,247,57080,1,0
335,184,57580,1,0
335,184,57830,1,0
335,184,58080,1,0
256,192,58330,12,0,59830
216,192,60330,6,0,B|104:192,1,110
106,104,61330,2,0,B|216:104,1,110
304,104,62330,1,0
392,104,62830,1,0
392,192,63330,2,0,B|392:304,1,110
256,192,64330,12,0,65830
304,192,66330,6,0,B|360:168|368:104,2,110
215,192,67830,2,0,B|160:168|144:104,2,110
277,254,69330,5,0
214,316,69830,1,0
126,316,70330,1,0
63,253,70830,2,0,B|96:192|48:192|72:136,1,110
130,84,71830,1,0
218,84,72330,6,0,B|328:128|360:248,2,220
130,84,74830,2,0,B|80:112|80:184,1,110
142,238,75830,2,0,B|192:216|192:144,1,110
254,85,76830,1,0
316,147,77330,1,0
378,84,77830,1,0
440,146,78330,2,0,B|480:192,4,55
263,146,80330,6,0,B|200:144|184:80,2,110
325,208,81830,1,0
387,270,82330,2,0,B|440:280|464:352,2,110
324,207,83830,5,0
261,144,84330,1,0
198,206,84830,1,0
260,268,85330,1,0
197,330,85830,6,0,B|88:328,1,110,0|0
24,265,86830,2,0,B|136:264,1,110
196,201,87830,2,0,B|88:200,1,110
23,137,88830,2,0,B|144:136,1,110
195,73,89830,5,0
283,73,90330,1,0
220,135,90830,1,0
157,197,91330,2,0,B|144:256|200:288,1,110
263,226,92330,2,0,B|320:240|344:304,2,110
200,163,93830,1,0
256,192,94330,12,0,95830
