osu file format v9

[General]
AudioFilename: Just a little (Female Vocal) - Singular.mp3
AudioLeadIn: 0
PreviewTime: 62629
Countdown: 0
SampleSet: Soft
StackLeniency: 0.7
Mode: 0
LetterboxInBreaks: 0
StoryFireInFront: 0

[Editor]
DistanceSpacing: 1
BeatDivisor: 4
GridSize: 4

[Metadata]
Title:Bao Bao
Artist:Singular
Creator:backstep
Version:Easy
Source:
Tags:0OoMickeyoO0 sin HeatKai The White Room

[Difficulty]
HPDrainRate:3
CircleSize:3
OverallDifficulty:2
ApproachRate:3
SliderMultiplier:0.999999999999999
SliderTickRate:1

[Events]
//Background and Video events
0,0,"BG.jpg"
//Break Periods
//Storyboard Layer 0 (Background)
//Storyboard Layer 1 (Fail)
//Storyboard Layer 2 (Pass)
//Storyboard Layer 3 (Foreground)
Sprite,Foreground,Centre,"SB\title.png",320,240 F,0,5053,5537,0,1 S,0,5054,,1 M,0,5054,8440,215,393,254,393 F,0,5537,7957,1 F,0,7957,8440,1,0
//Storyboard Sound Samples
//Background Colour Transformations
3,100,163,162,255

[TimingPoints]
1170,483.870967741935,4,2,2,50,1,0
14476,-100,4,1,2,30,0,0
15928,-100,4,2,2,30,0,0
16411,-100,4,2,2,50,0,0
21250,-100,4,2,0,50,0,0
21734,-100,4,2,2,50,0,0
60202,-100,4,2,1,50,0,0
60686,-100,4,2,0,50,0,0
61169,-100,4,1,0,30,0,0
61653,-100,4,2,0,50,0,0
63105,-100,4,2,2,60,0,1
78589,-100,4,2,1,0,0,0

[Colours]
Combo1 : 205,9,221
Combo2 : 255,128,0
Combo3 : 128,0,255
Combo4 : 255,255,0
SliderBorder : 255,128,255

[HitObjects]
320,104,8911,2,0,B|440:104,2,99.9999999999999,4|8|0
320,200,10362,1,8
320,300,10846,6,0,B|200:300,3,99.9999999999999,0|8|0|8
120,296,12781,6,0,B|48:224,1,99.9999999999999,0|8
48,124,13749,2,0,B|120:52,1,99.9999999999999,0|8
212,92,14718,6,0,B|212:164|304:164|304:92|304:92|380:92|448:92,1,300,4|0
448,192,16652,5,4
344,192,17136,1,8
168,288,18105,2,0,B|88:208,1,99.9999999999999,8|0
190,178,19073,1,8
112,116,19556,6,0,B|40:44,2,99.9999999999999,0|8|0
188,52,21008,2,0,B|348:52,2,150,8|0|0
256,124,22943,1,8
256,224,23427,5,0
160,196,23910,1,8
60,188,24394,2,0,B|60:308|212:308,2,200,4|0|0
256,152,27298,5,0
256,248,27781,1,8
256,344,28265,2,0,B|376:344|376:208,2,200,4|0|0
40,40,32136,5,4
184,184,33104,1,0
40,324,34072,1,0
184,184,35040,5,0
280,184,35523,1,8
232,272,36007,2,0,B|280:320|368:248|424:304,2,200,4|0|0
40,216,38910,5,0
136,200,39394,1,8
232,184,39878,2,0,B|344:192|384:72,2,200,4|0|0
276,274,42299,1,8
464,344,43265,5,8
360,344,43749,1,0
256,344,44233,2,0,B|184:272,1,99.9999999999999,8|0
256,200,45201,2,0,B|336:120,1,99.9999999999999,8|0
256,56,46169,2,0,B|203:24|152:60,3,99.9999999999999,8|0|0|4
184,152,48104,5,8
128,344,49072,1,8
232,344,49556,1,0
176,264,50040,1,8
176,264,50524,2,0,B|312:264|312:124,1,200,0|4
384,216,51975,5,8
280,40,52943,1,8
176,40,53427,1,0
72,216,54394,2,0,B|288:216,1,200,0|4
344,288,55846,5,8
400,208,56330,2,0,B|464:128,2,99.9999999999999,0|8|0
256,72,58265,6,0,B|176:152,1,99.9999999999999,0|8
256,216,59233,2,0,B|368:328,1,150,4|0
464,320,60444,6,0,B|464:104,1,200,0|4
364,120,61895,1,0
120,160,63104,5,4
202,103,63589,1,8
205,303,64557,1,8
288,248,65040,2,0,B|400:248,2,99.9999999999999,0|8|0
188,248,66491,1,8
352,152,67460,5,8
160,152,68427,1,8
256,184,68910,2,0,B|256:64,2,99.9999999999999,0|8|0
256,280,70362,1,8
160,280,70846,6,0,B|48:280,1,99.9999999999999,4|8
112,192,71814,2,0,B|112:80,1,99.9999999999999,0|8
208,128,72781,2,0,B|280:56,2,99.9999999999999,0|8|0
312,128,74233,1,8
352,224,74717,6,0,B|352:328,1,99.9999999999999,0|8
256,288,75685,2,0,B|152:288,2,99.9999999999999,0|8|4
256,192,76895,12,0,78589
