osu file format v7

[General]
AudioFilename: Shut Up.ogg
AudioLeadIn: 0
PreviewTime: -1
Countdown: 1
SampleSet: Normal
StackLeniency: 0.7
Mode: 0
LetterboxInBreaks: 1

[Editor]
Bookmarks: 10146,27759,44122,57871
DistanceSpacing: 0.800000011920929
BeatDivisor: 4
GridSize: 8

[Metadata]
Title:Shut Up and Sleep with Me - Remix
Artist:Sin With Sebastian
Creator:Woshiwobi
Version:Hard
Source:
Tags:Techno

[Difficulty]
HPDrainRate:6
CircleSize:5
OverallDifficulty:7
SliderMultiplier:1.8
SliderTickRate:1

[Events]
//Background and Video events
//Break Periods
//Storyboard Layer 0 (Background)
//Storyboard Layer 1 (Fail)
//Storyboard Layer 2 (Pass)
//Storyboard Layer 3 (Foreground)
//Storyboard Sound Samples
//Background Colour Transformations
3,100,0,0,0

[TimingPoints]
27759.2330827068,454.527819548873,4,1,0,100,1,0

[HitObjects]
64,200,14805,1,0
64,200,15032,1,0
64,200,15259,1,0
96,136,15486,1,0
152,88,15714,2,0,C|352:72,1,180
400,104,16396,1,0
336,136,16623,5,0
272,168,16850,1,0
208,200,17077,1,0
136,224,17305,1,0
168,288,17532,1,0
232,320,17759,1,0
304,336,17986,1,0
232,320,18214,1,0
256,248,18441,6,0,C|352:336,1,90
392,336,18895,1,0
344,280,19123,1,0
392,224,19350,1,0
424,160,19577,1,0
392,96,19804,1,0
328,64,20032,1,0
256,48,20259,5,0
184,64,20486,1,0
120,104,20714,1,0
88,168,20941,1,0
128,224,21168,2,0,C|232:240,1,90
288,256,21623,1,0
360,248,21850,1,0
400,184,22077,1,0
376,112,22304,5,0
320,64,22532,1,0
304,136,22759,1,0
264,200,22986,1,0
200,240,23213,1,0
128,232,23441,1,0
112,160,23668,1,0
128,88,23895,2,0,C|304:32,1,180
368,64,24577,5,0
416,120,24804,1,0
376,176,25032,1,0
336,232,25259,1,0
280,272,25486,1,0
216,248,25713,5,0
216,248,25941,1,0
160,296,26168,1,0
224,328,26395,1,0
320,312,26622,1,0
384,272,26850,5,0
320,312,27077,1,0
248,320,27304,1,0
248,320,27531,5,0
320,312,27759,1,0
384,272,27986,1,0
336,216,28213,1,0
272,192,28441,1,0
200,176,28668,1,0
136,208,28895,1,0
136,208,29122,5,0
200,176,29350,1,0
272,192,29577,2,0,L|208:96,1,90
168,64,30031,1,0
168,64,30259,1,0
232,40,30486,5,0
304,24,30713,1,0
376,32,30940,2,0,L|392:152,1,90
456,152,31395,1,0
392,208,31622,1,0
392,208,31849,2,0,C|112:272,1,270
88,280,32759,1,0
80,208,32986,1,0
80,208,33213,1,0
72,152,33440,5,0
136,176,33668,1,0
208,192,33895,1,0
176,128,34122,1,0
224,184,34349,1,0
208,112,34577,1,0
272,136,34804,1,0
280,208,35031,1,0
344,168,35258,1,0
368,232,35486,2,0,C|80:232,1,270
24,232,36395,5,0
48,160,36622,1,0
112,128,36849,1,0
176,168,37077,1,0
152,232,37304,1,0
88,272,37531,1,0
88,200,37758,5,0
144,240,37986,1,0
176,176,38213,1,0
88,200,38440,5,0
144,240,38667,1,0
176,176,38895,1,0
128,104,39122,6,0,C|496:104,1,360
384,112,40258,1,0
248,104,40486,1,0
144,48,40713,1,0
96,104,40940,1,0
88,176,41167,1,0
120,240,41395,1,0
176,280,41622,1,0
248,288,41849,1,0
320,272,42076,1,0
376,224,42304,5,0
416,160,42531,1,0
400,88,42758,1,0
336,56,42985,1,0
264,40,43213,1,0
192,56,43440,1,0
152,120,43667,1,0
192,184,43894,1,0
120,192,44122,1,0
152,256,44349,6,0,L|248:320,1,90
296,312,44804,1,0
344,256,45031,1,0
344,184,45258,1,0
280,152,45485,2,0,C|224:216|224:216,1,90
160,176,45940,2,0,C|240:88,1,90
272,64,46394,1,0
336,104,46622,1,0
392,152,46849,6,0,C|240:288,1,180
216,208,47531,1,0
160,160,47758,2,0,C|88:224,1,90
56,280,48212,1,0
120,320,48440,1,0
184,296,48667,2,0,C|280:344,2,90
128,248,49349,1,0
96,184,49576,2,0,C|224:48,1,180
288,32,50258,1,0
328,88,50485,6,0,C|328:296,1,180
328,344,51167,1,0
264,320,51394,1,0
208,280,51621,1,0
152,232,51849,2,0,L|312:144,1,180
384,136,52530,1,0
456,136,52758,6,0,L|456:336,1,180
384,320,53440,1,0
312,320,53667,2,0,L|120:320,1,180
120,248,54349,1,0
120,176,54576,1,0
200,192,54803,1,0
216,120,55030,2,0,C|328:144,3,90
360,184,55939,2,0,C|168:256,1,180
128,216,56621,5,0
136,144,56849,2,0,L|208:72,1,90
256,120,57303,2,0,L|176:200,1,90
208,256,57758,1,0
160,312,57985,1,0
96,280,58212,5,0
56,224,58439,1,0
128,224,58667,1,0
80,272,58894,5,0
152,272,59121,1,0
96,224,59348,1,0
152,176,59576,1,0
120,112,59803,1,0
192,112,60030,2,0,L|192:296,1,180
264,296,60712,1,0
224,360,60939,1,0
296,344,61167,1,0
232,304,61394,1,0
304,280,61621,1,0
256,280,61848,2,0,C|360:136|360:64|312:32|240:32|200:56|192:104|208:200,2,540
320,304,64803,5,0
248,352,65030,1,0
176,336,65257,1,0
136,272,65485,5,0
184,216,65712,1,0
240,168,65939,1,0
256,240,66166,1,0
296,176,66394,1,0
320,248,66621,1,0
360,184,66848,1,0
368,256,67075,1,0
424,296,67303,5,0
360,328,67530,1,0
296,352,67757,1,0
224,360,67984,1,0
152,360,68212,1,0
136,288,68439,1,0
200,312,68666,1,0
272,328,68894,1,0
240,272,69121,2,0,C|360:136|360:64|312:32|240:32|200:56|192:104|208:200,2,540
176,296,72075,5,0
240,272,72302,1,0
312,264,72530,1,0
312,264,72757,5,0
240,272,72984,1,0
176,296,73212,1,0
176,296,73439,5,0
240,272,73666,1,0
312,264,73893,1,0
368,224,74121,2,0,C|448:280,4,90
304,200,75257,1,0
248,160,75484,1,0
248,160,75711,1,0
192,200,75939,2,0,C|232:296,2,90
232,200,76620,5,0
232,200,76848,1,0
296,240,77075,1,0
368,224,77302,1,0
440,160,77530,2,0,C|320:120,3,90
248,248,78439,1,0
248,248,78666,1,0
248,248,78893,1,0
128,224,79120,2,0,C|168:152|272:192,2,180
80,128,80257,5,0
80,128,80484,1,0
104,80,80711,1,0
104,80,80938,1,0
152,128,81166,2,0,C|248:160,3,90
304,232,82075,1,0
304,232,82302,2,0,C|96:232,3,180
80,264,83893,5,0
80,264,84120,1,0
136,216,84347,1,0
136,216,84575,1,0
176,168,84802,2,0,C|248:56,3,90
232,168,85711,1,0
232,168,85938,1,0
296,192,86166,2,0,C|376:256,4,90
264,128,87302,1,0
216,184,87529,1,0
216,184,87756,1,0
168,240,87984,1,0
128,176,88211,5,0
168,112,88438,1,0
208,56,88665,1,0
280,48,88893,1,0
352,48,89120,1,0
424,72,89347,1,0
456,136,89575,1,0
432,200,89802,1,0
376,152,90029,1,0
384,224,90256,1,0
320,184,90484,5,0
320,256,90711,1,0
248,240,90938,1,0
176,248,91165,2,0,C|216:320,2,45
104,240,91620,1,0
72,176,91847,1,0
80,104,92074,1,0
128,56,92302,1,0
200,32,92529,1,0
272,32,92756,1,0
344,48,92983,5,0
408,72,93211,1,0
448,128,93438,1,0
440,200,93665,1,0
408,264,93893,1,0
344,304,94120,1,0
272,312,94347,1,0
200,304,94574,1,0
256,256,94802,2,0,C|296:328,2,45
312,216,95256,1,0
352,152,95483,5,0
280,128,95711,1,0
208,144,95938,1,0
168,88,96165,1,0
232,56,96392,1,0
304,56,96620,1,0
360,104,96847,1,0
392,168,97074,1,0
408,240,97301,1,0
368,296,97529,1,0
296,304,97756,5,0
224,296,97983,1,0
192,232,98211,1,0
120,224,98438,2,0,C|160:296,2,45
152,160,98892,1,0
184,96,99120,1,0
248,152,99347,5,0
320,152,99574,5,0
320,224,99801,5,0
248,224,100029,5,0
248,152,100256,5,0
320,152,100483,5,0
320,224,100710,5,0
248,224,100938,5,0
248,152,101165,5,0
320,152,101392,5,0
320,224,101620,5,0
248,224,101847,5,0
256,192,102188,12,0,104119
