osu file format v5

[General]
AudioFilename: 02-simple_plan_-_take_my_hand-ysp.mp3
AudioLeadIn: 0
PreviewTime: -1
Countdown: 1
SampleSet: None
StackLeniency: 0.7
Mode: 0

[Metadata]
Title:Take My Hand
Artist:Simple Plan
Creator:pesa
Version:Normal
Source:
Tags:

[Difficulty]
HPDrainRate:5
CircleSize:5
OverallDifficulty:5
SliderMultiplier:2
SliderTickRate:2

[Events]
//Background and Video events
//Break Periods
2,12577,20800
2,77533,83800
//Storyboard Layer 0 (Background)
//Storyboard Layer 1 (Failing)
//Storyboard Layer 2 (Passing)
//Storyboard Layer 3 (Foreground)
//Storyboard Sound Samples
//Background Colour Transformations
3,100,163,162,255

[TimingPoints]
0,1000,4,0,0,100

[HitObjects]
192,192,5830,1,0
320,192,6190,1,0
192,192,11987,5,0
320,192,12377,1,0
128,64,22000,6,0,B|128:320|128:320|128:352,1,200
192,256,23000,2,0,B|320:192|320:96|320:96|320:64,1,200
352,64,24000,2,0,B|480:96|480:224|448:256|448:224,1,200
256,192,25666,12,0,29333
96,64,34333,5,0
160,64,34666,1,0
224,64,35000,1,0
288,64,35333,1,0
288,128,35666,1,0
128,128,37333,1,0
128,128,38000,1,0
128,128,38666,1,0
96,32,40333,6,2,B|96:288,1,200
192,32,42333,2,2,B|192:288,1,200
192,160,43666,1,0
256,64,44333,1,0
320,160,44666,1,0
160,96,46000,1,0
256,96,46333,1,0
352,96,46666,1,0
64,64,47666,2,0,B|448:352,1,466.666666666667
96,128,52000,1,0
224,128,52333,1,0
352,128,52666,1,0
416,64,54000,2,0,B|64:352,1,400
160,64,58333,5,0
352,64,59000,1,0
160,160,60333,1,0
352,160,61000,1,0
160,256,61666,1,0
352,256,62333,1,0
160,352,63333,1,0
352,352,64333,1,0
384,160,65000,6,0,B|160:320,2,266.666666666667
256,192,68333,12,0,70333
192,192,71000,5,0
320,192,71333,1,0
192,192,77000,5,0
320,192,77333,1,0
352,64,84000,6,0,B|96:64,2,200
352,256,87000,6,0,B|96:256|128:256,2,200
256,192,91000,12,0,95000
192,64,96333,5,0
320,64,96666,1,0
192,160,97000,1,0
320,160,97333,1,0
192,256,97666,1,0
320,256,98333,1,0
192,352,98666,1,0
320,352,99000,1,0
256,288,99333,1,0
256,288,100000,1,0
256,288,100666,1,0
