osu file format v11

[General]
AudioFilename: 04-simple-plan-astronaut.mp3
AudioLeadIn: 0
PreviewTime: 28804
Countdown: 0
SampleSet: Soft
StackLeniency: 0.5
Mode: 0
LetterboxInBreaks: 1

[Editor]
Bookmarks: 3707,28842,57220,85599,117220
DistanceSpacing: 1.4
BeatDivisor: 4
GridSize: 4

[Metadata]
Title:Astronaut
TitleUnicode:Astronaut
Artist:Simple Plan
ArtistUnicode:Simple Plan
Creator:qkenan
Version:Insane
Source:
Tags:Get Your Heart On! Zero__wind
BeatmapID:205572
BeatmapSetID:65337

[Difficulty]
HPDrainRate:7
CircleSize:4
OverallDifficulty:7
ApproachRate:8
SliderMultiplier:1.4
SliderTickRate:1

[Events]
//Background and Video events
0,0,"bg1.jpg"
//Break Periods
2,57420,59713
2,114176,114848
//Storyboard Layer 0 (Background)
//Storyboard Layer 1 (Fail)
//Storyboard Layer 2 (Pass)
//Storyboard Layer 3 (Foreground)
//Storyboard Sound Samples
//Background Colour Transformations
3,100,163,162,255

[TimingPoints]
2085,405.405405405405,4,2,0,40,1,0
28841,-83.3333333333333,4,2,0,5,0,0
28943,-83.3333333333333,4,2,0,70,0,0
29652,-83.3333333333333,4,1,0,70,0,1
33149,-83.3333333333333,4,1,0,5,0,1
33250,-83.3333333333333,4,1,0,70,0,1
33554,-83.3333333333333,4,1,0,5,0,1
33655,-83.3333333333333,4,1,0,70,0,1
39939,-83.3333333333333,4,1,0,40,0,1
40041,-83.3333333333333,4,1,0,70,0,1
43740,-83.3333333333333,4,1,0,50,0,1
44145,-83.3333333333333,4,1,0,70,0,1
57220,-83.3333333333333,4,2,0,70,0,0
60463,-100,4,2,0,40,0,0
60666,-100,4,2,0,70,0,0
85598,-66.6666666666667,4,2,0,5,0,0
85699,-66.6666666666667,4,2,0,100,0,0
86409,-76.9230769230769,4,1,0,65,0,1
96037,-100,4,1,0,70,0,1
96392,-100,4,1,0,5,0,1
96493,-100,4,1,0,70,0,1
96797,-100,4,1,0,5,0,1
96899,-100,4,1,0,70,0,1
97203,-100,4,1,0,5,0,1
97304,-100,4,1,0,70,0,1
97355,-76.9230769230769,4,1,0,70,0,1
101358,-76.9230769230769,4,1,0,70,0,1
101662,-76.9230769230769,4,1,0,70,0,1
101814,-100,4,1,0,70,0,1
102068,-100,4,1,0,5,0,1
102169,-100,4,1,0,70,0,1
102524,-76.9230769230769,4,1,0,70,0,1
103334,-100,4,1,0,70,0,1
103689,-100,4,1,0,5,0,1
103791,-100,4,1,0,70,0,1
104145,-76.9230769230769,4,1,0,70,0,1
112253,-76.9230769230769,4,1,0,100,0,1
112456,-76.9230769230769,4,1,0,70,0,1
112659,-76.9230769230769,4,1,0,80,0,1
113064,-76.9230769230769,4,1,0,90,0,1
113267,-76.9230769230769,4,1,0,60,0,1
113976,-76.9230769230769,4,1,0,80,0,0
115395,-100,4,2,0,100,0,0
117220,-76.9230769230769,4,2,0,100,0,0
117473,-76.9230769230769,4,2,0,5,0,0
117574,-76.9230769230769,4,2,0,100,0,0
117878,-76.9230769230769,4,2,0,5,0,0
117980,-76.9230769230769,4,2,0,100,0,0
120362,-100,4,2,0,100,0,0
120716,-100,4,2,0,5,0,0
120818,-76.9230769230769,4,2,0,100,0,0
122034,-100,4,2,0,100,0,0
122338,-100,4,2,0,5,0,0
122439,-100,4,2,0,100,0,0
122743,-100,4,2,0,5,0,0
122845,-76.9230769230769,4,2,0,100,0,0
135362,-76.9230769230769,4,2,0,80,0,0
135868,-76.9230769230769,4,2,0,70,0,0
136679,-76.9230769230769,4,2,0,50,0,0
137490,-76.9230769230769,4,2,0,30,0,0
137895,-76.9230769230769,4,2,0,10,0,0
138199,-76.9230769230769,4,2,0,5,0,0

[Colours]
Combo1 : 200,0,0
Combo2 : 192,192,192
Combo3 : 125,125,255
Combo4 : 255,148,40
Combo5 : 141,255,28

[HitObjects]
112,88,2693,1,0,0:0:0
112,192,2895,1,0,0:0:0
204,140,3098,1,0,0:0:0
204,244,3301,1,0,0:0:0
300,200,3503,1,0,0:0:0
300,340,3706,6,0,P|365:320|395:259,1,140,2|0,0:0|0:0,0:0:0
407,45,4517,2,0,P|342:65|312:126,1,140,2|0,0:0|0:0,0:0:0
397,131,5125,1,0,0:0:0
397,131,5328,2,0,P|397:205,1,70,0|0,0:0|0:0,0:0:0
333,256,5733,1,0,0:0:0
88,333,6139,5,0,0:0:0
73,248,6341,1,0,0:0:0
133,189,6544,1,0,0:0:0
196,288,6747,2,0,P|266:310,2,70,0|2|0,0:0|0:0|0:0,0:0:0
144,43,7557,2,0,P|177:59|196:85,1,70,0|2,0:0|0:0,0:0:0
191,192,7963,2,0,P|172:218|139:233,1,70,0|2,0:0|0:0,0:0:0
28,140,8368,2,0,P|196:140,1,140
29,140,8976,1,2,0:0:0
256,42,9382,5,0,0:0:0
346,93,9584,1,0,0:0:0
256,42,9787,2,0,P|256:112|256:112,2,70,0|0|2,0:0|0:0|0:0,0:0:0
114,197,10598,1,0,0:0:0
343,237,11003,1,2,0:0:0
458,157,11206,2,0,P|417:103|349:100,1,140
281,294,11814,2,0,P|306:317|341:322,2,70
438,53,12625,5,0,0:0:0
438,53,12828,1,0,0:0:0
418,217,13030,2,0,P|383:217|351:241,1,70
289,107,13436,2,0,P|260:126|225:126,1,70,2|0,0:0|0:0,0:0:0
81,263,13841,2,0,P|221:263,1,140
45,179,14449,2,0,P|71:112|131:87,1,140
45,180,15057,5,0,0:0:0
136,181,15260,1,0,0:0:0
193,251,15463,1,0,0:0:0
274,284,15666,1,0,0:0:0
355,301,15868,2,0,P|431:337,2,70
274,284,16476,5,0,0:0:0
384,222,16679,2,0,P|312:233|275:284,1,140,2|0,0:0|0:0,0:0:0
109,170,17490,2,0,P|181:159|220:84,1,140,2|0,0:0|0:0,0:0:0
328,47,18098,2,0,P|398:47,1,70
465,108,18503,1,0,0:0:0
465,108,18706,1,0,0:0:0
116,333,19112,6,0,P|54:302|36:231,1,140,2|0,0:0|0:0,0:0:0
116,333,19720,1,0,0:0:0
206,333,19922,1,2,0:0:0
278,277,20125,2,0,P|308:212,1,70
432,242,20530,2,0,P|371:277,1,70,0|2,0:0|0:0,0:0:0
422,126,20936,5,0,0:0:0
349,70,21139,2,0,P|258:52,2,70
349,178,21747,2,0,P|276:198,1,70
202,127,22152,5,0,0:0:0
202,127,22355,2,0,P|133:111,1,70
93,13,22760,2,0,P|54:71,1,70
151,219,23166,2,0,P|199:271|199:271|199:346,1,140,2|0,0:0|0:0,0:0:0
258,38,23976,2,0,P|258:107|258:107|306:159,1,140,2|0,0:0|0:0,0:0:0
102,216,24584,6,0,P|177:216,1,70
240,266,24990,2,0,P|289:315,1,70
318,234,25395,2,0,P|391:234,2,70
329,109,26003,2,0,P|399:109,1,70
212,131,26409,2,0,P|150:171|134:240,1,140,2|0,0:0|0:0,0:0:0
446,229,27220,1,2,0:0:0
256,192,27625,12,0,28841,0:0:0
294,316,29044,5,0,0:0:0
352,223,29247,2,0,P|408:131,1,83.9999974365235
328,51,29652,5,4,0:0:0
182,334,30057,1,0,0:0:0
176,68,30463,1,8,0:0:0
176,68,30666,2,0,P|143:95|132:143,1,83.9999974365235
132,244,31071,2,0,P|144:283|177:310,1,83.9999974365235
132,244,31476,1,0,0:0:0
29,190,31679,2,0,P|113:190,2,83.9999974365235,0|0|8,0:0|0:0|0:0,0:0:0
414,68,32490,6,0,P|465:140,1,83.9999974365235
379,152,32895,2,0,P|369:213|369:213|313:258,1,125.999996154785,0|0,0:0|2:0,0:0:0
302,266,33301,2,0,P|238:267|238:267|192:311,1,125.999996154785,0|0,0:0|2:0,0:0:0
172,311,33706,2,0,P|82:310|82:310|17:250,1,167.999994873047,8|0,0:0|0:0,0:0:0
88,101,34314,1,0,0:0:0
88,101,34517,2,0,P|88:13,2,83.9999974365235
113,267,35125,2,0,P|113:358,1,83.9999974365235,0|8,0:0|0:0,0:0:0
243,135,35530,5,0,0:0:0
257,119,35632,1,0,0:0:0
271,104,35733,2,0,P|332:40,1,83.9999974365235
427,95,36139,1,0,0:0:0
348,170,36341,1,0,0:0:0
427,94,36544,1,0,0:0:0
81,312,36949,6,0,P|123:232,1,83.9999974365235,8|0,0:0|0:0,0:0:0
219,285,37355,2,0,P|266:360,1,83.9999974365235
358,302,37760,2,0,P|398:285|433:300,1,83.9999974365235
395,364,38166,2,0,P|395:197,1,167.999994873047,0|8,0:0|0:0,0:0:0
475,48,38976,6,0,P|456:86|419:104,1,83.9999974365235
344,103,39382,2,0,P|251:102,1,83.9999974365235
205,196,39787,2,0,P|156:93,1,83.9999974365235
68,108,40193,2,0,P|103:32,1,83.9999974365235,8|0,0:0|0:0,0:0:0
73,246,40598,2,0,P|112:167,1,83.9999974365235
332,325,41003,2,0,P|254:291|254:291|178:324,1,167.999994873047
94,324,41612,2,0,P|180:324,1,83.9999974365235,0|8,0:0|0:0,0:0:0
445,90,42220,6,0,P|444:201,2,83.9999974365235
366,253,42828,1,0,0:0:0
267,300,43030,1,0,0:0:0
366,254,43233,1,0,0:0:0
311,159,43436,1,8,0:0:0
273,56,43639,1,0,0:0:0
170,73,43841,1,0,0:0:0
156,89,43943,1,0,0:0:0
141,103,44044,2,0,P|49:104,2,83.9999974365235
57,104,44652,6,0,P|69:148|111:181,1,83.9999974365235
176,247,45057,2,0,P|227:269|263:266,1,83.9999974365235,8|0,0:0|0:0,0:0:0
432,301,45463,2,0,P|440:217|386:159,1,167.999994873047
283,122,46071,1,0,0:0:0
178,90,46274,1,0,0:0:0
282,123,46476,1,0,0:0:0
196,191,46679,1,8,0:0:0
282,123,46882,1,0,0:0:0
317,225,47084,5,0,0:0:0
389,307,47287,2,0,P|431:297|447:259,1,83.9999974365235
449,152,47693,2,0,P|440:111|401:94,1,83.9999974365235
243,45,48098,1,0,0:0:0
243,45,48301,2,0,P|158:45,2,83.9999974365235,8|0|0,0:0|0:0|0:0,0:0:0
267,145,48909,5,0,0:0:0
267,145,49112,1,0,0:0:0
215,250,49314,1,0,0:0:0
265,346,49517,1,0,0:0:0
215,249,49720,2,0,P|131:250,1,83.9999974365235,0|8,0:0|0:0,0:0:0
298,247,50125,2,0,P|215:249,1,83.9999974365235,0|0,0:0|0:0,0:0:0
268,146,50530,5,0,0:0:0
264,63,50733,2,0,P|189:29|96:46,1,167.999994873047
107,42,51341,1,0,0:0:0
173,127,51544,1,8,0:0:0
237,214,51747,1,0,0:0:0
237,213,51949,2,0,P|156:227|83:189,1,167.999994873047
399,52,52760,5,0,0:0:0
399,52,52963,1,0,0:0:0
460,131,53166,1,8,0:0:0
460,131,53368,1,0,0:0:0
446,260,53571,2,0,P|373:298|291:284,1,167.999994873047,0|0,0:0|0:0,0:0:0
292,284,54179,1,0,0:0:0
73,63,54584,5,0,0:0:0
153,136,54787,2,0,P|265:120,1,83.9999974365235,8|0,0:0|0:0,0:0:0
344,106,55193,1,0,0:0:0
432,169,55395,1,0,0:0:0
256,192,55598,12,4,57220,0:0:0
463,72,60463,6,0,P|441:61|441:61|428:69|428:69|416:61|416:61|404:70|404:70|390:61|390:61|376:70|376:70|360:61|360:61|342:72|342:72|341:71,1,140,4|0,0:0|0:0,0:0:0
298,247,61274,1,0,0:0:0
465,200,61679,1,0,0:0:0
298,247,61882,1,0,0:0:0
374,193,62084,2,0,P|372:228|396:258,2,70
113,111,62895,6,0,P|115:76|91:46,2,70,0|0|0,0:0|0:0|0:0,0:0:0
84,284,63503,2,0,P|145:330,1,70
188,110,63909,2,0,P|249:64,1,70
320,117,64314,1,0,0:0:0
248,173,64517,1,0,0:0:0
320,117,64720,5,0,0:0:0
393,332,65125,1,0,0:0:0
393,332,65328,2,0,P|460:289,1,70,0|0,0:0|0:0,0:0:0
325,331,65733,2,0,P|395:331,1,70
245,308,66139,5,0,0:0:0
155,294,66341,1,0,0:0:0
76,247,66544,1,0,0:0:0
39,163,66747,1,0,0:0:0
68,73,66949,2,0,P|124:34|200:25,1,140,2|0,0:0|0:0,0:0:0
444,73,67760,2,0,P|388:34|318:24,1,140
256,91,68368,2,0,P|256:16,1,70
256,91,68774,2,0,P|256:162,1,70
140,192,69179,5,0,0:0:0
140,192,69382,2,0,P|116:224|112:252,1,70
200,232,69787,2,0,P|224:200|228:172,1,70
116,120,70193,2,0,P|64:172|40:236,1,140,2|0,0:0|0:0,0:0:0
116,120,70801,2,0,P|116:36,1,70
116,120,71206,2,0,P|192:120,1,70
376,72,71612,6,0,P|444:36,2,70
440,172,72220,1,0,0:0:0
440,172,72422,2,0,P|378:204,1,70,0|0,0:0|0:0,0:0:0
308,284,72828,1,0,0:0:0
204,310,73030,1,0,0:0:0
204,310,73233,1,0,0:0:0
105,332,73436,6,0,P|42:300,1,70,2|0,0:0|0:0,0:0:0
49,72,73841,2,0,P|71:61|71:61|84:69|84:69|96:61|96:61|108:70|108:70|122:61|122:61|136:70|136:70|152:61|152:61|170:72|170:72|171:71,1,140,0|0,0:0|0:0,0:0:0
88,140,74449,1,0,0:0:0
88,232,74652,1,0,0:0:0
84,324,74855,2,0,P|16:360,2,70,0|2|0,0:0|0:0|0:0,0:0:0
176,324,75463,2,0,P|244:360,1,70
320,320,75868,2,0,P|388:284,1,70
466,320,76273,1,0,0:0:0
466,228,76476,1,0,0:0:0
468,136,76679,5,2,0:0:0
420,56,76882,2,0,P|280:56,1,140
204,106,77490,1,0,0:0:0
128,52,77693,2,0,P|41:100,1,70
58,176,78098,2,0,P|58:246,1,70,0|0,0:0|0:0,0:0:0
57,177,78503,1,0,0:0:0
140,213,78706,1,0,0:0:0
231,211,78909,5,0,0:0:0
319,187,79112,1,0,0:0:0
332,104,79314,2,0,P|392:64,2,70
76,332,79922,2,0,P|84:264|132:212,1,140,4|0,0:0|0:0,0:0:0
76,332,80530,2,0,P|152:332,1,70
236,332,80936,5,0,0:0:0
252,332,81037,1,0,0:0:0
268,332,81139,2,0,P|308:320|328:300,1,70
396,240,81544,2,0,P|424:212|432:176,1,70,2|0,0:0|0:0,0:0:0
396,240,81949,2,0,P|368:268|360:304,1,70
96,88,82355,6,0,P|48:88,2,35
144,164,82760,1,0,0:0:0
100,244,82963,1,0,0:0:0
300,68,83166,2,0,P|368:44|432:68,1,140,2|0,0:0|0:0,0:0:0
364,132,83774,1,0,0:0:0
364,132,83875,1,0,0:0:0
364,132,83976,2,0,P|364:208,1,70
256,192,84382,12,0,85598,0:0:0
151,193,85801,21,0,0:0:0
108,100,86003,2,0,P|132:56|184:28,1,105.000004005432
334,29,86409,53,4,0:0:0
152,340,86814,1,0,0:0:0
136,320,86916,1,0,0:0:0
120,300,87017,2,0,P|56:220,1,90.9999958343508,0|8,0:0|0:0,0:0:0
104,100,87422,2,0,P|168:180,1,90.9999958343508
225,270,87828,1,0,0:0:0
160,171,88030,1,0,0:0:0
412,44,88436,5,0,0:0:0
464,152,88639,1,0,0:0:0
348,144,88841,1,8,0:0:0
400,252,89044,2,0,P|378:286|336:312,2,90.9999958343508
173,307,89652,5,0,0:0:0
173,307,89855,1,0,0:0:0
84,225,90057,1,0,0:0:0
84,225,90260,1,0,0:0:0
84,112,90463,1,8,0:0:0
168,28,90666,1,0,0:0:0
84,112,90868,1,0,0:0:0
200,136,91071,1,0,0:0:0
300,72,91274,6,0,P|340:36|380:48,1,90.9999958343508
300,72,91679,2,0,P|248:55|239:14,1,90.9999958343508
300,72,92084,1,8,0:0:0
344,181,92287,1,0,0:0:0
322,297,92490,1,0,0:0:0
188,356,92693,6,0,P|120:336|96:304,1,90.9999958343508,0|0,0:0|0:0,0:0:0
43,235,93098,1,0,0:0:0
137,295,93301,2,0,P|155:300|224:284,1,90.9999958343508,0|0,0:0|0:0,0:0:0
43,235,93706,1,8,0:0:0
146,256,93909,2,0,P|164:252|216:204,1,90.9999958343508,0|0,0:0|0:0,0:0:0
43,235,94314,1,0,0:0:0
448,332,94517,6,0,P|484:248|452:160,1,181.999991668702
448,332,95125,1,0,0:0:0
448,332,95226,1,0,0:0:0
448,332,95328,1,8,0:0:0
80,64,95733,2,0,P|128:60|168:84,1,90.9999958343508
426,92,96139,6,0,P|374:104|338:148,1,105,0|0,0:0|2:0,0:0:0
367,219,96544,2,0,P|333:256|281:268,1,105,0|0,0:0|2:0,0:0:0
236,200,96949,2,0,P|184:212|148:256,1,105,8|0,0:0|2:0,0:0:0
116,308,97355,1,0,0:0:0
52,208,97557,1,0,0:0:0
68,92,97760,1,0,0:0:0
460,176,98166,5,0,0:0:0
444,292,98368,1,0,0:0:0
436,320,98470,1,0,0:0:0
428,344,98571,1,8,0:0:0
460,176,98774,1,0,0:0:0
460,176,98976,1,0,0:0:0
312,132,99179,5,0,0:0:0
312,132,99382,2,0,P|276:108|228:112,1,90.9999958343508
279,270,99787,1,0,0:0:0
279,270,99990,2,0,P|318:251|339:207,1,90.9999958343508,0|8,0:0|0:0,0:0:0
176,173,100395,1,0,0:0:0
176,173,100598,2,0,P|173:216|200:256,1,90.9999958343508
200,132,101003,5,0,0:0:0
200,132,101206,2,0,P|236:108|284:112,1,90.9999958343508
372,32,101612,1,0,0:0:0
440,200,101814,6,0,P|476:232|468:288,1,105,8|0,0:0|2:0,0:0:0
412,320,102220,2,0,P|356:272|388:196,1,140,0|0,0:0|0:0,0:0:0
372,44,102828,1,0,0:0:0
200,108,103030,1,0,0:0:0
216,288,103233,1,0,0:0:0
72,184,103436,6,0,P|36:152|44:96,1,105,8|0,0:0|2:0,0:0:0
104,64,103842,2,0,P|160:112|128:188,1,140,0|0,0:0|0:0,0:0:0
288,48,104449,1,0,0:0:0
288,48,104652,2,0,P|380:88,1,90.9999958343508
468,156,105057,1,8,0:0:0
372,232,105260,1,0,0:0:0
364,252,105362,1,0,0:0:0
356,272,105463,2,0,P|292:340|204:348,1,181.999991668702
60,48,106274,5,0,0:0:0
60,48,106476,2,0,P|148:112,1,90.9999958343508,0|8,0:0|0:0,0:0:0
172,216,106882,2,0,P|195:128,1,90.9999958343508
328,148,107287,2,0,P|250:196,1,90.9999958343508
172,216,107693,2,0,P|236:283,1,90.9999958343508
444,40,108301,5,8,0:0:0
56,272,108706,1,0,0:0:0
108,164,108909,1,0,0:0:0
116,144,109011,1,0,0:0:0
124,124,109112,2,0,P|188:56|276:48,1,181.999991668702
388,76,109720,1,0,0:0:0
272,48,109922,1,8,0:0:0
344,332,110328,37,0,0:0:0
344,332,110530,2,0,P|264:284,1,90.9999958343508
332,223,110936,2,0,P|265:285,1,90.9999958343508
265,285,111341,2,0,P|172:304,2,90.9999958343508,0|8|0,0:0|0:0|0:0,0:0:0
160,236,111949,53,0,0:0:0
272,176,112152,1,0,0:0:0
136,160,112355,53,4,0:1:0
272,104,112557,5,0,0:0:0
116,84,112760,1,0,0:0:0
272,32,112963,1,0,0:0:0
404,128,113166,53,4,0:1:0
252,100,113368,5,0,0:0:0
368,188,113571,1,0,0:0:0
232,164,113774,1,0,0:0:0
276,284,113976,53,4,0:0:0
381,78,115598,22,0,P|329:148,1,70,2|0,0:0|0:0,0:0:0
309,76,116003,2,0,P|247:122,1,70,2|0,0:0|0:0,0:0:0
248,45,116409,2,0,P|172:49,3,70,2|0|0|0,0:0|0:0|0:0|0:0,0:0:0
116,80,117220,6,0,P|84:140|116:196,1,136.499993751526,0|0,0:0|0:0,0:0:0
184,256,117625,2,0,P|216:200|188:140,1,136.499993751526
115,195,118030,2,0,P|297:195,1,181.999991668702,2|0,0:0|0:0,0:0:0
115,195,118639,1,0,0:0:0
209,276,118841,1,0,0:0:0
99,321,119044,1,0,0:0:0
78,331,119145,1,0,0:0:0
60,343,119247,1,0,0:0:0
480,102,119652,6,0,P|425:190,1,90.9999958343508,2|0,0:0|0:0,0:0:0
313,99,120058,2,0,P|260:16,1,90.9999958343508
161,79,120463,2,0,P|114:99|67:75,1,105
116,19,120869,2,0,P|116:208,1,181.999991668702,0|2,0:0|0:0,0:0:0
225,157,121476,1,0,0:0:0
327,97,121679,1,0,0:0:0
225,35,121882,1,0,0:0:0
317,232,122084,6,0,P|368:256|426:253,1,105
499,310,122490,2,0,P|457:334|401:338,1,105
384,337,122895,1,2,0:0:0
302,335,123098,2,0,P|258:338|202:323,1,90.9999958343508
133,271,123503,1,0,0:0:0
96,188,123706,5,0,0:0:0
120,92,123909,1,0,0:0:0
216,40,124111,1,0,0:0:0
336,40,124314,1,0,0:0:0
456,108,124517,2,0,P|448:189|376:252,1,181.999991668702,2|0,0:0|0:0,0:0:0
193,131,125125,5,0,0:0:0
117,201,125327,1,0,0:0:0
214,226,125530,1,0,0:0:0
298,158,125733,2,0,P|330:120|324:76,1,90.9999958343508
214,226,126139,2,0,P|182:264|188:308,1,90.9999958343508,2|0,0:0|0:0,0:0:0
320,234,126544,6,0,P|406:268,1,90.9999958343508
192,150,126949,2,0,P|106:116,1,90.9999958343508
318,120,127355,1,0,0:0:0
194,264,127557,1,0,0:0:0
320,234,127760,5,2,0:0:0
416,116,127963,2,0,P|422:68|393:34,1,90.9999958343508
301,34,128368,1,0,0:0:0
202,51,128570,1,0,0:0:0
111,112,128774,1,0,0:0:0
60,218,128976,1,0,0:0:0
35,343,129179,2,0,P|84:350|124:336,1,90.9999958343508,0|2,0:0|0:0,0:0:0
450,208,129787,37,0,0:0:0
344,260,129990,1,0,0:0:0
353,139,130193,2,0,P|284:71,1,90.9999958343508
368,223,130598,2,0,P|264:190,1,90.9999958343508
452,256,131003,1,2,0:0:0
452,256,131206,2,0,P|408:157,1,90.9999958343508
156,124,131612,5,0,0:0:0
144,148,131713,1,0,0:0:0
134,173,131814,2,0,P|124:221|149:255,1,90.9999958343508
250,311,132220,1,0,0:0:0
256,114,132625,37,2,0:0:0
345,251,132828,1,0,0:0:0
465,141,133030,1,0,0:0:0
321,61,133233,1,0,0:0:0
255,211,133436,53,4,0:0:0
118,120,133639,5,0,0:0:0
75,277,133841,1,0,0:0:0
235,311,134044,1,0,0:0:0
206,149,134247,53,4,0:0:0
358,205,134449,5,0,0:0:0
395,45,134652,1,0,0:0:0
232,36,134855,1,0,0:0:0
256,196,135057,53,4,0:0:0
256,192,135159,12,0,138300,0:0:0
