osu file format v14

[General]
AudioFilename: crossbones.mp3
AudioLeadIn: 0
PreviewTime: 10212
Countdown: 0
SampleSet: None
StackLeniency: 0.7
Mode: 0
LetterboxInBreaks: 1
WidescreenStoryboard: 0

[Editor]
DistanceSpacing: 0.8
BeatDivisor: 4
GridSize: 4
TimelineZoom: 1

[Metadata]
Title:Crossbones
TitleUnicode:Crossbones
Artist:Simon Viklund
ArtistUnicode:Simon Viklund
Creator:TheAmerican544
Version:Normal
Source:
Tags:Orchestral, Instrumental
BeatmapID:594955
BeatmapSetID:260401

[Difficulty]
HPDrainRate:5
CircleSize:3
OverallDifficulty:4
ApproachRate:5
SliderMultiplier:1
SliderTickRate:2

[Events]
//Background and Video events
0,0,"vector-crossbones-shape-o.jpg",0,0
//Break Periods
2,39289,40349
//Storyboard Layer 0 (Background)
//Storyboard Layer 1 (Fail)
//Storyboard Layer 2 (Pass)
//Storyboard Layer 3 (Foreground)
//Storyboard Sound Samples

[TimingPoints]
1935,247.320692497939,4,3,0,40,1,0
5892,247.116968698517,4,3,0,40,1,0
9845,244.897959183673,4,3,0,40,1,0
13763,245.901639344262,4,3,0,40,1,0
17697,245.901639344262,4,3,0,40,1,0
33345,-100,4,3,0,10,0,0
45237,245.700245700246,4,3,0,50,1,1
53099,246.103363412633,4,3,0,50,1,1
60974,245.700245700246,4,3,0,10,1,0
62325,-100,4,3,0,40,0,0
63185,-100,4,3,0,10,0,0
64290,-100,4,3,0,40,0,0

[HitObjects]
96,84,1934,6,0,B|304:80,1,200,4|0,0:0|0:0,0:0:0:0:
376,84,2676,1,0,0:0:0:0:
380,164,2924,2,0,B|472:296,2,150,0|0|0,0:0|0:0|0:0,0:0:0:0:
292,188,3913,1,4,0:0:0:0:
220,228,4160,6,0,B|72:208|100:80,1,200
176,88,4902,1,0,0:0:0:0:
252,116,5150,2,0,B|400:188|444:192,1,200
444,112,5892,1,4,0:0:0:0:
368,84,6139,6,0,B|260:28|224:52|168:40|60:40,1,300
84,120,7127,6,0,B|152:120,2,50,0|0|0,0:0|0:0|0:0,0:0:0:0:
88,200,7621,2,0,B|152:200,2,50,0|0|0,0:0|0:0|0:0,0:0:0:0:
92,280,8116,2,0,B|152:280,2,50,0|0|0,0:0|0:0|0:0,0:0:0:0:
120,356,8610,2,0,B|208:324,1,75,0|0,0:0|0:0,0:0:0:0:
264,268,9104,6,0,L|108:140,1,200
164,80,9845,1,4,0:0:0:0:
244,88,10089,2,0,P|380:172|336:280,1,300
264,308,11069,1,0,0:0:0:0:
188,340,11314,5,0,0:0:0:0:
144,272,11559,1,0,0:0:0:0:
104,204,11804,2,0,P|100:48|288:108,1,400,4|0,0:0|0:0,0:0:0:0:
332,156,13028,1,0,0:0:0:0:
408,128,13273,5,0,0:0:0:0:
440,204,13518,1,0,0:0:0:0:
428,284,13763,2,8,L|128:308,1,300,4|0,0:0|0:0,0:0:0:0:
60,264,14746,2,0,B|128:264|128:264,2,50,0|0|0,0:0|0:0|0:0,0:0:0:0:
48,184,15238,6,0,B|112:188|112:188,2,50,0|0|0,0:0|0:0|0:0,0:0:0:0:
32,104,15730,2,0,B|88:104|88:104,2,50,0|0|0,0:0|0:0|0:0,0:0:0:0:
24,24,16222,2,0,B|-48:24|-48:24,2,50,0|0|0,0:0|0:0|0:0,0:0:0:0:
104,40,16713,1,0,0:0:0:0:
184,56,16959,5,0,0:0:0:0:
264,68,17205,1,0,0:0:0:0:
340,48,17451,1,0,0:0:0:0:
348,128,17697,2,0,P|436:232|320:304,1,300,4|14,0:0|0:0,0:0:0:0:
260,252,18680,5,0,0:0:0:0:
184,272,18926,2,0,B|116:188|172:128|216:104,1,200
288,132,19664,1,4,0:0:0:0:
336,68,19910,1,0,0:0:0:0:
384,132,20156,5,0,0:0:0:0:
424,200,20401,2,0,B|240:340|76:300|44:236,1,400,4|4,0:0|0:0,0:0:0:0:
92,184,21631,2,0,L|296:164,1,200,4|0,0:0|0:0,0:0:0:0:
372,152,22369,1,4,0:0:0:0:
416,220,22615,6,0,P|264:332|156:288,1,300,4|0,0:0|0:0,0:0:0:0:
128,236,23598,1,4,0:0:0:0:
112,156,23844,2,0,P|224:136|228:136,2,100,4|0|4,0:0|0:0|0:0,0:0:0:0:
128,76,24582,1,0,0:0:0:0:
200,44,24828,5,0,0:0:0:0:
280,60,25074,1,0,0:0:0:0:
360,76,25319,1,0,0:0:0:0:
404,144,25565,2,0,L|232:264,1,200,4|0,0:0|0:0,0:0:0:0:
164,236,26303,5,4,0:0:0:0:
188,128,27533,2,0,B|156:192|156:192,2,50,4|4|4,0:0|0:0|0:0,0:0:0:0:
256,88,28024,2,0,L|336:152,1,100,4|4,0:0|0:0,0:0:0:0:
328,264,29500,2,0,B|164:256,2,150,4|0|4,0:0|0:0|0:0,0:0:0:0:
184,204,31467,6,0,L|276:160,1,100,4|0,0:0|0:0,0:0:0:0:
352,188,31959,1,0,0:0:0:0:
332,264,32205,2,0,L|236:312,1,100,4|0,0:0|0:0,0:0:0:0:
212,84,33926,1,0,0:0:0:0:
352,160,34418,6,0,L|184:272,2,200,0|0|0,0:0|0:0|0:0,0:0:0:0:
456,220,37615,1,0,0:0:0:0:
412,288,37860,1,0,0:0:0:0:
332,284,38106,2,0,B|240:244|216:224|160:172,2,200,0|0|0,0:0|0:0|0:0,0:0:0:0:
128,172,41549,5,0,0:0:0:0:
192,120,41795,1,0,0:0:0:0:
228,192,42041,1,0,0:0:0:0:
240,272,42287,2,0,L|448:300,1,200
412,140,43270,6,0,B|308:92|212:84,1,200
152,128,44008,1,0,0:0:0:0:
148,208,44254,1,0,0:0:0:0:
88,112,45237,5,4,0:0:0:0:
172,136,45482,1,4,0:0:0:0:
252,124,45728,1,4,0:0:0:0:
332,132,45974,1,4,0:0:0:0:
368,204,46219,6,0,B|252:200|152:244|152:244|72:192,1,300,0|0,0:0|0:0,0:0:0:0:
84,120,47202,5,4,0:0:0:0:
160,100,47448,1,4,0:0:0:0:
240,100,47694,1,4,0:0:0:0:
300,152,47939,2,0,L|260:260,2,100,0|0|0,0:0|0:0|0:0,0:0:0:0:
380,164,48676,5,0,0:0:0:0:
432,220,48922,1,0,0:0:0:0:
364,260,49168,2,0,B|336:168|92:156,1,300,14|0,0:0|0:0,0:0:0:0:
120,232,50151,1,0,0:0:0:0:
168,296,50396,5,0,0:0:0:0:
240,260,50642,1,0,0:0:0:0:
316,288,50888,1,0,0:0:0:0:
376,236,51133,2,0,P|276:172|224:104,2,200,14|0|14,0:0|0:0|0:0,0:0:0:0:
244,328,52608,6,0,L|192:324,2,50,0|0|0,0:0|0:0|0:0,0:0:0:0:
252,248,53099,1,4,0:0:0:0:
260,168,53345,2,0,L|376:176,1,100
344,96,53837,2,0,B|132:80|132:80|92:180,1,300,0|0,0:0|0:0,0:0:0:0:
104,240,54821,5,0,0:0:0:0:
172,284,55067,2,0,P|160:320|172:336,2,50,4|0|4,0:0|0:0|0:0,0:0:0:0:
248,308,55560,1,0,0:0:0:0:
328,312,55806,1,0,0:0:0:0:
324,232,56052,6,0,L|380:136,2,100,0|0|0,0:0|0:0|0:0,0:0:0:0:
244,248,56790,1,0,0:0:0:0:
164,256,57036,1,4,0:0:0:0:
112,196,57282,1,0,0:0:0:0:
168,136,57528,5,0,0:0:0:0:
248,128,57774,1,4,0:0:0:0:
316,172,58021,2,0,L|436:172,1,100,0|0,0:0|0:0,0:0:0:0:
416,252,58513,2,0,P|316:344|264:316,2,200,4|0|4,0:0|0:0|0:0,0:0:0:0:
340,232,59743,6,0,P|264:224|264:208,2,100,4|0|4,0:0|0:0|0:0,0:0:0:0:
336,152,60482,2,0,P|280:164|256:132,2,100,4|0|4,0:0|0:0|0:0,0:0:0:0:
176,140,61465,2,0,B|312:256|248:32|276:20|404:36,1,300
404,112,62448,1,4,0:0:0:0:
356,176,62693,5,4,0:0:0:0:
364,256,62939,1,4,0:0:0:0:
204,236,63431,2,0,P|144:124|280:112,1,300
304,180,64413,1,4,0:0:0:0:
248,236,64659,5,4,0:0:0:0:
224,160,64905,1,4,0:0:0:0:
