osu file format v14

[General]
AudioFilename: crossbones.mp3
AudioLeadIn: 0
PreviewTime: 10212
Countdown: 0
SampleSet: None
StackLeniency: 0.7
Mode: 0
LetterboxInBreaks: 1
WidescreenStoryboard: 1

[Editor]
DistanceSpacing: 1.2
BeatDivisor: 4
GridSize: 4
TimelineZoom: 1

[Metadata]
Title:Crossbones
TitleUnicode:Crossbones
Artist:Simon Viklund
ArtistUnicode:Simon Viklund
Creator:TheAmerican544
Version:Hard
Source:
Tags:Orchestral, Instrumental
BeatmapID:598861
BeatmapSetID:260401

[Difficulty]
HPDrainRate:6
CircleSize:4
OverallDifficulty:6
ApproachRate:7
SliderMultiplier:1
SliderTickRate:2

[Events]
//Background and Video events
0,0,"vector-crossbones-shape-o.jpg",0,0
//Break Periods
2,39290,40649
//Storyboard Layer 0 (Background)
//Storyboard Layer 1 (Fail)
//Storyboard Layer 2 (Pass)
//Storyboard Layer 3 (Foreground)
//Storyboard Sound Samples

[TimingPoints]
1935,247.320692497939,4,3,0,40,1,0
5892,247.116968698517,4,3,0,40,1,0
9845,244.897959183673,4,3,0,40,1,0
13763,245.901639344262,4,3,0,40,1,0
17697,245.901639344262,4,3,0,40,1,0
33345,-100,4,3,0,10,0,0
45237,245.700245700246,4,3,0,50,1,1
53099,246.103363412633,4,3,0,50,1,1
58574,-100,4,3,0,55,0,1
59128,-100,4,3,0,60,0,1
59620,-100,4,3,0,65,0,1
60112,-100,4,3,0,70,0,1
60605,-100,4,3,0,75,0,1
60974,245.700245700246,4,3,0,80,1,0
61158,-100,4,3,0,10,0,0
62325,-100,4,3,0,55,0,0
63185,-100,4,3,0,10,0,0
64290,-100,4,3,0,40,0,0

[HitObjects]
104,68,1934,5,4,0:0:0:0:
184,80,2182,2,0,L|292:80,1,100,0|0,0:0|0:0,0:0:0:0:
360,108,2676,1,0,0:0:0:0:
360,188,2924,1,0,0:0:0:0:
392,260,3171,1,0,0:0:0:0:
336,288,3295,1,0,0:0:0:0:
284,316,3418,1,0,0:0:0:0:
216,280,3666,1,0,0:0:0:0:
208,200,3913,5,4,0:0:0:0:
124,204,4160,2,0,B|60:244|24:240|24:260,1,100
88,304,4655,1,0,0:0:0:0:
168,296,4902,1,0,0:0:0:0:
248,288,5150,1,0,0:0:0:0:
288,244,5273,1,0,0:0:0:0:
324,196,5397,1,0,0:0:0:0:
188,205,5644,1,0,0:0:0:0:
144,140,5892,5,4,0:0:0:0:
168,64,6139,1,0,0:0:0:0:
248,64,6386,1,0,0:0:0:0:
328,80,6633,2,0,P|368:100|408:144,1,100,0|0,0:0|0:0,0:0:0:0:
248,72,7127,1,0,0:0:0:0:
192,96,7251,1,0,0:0:0:0:
140,124,7374,1,0,0:0:0:0:
172,220,7621,5,0,0:0:0:0:
228,240,7745,1,0,0:0:0:0:
284,256,7868,1,0,0:0:0:0:
376,332,8116,1,0,0:0:0:0:
316,344,8239,1,0,0:0:0:0:
256,356,8363,1,0,0:0:0:0:
180,332,8610,2,0,B|180:276|180:276|180:264,2,50,0|0|0,0:0|0:0|0:0,0:0:0:0:
180,252,9104,2,0,B|212:180|248:168|256:192,1,100
164,164,9598,1,0,0:0:0:0:
96,120,9845,5,4,0:0:0:0:
160,72,10089,2,0,P|216:48|264:72,1,100
312,112,10579,1,0,0:0:0:0:
312,192,10824,2,0,B|224:188|232:252,1,100
228,272,11191,1,0,0:0:0:0:
228,308,11314,1,0,0:0:0:0:
308,308,11559,1,0,0:0:0:0:
364,252,11804,5,4,0:0:0:0:
300,204,12049,1,0,0:0:0:0:
360,148,12293,1,0,0:0:0:0:
420,200,12538,1,0,0:0:0:0:
416,280,12783,2,0,L|320:320,1,100
288,304,13151,1,0,0:0:0:0:
248,288,13273,1,0,0:0:0:0:
200,224,13518,1,0,0:0:0:0:
148,284,13763,5,4,0:0:0:0:
104,216,14008,2,0,L|180:132,1,100,0|0,0:0|0:0,0:0:0:0:
212,72,14500,1,0,0:0:0:0:
288,92,14746,1,0,0:0:0:0:
380,172,14992,5,0,0:0:0:0:
376,232,15115,1,0,0:0:0:0:
368,292,15238,1,0,0:0:0:0:
252,316,15484,1,0,0:0:0:0:
192,324,15607,1,0,0:0:0:0:
132,320,15730,1,0,0:0:0:0:
96,204,15976,5,0,0:0:0:0:
112,144,16099,1,0,0:0:0:0:
124,84,16222,1,0,0:0:0:0:
240,52,16467,1,0,0:0:0:0:
300,60,16590,1,0,0:0:0:0:
360,68,16713,1,0,0:0:0:0:
440,156,16959,1,0,0:0:0:0:
372,204,17205,1,0,0:0:0:0:
316,264,17451,5,0,0:0:0:0:
236,252,17697,2,0,L|120:252,1,100,4|0,0:0|0:0,0:0:0:0:
152,172,18188,1,0,0:0:0:0:
216,124,18434,1,4,0:0:0:0:
296,128,18680,1,0,0:0:0:0:
356,176,18926,2,0,P|428:228|440:232,2,100,0|0|0,0:0|0:0|0:0,0:0:0:0:
308,240,19664,6,0,L|212:296,1,100,4|0,0:0|0:0,0:0:0:0:
148,260,20156,1,0,0:0:0:0:
116,188,20401,2,0,B|152:100|264:112|264:112|304:128,1,200,4|0,0:0|0:0,0:0:0:0:
308,148,21016,1,0,0:0:0:0:
344,168,21139,1,0,0:0:0:0:
412,212,21385,1,0,0:0:0:0:
352,264,21631,2,0,L|248:304,1,100,4|0,0:0|0:0,0:0:0:0:
180,308,22123,1,0,0:0:0:0:
108,272,22369,6,0,B|84:220|144:184|144:184,1,100,4|0,0:0|0:0,0:0:0:0:
256,252,22860,1,0,0:0:0:0:
284,200,22983,1,0,0:0:0:0:
320,152,23106,1,0,0:0:0:0:
296,36,23352,1,0,0:0:0:0:
240,56,23475,1,0,0:0:0:0:
184,76,23598,1,0,0:0:0:0:
100,164,23844,1,0,0:0:0:0:
84,224,23967,5,0,0:0:0:0:
56,276,24090,1,0,0:0:0:0:
92,328,24336,2,0,B|148:360|148:360,2,50,0|0|0,0:0|0:0|0:0,0:0:0:0:
188,292,24828,1,0,0:0:0:0:
240,352,25074,1,0,0:0:0:0:
288,288,25319,1,0,0:0:0:0:
332,220,25565,1,4,0:0:0:0:
288,148,25811,2,0,B|276:60|316:48,2,100,4|4|4,0:0|0:0|0:0,0:0:0:0:
192,149,27533,6,0,B|248:152|248:152,4,50,4|4|4|4|4,0:0|0:0|0:0|0:0|0:0,0:0:0:0:
184,228,28270,1,4,0:0:0:0:
392,172,29500,2,0,P|432:244|344:260,1,200,4|0,0:0|0:0,0:0:0:0:
268,236,30237,2,0,P|164:240|220:324,1,250,4|0,0:0|0:0,0:0:0:0:
308,144,31467,1,0,0:0:0:0:
248,92,31713,1,0,0:0:0:0:
304,36,31959,1,0,0:0:0:0:
364,88,32205,1,0,0:0:0:0:
377,166,32451,6,0,L|281:233,1,100
217,204,32942,2,0,L|287:294,1,100,0|0,0:0|0:0,0:0:0:0:
346,326,33434,2,2,L|440:284,1,100
376,232,33926,1,0,0:0:0:0:
307,189,34172,1,0,0:0:0:0:
284,112,34418,2,0,B|178:112|178:112|98:171,2,200,0|0|0,0:0|0:0|0:0,0:0:0:0:
138,217,37615,5,0,0:0:0:0:
214,238,37860,1,0,0:0:0:0:
259,171,38106,1,0,0:0:0:0:
195,122,38352,2,0,B|278:70|278:70|297:58,1,100,0|0,0:0|0:0,0:0:0:0:
308,97,38721,1,0,0:0:0:0:
341,118,38844,1,0,0:0:0:0:
401,170,39090,1,0,0:0:0:0:
93,112,41549,6,0,L|183:161,1,100,0|0,0:0|0:0,0:0:0:0:
248,120,42041,1,0,0:0:0:0:
288,52,42287,1,0,0:0:0:0:
361,73,42533,1,0,0:0:0:0:
392,124,42656,1,0,0:0:0:0:
432,168,42778,1,0,0:0:0:0:
424,288,43024,5,0,0:0:0:0:
364,288,43147,1,0,0:0:0:0:
304,280,43270,1,0,0:0:0:0:
204,212,43516,1,0,0:0:0:0:
208,152,43639,1,0,0:0:0:0:
216,92,43762,1,0,0:0:0:0:
256,192,44254,12,0,45237,0:0:0:0:
136,272,45482,5,0,0:0:0:0:
176,204,45728,1,0,0:0:0:0:
220,140,45974,1,0,0:0:0:0:
280,88,46219,2,0,B|408:124|408:124|392:200,2,200,4|0|4,0:0|0:0|0:0,0:0:0:0:
256,164,47448,1,4,0:0:0:0:
176,176,47694,1,0,0:0:0:0:
116,124,47939,1,0,0:0:0:0:
184,80,48185,2,0,L|352:104,2,150,4|0|4,0:0|0:0|0:0,0:0:0:0:
188,160,49168,5,4,0:0:0:0:
248,212,49413,1,0,0:0:0:0:
312,164,49659,1,0,0:0:0:0:
372,112,49905,1,0,0:0:0:0:
420,176,50151,2,0,L|504:252,1,100,4|0,0:0|0:0,0:0:0:0:
460,264,50519,1,0,0:0:0:0:
424,284,50642,1,0,0:0:0:0:
344,240,50888,5,0,0:0:0:0:
328,176,51010,1,0,0:0:0:0:
312,116,51133,1,0,0:0:0:0:
192,128,51379,1,0,0:0:0:0:
136,152,51502,1,0,0:0:0:0:
88,188,51625,1,0,0:0:0:0:
164,280,51870,1,0,0:0:0:0:
224,284,51993,1,0,0:0:0:0:
284,284,52116,5,0,0:0:0:0:
404,276,52362,2,0,P|436:272|496:308,2,100
176,160,53099,1,0,0:0:0:0:
232,103,53345,1,0,0:0:0:0:
288,46,53591,1,0,0:0:0:0:
368,52,53837,1,4,0:0:0:0:
368,131,54083,2,0,L|456:187,1,100,0|0,0:0|0:0,0:0:0:0:
435,220,54452,1,0,0:0:0:0:
406,248,54575,5,0,0:0:0:0:
348,292,54821,1,0,0:0:0:0:
211,235,55313,1,0,0:0:0:0:
140,196,55560,1,0,0:0:0:0:
72,148,55806,2,0,P|112:128|180:132,1,100,0|0,0:0|0:0,0:0:0:0:
248,140,56298,1,0,0:0:0:0:
296,104,56421,5,0,0:0:0:0:
348,72,56544,1,0,0:0:0:0:
456,120,56790,1,0,0:0:0:0:
380,156,57036,1,4,0:0:0:0:
312,196,57282,1,0,0:0:0:0:
232,208,57528,1,0,0:0:0:0:
172,152,57774,1,4,0:0:0:0:
240,108,58021,1,0,0:0:0:0:
347,127,58267,6,0,L|412:132,2,50,4|4|4,0:0|0:0|0:0,0:0:0:0:
268,128,58759,2,4,L|272:64,2,50,4|4|4,0:0|0:0|0:0,0:0:0:0:
188,116,59251,2,4,L|128:112,2,50,4|4|4,0:0|0:0|0:0,0:0:0:0:
180,196,59743,2,4,L|244:200,2,50,4|4|4,0:0|0:0|0:0,0:0:0:0:
100,208,60235,2,4,L|92:276,2,50,4|4|4,0:0|0:0|0:0,0:0:0:0:
144,276,60728,2,0,L|208:276,2,50,4|4|4,0:0|0:0|0:0,0:0:0:0:
432,56,61465,5,2,0:0:0:0:
400,80,61588,1,2,0:0:0:0:
368,104,61711,1,2,0:0:0:0:
336,128,61833,1,2,0:0:0:0:
304,148,61956,1,2,0:0:0:0:
236,188,62202,1,2,0:0:0:0:
156,244,62448,1,0,0:0:0:0:
124,264,62571,1,4,0:0:0:0:
88,280,62693,1,4,0:0:0:0:
56,304,62816,1,4,0:0:0:0:
20,324,62939,1,4,0:0:0:0:
68,48,63431,5,2,0:0:0:0:
100,72,63553,1,2,0:0:0:0:
132,96,63676,1,2,0:0:0:0:
164,120,63799,1,2,0:0:0:0:
200,140,63922,1,2,0:0:0:0:
264,184,64168,1,2,0:0:0:0:
324,220,64413,2,0,L|420:280,1,100,4|4,0:0|0:0,0:0:0:0:
460,304,64843,1,0,0:0:0:0:
