osu file format v14

[General]
AudioFilename: No Other Way - Simon Gribbe ZoneMusic.mp3
AudioLeadIn: 0
PreviewTime: -1
Countdown: 1
SampleSet: Soft
StackLeniency: 1
Mode: 0
LetterboxInBreaks: 1
WidescreenStoryboard: 0

[Editor]
Bookmarks: 36241,47591,57057
DistanceSpacing: 1
BeatDivisor: 8
GridSize: 8
TimelineZoom: 1

[Metadata]
Title:No other way
TitleUnicode:No other way
Artist:Simon Gribbe
ArtistUnicode:Simon Gribbe
Creator:Froic
Version:Insane
Source:Zonemusic
Tags:nootherway chill zonemusic
BeatmapID:1043896
BeatmapSetID:489783

[Difficulty]
HPDrainRate:6
CircleSize:4
OverallDifficulty:8
ApproachRate:9.2
SliderMultiplier:1.59999990463257
SliderTickRate:1

[Events]
//Background and Video events
0,0,"choice 1.jpg",0,0
//Break Periods
2,88635,185135
//Storyboard Layer 0 (Background)
//Storyboard Layer 1 (Fail)
//Storyboard Layer 2 (Pass)
//Storyboard Layer 3 (Foreground)
//Storyboard Sound Samples

[TimingPoints]
263,612.244897959184,4,2,0,100,1,0
9817,-125,4,2,0,100,0,0
28349,-100,4,2,0,100,0,0
29660,612.244897959184,4,2,0,100,1,0
47874,-133.333333333333,4,2,0,100,0,0
48775,-66.6666666666667,4,2,0,100,0,0
61037,-100,4,2,0,100,0,0
68690,-50,4,2,0,100,0,1
88345,-100,4,2,0,100,0,0
147057,-50,4,2,0,100,0,1
167039,-50,4,2,0,100,0,0
185782,-50,4,2,0,100,0,1
205859,-142.857142857143,4,2,0,100,0,0

[HitObjects]
96,152,263,5,2,0:0:0:0:
184,48,568,1,2,0:0:0:0:
256,152,874,1,10,0:0:0:0:
392,192,2558,6,2,L|392:248,1,39.9999976158142
400,320,3017,1,2,0:0:0:0:
400,320,3323,1,10,0:0:0:0:
248,320,5160,5,2,0:0:0:0:
184,232,5466,1,2,0:0:0:0:
120,320,5772,1,10,0:0:0:0:
120,168,7456,6,2,L|176:128,1,39.9999976158142
232,96,7915,1,2,0:0:0:0:
232,96,8221,1,10,0:0:0:0:
448,88,8834,6,0,P|440:152|416:184,1,79.9999952316285
392,232,9293,1,0,0:0:0:0:
328,304,9446,1,0,0:0:0:0:
192,344,9599,1,0,0:0:0:0:
80,216,9752,1,0,0:0:0:0:
160,72,9905,1,0,0:0:0:0:
384,88,10058,1,0,0:0:0:0:
280,192,10365,6,0,P|264:232|264:272,1,63.9999961853028
264,320,10977,1,0,0:0:0:0:
344,320,11283,2,0,P|400:256|392:192,1,127.999992370606
128,64,12201,1,0,0:0:0:0:
96,176,12507,6,0,L|152:144,1,63.9999961853028
104,272,12967,2,0,L|168:304,1,63.9999961853028
224,80,13426,2,0,L|288:40,1,63.9999961853028
232,344,13885,2,0,L|280:360,1,29.9999993562698
504,200,14345,5,0,0:0:0:0:
176,200,14651,1,0,0:0:0:0:
344,304,14957,1,0,0:0:0:0:
344,304,15263,2,0,L|288:248,1,63.9999961853028
224,232,15875,1,0,0:0:0:0:
288,184,16180,2,0,L|320:152,2,31.9999980926514
360,216,16793,1,0,0:0:0:0:
416,264,17099,5,0,0:0:0:0:
256,192,17405,12,0,18018,0:0:0:0:
256,192,18323,5,0,0:0:0:0:
256,192,18630,12,0,19701,0:0:0:0:
384,232,19855,5,0,0:0:0:0:
424,152,20008,1,0,0:0:0:0:
408,72,20161,6,0,P|280:56|272:56,1,127.999992370606
264,144,21079,1,0,0:0:0:0:
336,152,21385,2,0,P|360:192|352:208,1,63.9999961853028
352,232,21844,1,0,0:0:0:0:
336,256,21997,1,0,0:0:0:0:
256,168,22303,5,0,0:0:0:0:
376,96,22609,1,0,0:0:0:0:
408,80,22763,1,0,0:0:0:0:
368,248,23069,1,0,0:0:0:0:
408,256,23222,1,0,0:0:0:0:
288,152,23528,5,0,0:0:0:0:
328,152,23681,2,0,B|360:152|360:152|352:152,1,31.9999980926514
192,152,24140,1,0,0:0:0:0:
160,152,24293,2,0,L|128:152,2,31.9999980926514
312,96,24752,6,0,L|288:32,1,63.9999961853028
216,64,25211,6,0,L|240:136,1,63.9999961853028
392,80,25671,6,0,L|368:8,1,63.9999961853028
144,96,26130,6,0,L|168:168,1,63.9999961853028
280,224,26589,2,0,L|312:248,2,31.9999980926514
232,56,27201,1,0,0:0:0:0:
144,240,27354,1,0,0:0:0:0:
336,128,27507,1,0,0:0:0:0:
128,128,27660,1,0,0:0:0:0:
312,240,27814,1,0,0:0:0:0:
232,168,28120,1,0,0:0:0:0:
291,238,28426,5,0,0:0:0:0:
128,128,28579,1,0,0:0:0:0:
336,128,28732,1,0,0:0:0:0:
144,240,28885,1,0,0:0:0:0:
232,56,29038,1,0,0:0:0:0:
236,103,29115,1,0,0:0:0:0:
235,144,29191,1,0,0:0:0:0:
72,192,29344,5,0,0:0:0:0:
248,264,29497,1,0,0:0:0:0:
424,192,29650,1,0,0:0:0:0:
360,304,29966,2,0,L|280:336,1,79.9999952316285
208,320,30425,1,0,0:0:0:0:
136,272,30578,1,0,0:0:0:0:
88,208,30731,1,0,0:0:0:0:
64,136,30884,2,0,L|64:88|64:88,2,39.9999976158142
144,136,31496,2,0,L|160:136|224:136,1,79.9999952316285
288,160,32108,5,0,0:0:0:0:
416,160,32262,1,0,0:0:0:0:
352,248,32415,1,0,0:0:0:0:
240,112,32568,1,0,0:0:0:0:
456,104,32721,1,0,0:0:0:0:
354,312,32874,1,0,0:0:0:0:
168,168,33027,1,0,0:0:0:0:
168,168,33333,6,0,P|152:192|168:240,2,79.9999952316285
256,224,34251,2,0,L|296:232,1,39.9999976158142
328,240,34557,1,0,0:0:0:0:
424,336,34864,1,0,0:0:0:0:
424,256,35170,2,0,L|416:160,1,79.9999952316285
376,120,35782,2,0,P|328:72|264:128,1,159.999990463257
336,192,36700,1,0,0:0:0:0:
432,240,37007,5,0,0:0:0:0:
320,224,37313,1,0,0:0:0:0:
296,256,37466,1,0,0:0:0:0:
232,160,37772,1,0,0:0:0:0:
200,168,37925,1,0,0:0:0:0:
376,96,38231,2,0,L|416:64,2,39.9999976158142
192,48,38843,5,0,0:0:0:0:
208,80,38996,1,0,0:0:0:0:
192,120,39149,1,0,0:0:0:0:
160,136,39302,1,0,0:0:0:0:
136,152,39455,2,0,P|80:216|80:256,1,119.999992847443
80,272,40068,1,0,0:0:0:0:
232,216,40374,2,0,B|232:272|232:272|272:272,1,79.9999952316285
296,272,40833,2,0,B|320:272|320:272|320:208,1,79.9999952316285
320,184,41292,1,0,0:0:0:0:
200,104,41598,1,0,0:0:0:0:
328,192,41904,5,0,0:0:0:0:
336,344,42057,1,0,0:0:0:0:
176,344,42210,1,0,0:0:0:0:
176,192,42363,1,0,0:0:0:0:
328,264,42516,1,0,0:0:0:0:
256,344,42669,1,0,0:0:0:0:
176,264,42822,1,0,0:0:0:0:
176,264,43129,6,0,P|152:240|160:192,2,79.9999952316285
272,200,44353,1,0,0:0:0:0:
352,176,44506,2,0,P|344:128|328:96,1,79.9999952316285
304,32,44966,1,0,0:0:0:0:
224,40,45119,2,0,P|168:56|152:80,1,79.9999952316285
154,143,45578,5,0,0:0:0:0:
184,216,45731,2,0,L|136:240,1,39.9999976158142
240,264,46037,1,0,0:0:0:0:
312,288,46190,2,0,L|312:336,1,39.9999976158142
312,208,46496,2,0,L|312:160,1,39.9999976158142
384,128,46802,5,0,0:0:0:0:
328,208,47108,1,0,0:0:0:0:
304,232,47262,1,0,0:0:0:0:
192,192,47568,1,0,0:0:0:0:
160,216,47721,1,0,0:0:0:0:
88,264,48027,2,0,P|120:320|208:352,1,149.999996781349
288,320,48945,5,0,0:0:0:0:
352,240,49098,1,0,0:0:0:0:
384,152,49251,1,0,0:0:0:0:
352,64,49557,2,0,P|304:32|288:32,2,59.9999987125397
288,152,50017,1,0,0:0:0:0:
217,237,50170,1,0,0:0:0:0:
144,296,50323,6,0,P|120:328|96:328,2,59.9999987125397
144,256,50782,1,0,0:0:0:0:
144,216,50935,1,0,0:0:0:0:
144,176,51088,1,0,0:0:0:0:
304,168,51394,1,0,0:0:0:0:
304,208,51547,1,0,0:0:0:0:
304,248,51700,1,0,0:0:0:0:
448,160,52006,1,0,0:0:0:0:
400,96,52160,6,0,P|432:72|432:48,2,59.9999987125397
280,96,52619,2,0,L|280:32,2,59.9999987125397
160,96,53078,2,0,P|128:72|120:40,3,59.9999987125397
416,192,53843,1,0,0:0:0:0:
248,352,53996,1,0,0:0:0:0:
72,192,54149,1,0,0:0:0:0:
112,104,54455,6,0,P|64:136|56:160,1,59.9999987125397
376,112,54915,2,0,P|408:128|432:152,1,59.9999987125397
264,168,55374,1,0,0:0:0:0:
264,248,55680,2,0,L|264:288|264:368,1,119.999997425079
144,240,56292,1,0,0:0:0:0:
144,192,56445,1,0,0:0:0:0:
128,160,56598,1,0,0:0:0:0:
224,96,56904,2,0,P|256:80|280:64,2,59.9999987125397
344,136,57517,1,0,0:0:0:0:
344,168,57670,1,0,0:0:0:0:
344,208,57823,2,0,L|408:248,2,59.9999987125397
304,264,58282,1,0,0:0:0:0:
240,288,58436,5,0,0:0:0:0:
240,288,58512,1,0,0:0:0:0:
240,288,58589,1,0,0:0:0:0:
160,272,58741,1,0,0:0:0:0:
120,216,58894,1,0,0:0:0:0:
88,144,59047,2,0,P|80:64|104:16,1,119.999997425079
176,48,59506,6,0,L|240:64,1,59.9999987125397
224,136,59813,2,0,L|288:152,1,59.9999987125397
368,208,60119,2,0,L|432:208,4,59.9999987125397
248,320,61190,5,0,0:0:0:0:
160,288,61343,1,0,0:0:0:0:
96,216,61496,1,0,0:0:0:0:
104,128,61649,1,0,0:0:0:0:
144,48,61802,1,0,0:0:0:0:
160,128,63333,1,0,0:0:0:0:
160,128,63410,1,0,0:0:0:0:
160,136,63486,1,0,0:0:0:0:
320,192,63945,1,0,0:0:0:0:
192,224,64404,1,0,0:0:0:0:
320,192,64864,1,0,0:0:0:0:
192,224,65476,1,0,0:0:0:0:
320,192,66394,1,0,0:0:0:0:
224,112,66777,1,0,0:0:0:0:
224,112,67236,1,0,0:0:0:0:
320,192,67619,1,0,0:0:0:0:
280,0,68843,6,0,L|344:72,1,79.9999952316285
256,160,69302,2,0,L|336:176,1,79.9999952316285
488,232,69762,5,8,0:0:0:0:
352,312,70068,2,0,P|280:320|136:280,1,159.999990463257
88,120,70680,2,8,L|136:56,2,79.9999952316285
208,192,71139,2,0,L|254:125,1,79.9999952316285
192,96,71445,2,8,L|132:188,1,79.9999952316285
280,224,71751,2,0,L|340:132,1,79.9999952316285
440,208,72057,1,0,0:0:0:0:
384,120,72211,1,8,0:0:0:0:
288,48,72364,1,0,0:0:0:0:
184,56,72517,2,0,P|80:144|48:224,1,159.999990463257
120,216,73129,2,8,P|160:198|232:88,1,159.999990463257
256,8,73588,1,0,0:0:0:0:
120,368,73741,1,0,0:0:0:0:
464,160,73894,1,0,0:0:0:0:
48,160,74047,1,0,0:0:0:0:
352,184,74200,1,8,0:0:0:0:
320,288,74353,2,0,P|288:176|288:48,1,239.999985694885
264,184,74966,1,0,0:0:0:0:
235,295,75119,2,0,P|206:175|207:48,1,239.999985694885
205,59,75731,2,0,L|120:104,2,79.9999952316285
288,104,76190,2,0,L|376:56,3,79.9999952316285
280,192,76802,2,0,L|184:240,3,79.9999952316285
200,272,77415,2,0,B|112:240|112:240|216:168,1,199.999988079071
218,165,77950,2,0,B|322:95|322:95|218:53,1,199.999988079071
88,24,78639,1,0,0:0:0:0:
88,336,78792,1,0,0:0:0:0:
160,24,78945,1,0,0:0:0:0:
224,336,79098,1,0,0:0:0:0:
224,24,79251,1,0,0:0:0:0:
256,192,79864,1,0,0:0:0:0:
256,192,80476,1,0,0:0:0:0:
464,336,81088,1,0,0:0:0:0:
464,24,81241,1,0,0:0:0:0:
400,336,81394,1,0,0:0:0:0:
336,24,81547,1,0,0:0:0:0:
336,336,81700,1,0,0:0:0:0:
256,192,82313,1,0,0:0:0:0:
256,192,82925,1,0,0:0:0:0:
32,32,83537,1,0,0:0:0:0:
496,112,83690,1,0,0:0:0:0:
32,208,83843,1,0,0:0:0:0:
496,272,83996,1,0,0:0:0:0:
32,360,84149,1,0,0:0:0:0:
256,192,84762,1,0,0:0:0:0:
256,192,85374,1,0,0:0:0:0:
376,48,85909,2,0,P|424:168|408:328,1,279.9999833107
392,312,86598,2,0,P|304:192|288:88,1,239.999985694885
304,80,87211,1,0,0:0:0:0:
440,80,87364,1,0,0:0:0:0:
448,216,87517,1,0,0:0:0:0:
304,216,87670,1,0,0:0:0:0:
216,152,87823,1,0,0:0:0:0:
184,152,87899,1,0,0:0:0:0:
144,152,87976,1,0,0:0:0:0:
48,192,88129,1,0,0:0:0:0:
72,296,88282,1,0,0:0:0:0:
160,352,88435,1,0,0:0:0:0:
216,136,185705,6,0,P|320:104|376:128,1,159.999990463257
376,160,186318,2,0,P|296:144|208:184,1,159.999990463257
264,216,186777,2,0,P|352:192|376:208,2,119.999992847443
240,272,187313,6,0,L|208:320|208:320,1,39.9999976158142
192,232,187466,2,0,L|152:256,1,39.9999976158142
160,176,187619,2,0,L|120:176,1,39.9999976158142
168,112,187772,2,0,L|112:72|112:72,1,39.9999976158142
208,64,187925,2,0,L|184:24|184:24,1,39.9999976158142
264,48,188078,2,0,L|264:8|264:8,1,39.9999976158142
320,64,188231,2,0,L|344:32|344:32,1,39.9999976158142
368,104,188384,2,0,L|424:64,4,39.9999976158142
376,216,188843,5,0,0:0:0:0:
352,256,188996,1,0,0:0:0:0:
312,280,189149,1,0,0:0:0:0:
272,272,189302,1,0,0:0:0:0:
248,232,189455,2,0,L|184:168,1,79.9999952316285
144,224,189762,6,0,L|202:283,1,79.9999952316285
312,192,190068,2,0,L|232:112,1,79.9999952316285
144,224,190374,2,0,L|208:288,1,79.9999952316285
384,224,190680,2,0,P|392:176|360:128,1,79.9999952316285
136,136,190986,2,0,P|112:200|136:232,1,79.9999952316285
224,336,191292,6,0,P|264:352|304:344,1,79.9999952316285
320,88,191598,2,0,P|272:72|216:88,1,79.9999952316285
128,96,191904,1,0,0:0:0:0:
128,96,192057,1,0,0:0:0:0:
368,296,192211,1,0,0:0:0:0:
368,296,192364,1,0,0:0:0:0:
376,216,192517,6,0,P|352:128|336:112,1,79.9999952316285
320,80,192823,1,0,0:0:0:0:
256,64,192976,1,0,0:0:0:0:
184,72,193129,2,0,P|144:96|96:136,1,79.9999952316285
72,160,193435,1,0,0:0:0:0:
40,216,193588,1,0,0:0:0:0:
48,288,193741,6,0,P|96:200|152:288,1,239.999985694885
152,232,194353,2,0,P|232:312|280:216,1,239.999985694885
288,280,194966,2,0,P|336:208|432:312,1,239.999985694885
360,208,195578,2,0,P|280:224|176:248,1,159.999990463257
56,352,196190,1,0,0:0:0:0:
456,288,196343,1,0,0:0:0:0:
56,184,196496,1,0,0:0:0:0:
448,104,196649,1,0,0:0:0:0:
56,24,196803,1,0,0:0:0:0:
224,288,197415,2,0,L|224:104,1,159.999990463257
256,128,197874,1,0,0:0:0:0:
288,128,198027,2,0,L|288:288,1,159.999990463257
256,344,198639,1,0,0:0:0:0:
40,192,198792,1,0,0:0:0:0:
256,40,198945,1,0,0:0:0:0:
472,192,199098,1,0,0:0:0:0:
256,192,199251,1,0,0:0:0:0:
216,112,199863,2,0,L|216:280,1,159.999990463257
240,272,200322,1,0,0:0:0:0:
264,272,200476,2,0,L|264:96,1,159.999990463257
256,40,201088,1,0,0:0:0:0:
40,192,201241,1,0,0:0:0:0:
256,344,201394,1,0,0:0:0:0:
472,192,201547,1,0,0:0:0:0:
256,192,201700,1,0,0:0:0:0:
