osu file format v6

[General]
AudioFilename: 04-simon_and_garfunkel-the_sound_of_silence.mp3
AudioLeadIn: 0
PreviewTime: 44716
Countdown: 0
SampleSet: Soft
StackLeniency: 0.7
Mode: 0
LetterboxInBreaks: 0

[Editor]
Bookmarks: 140863
DistanceSpacing: 0.800000011920929
BeatDivisor: 4
GridSize: 8

[Metadata]
Title:The Sound Of Silence
Artist:Simon & Garfunkel
Creator:Matma Rex
Version:Hard
Source:Watchmen
Tags:

[Difficulty]
HPDrainRate:6
CircleSize:3
OverallDifficulty:6
SliderMultiplier:1.8
SliderTickRate:2

[Events]
//Background and Video events
0,0,"watchmenposter_final-729244.jpg"
Video,0,"comedian's funeral.flv"
//Break Periods
2,112122,113406
2,137263,140356
2,146077,147701
//Storyboard Layer 0 (Background)
//Storyboard Layer 1 (Fail)
//Storyboard Layer 2 (Pass)
//Storyboard Layer 3 (Foreground)
//Storyboard Sound Samples
//Background Colour Transformations
3,100,0,0,0

[TimingPoints]
7852,637.900000000001,4,2,1,60,1,0
10403,609.6,4,2,1,60,1,0
12841,593.6,4,2,1,60,1,0
15215,560.5,4,2,1,60,1,0
17457,551.254527187779,4,2,1,60,1,0
19662,570.554527187779,4,2,1,60,1,0
21944,568.354527187779,4,2,1,60,1,0
26490,568.354527187779,4,2,1,60,1,0
29900,570.254527187779,4,2,1,60,1,0
32181,555.85452718778,4,2,1,60,1,0
34265,-100,4,2,1,0,0,0
34543,-100,4,2,1,60,0,0
36627,564.45452718778,4,2,1,60,1,0
37332,-100,4,2,1,0,0,0
37614,-100,4,2,1,60,0,0
38884,582.15452718778,4,2,1,60,1,0
41067,-100,4,2,1,0,0,0
41358,-100,4,2,1,60,0,0
42100,550.75452718778,4,2,1,60,1,0
43890,-100,4,2,1,0,0,0
44165,-100,4,2,1,60,0,0
44716,599.75452718778,4,2,1,60,1,0
47115,568.75452718778,4,2,1,60,1,0
51665,558.139534883721,4,2,1,60,1,0
56130,571.428571428571,4,2,1,60,1,0
60701,572.754527187781,4,2,1,60,1,0
64145,577.354527187781,4,2,1,60,1,0
68763,568.854527187781,4,2,1,60,1,0
72033,-100,4,2,1,0,0,0
72318,-100,4,2,1,60,0,0
73313,575.754527187781,4,2,1,60,1,0
74464,570.854527187781,4,2,1,60,1,0
75446,-100,4,2,1,0,0,0
75730,-100,4,2,1,60,0,0
78290,-100,4,2,1,0,0,0
78574,-100,4,2,1,60,0,0
79030,579.454527187781,4,2,1,60,1,0
81347,566.037735849057,4,2,1,60,1,0
82615,-100,4,2,1,0,0,0
82901,-100,4,2,1,60,0,0
87187,-100,4,2,1,0,0,0
87472,-100,4,2,1,60,0,0
88743,558.85452718778,4,2,1,60,1,0
90419,559.55452718778,4,2,1,60,1,0
91957,-100,4,2,1,0,0,0
92237,-100,4,2,1,60,0,0
94895,554.85452718778,4,2,1,60,1,0
96698,-100,4,2,1,0,0,0
96975,-100,4,2,1,60,0,0
98883,-100,4,2,1,0,0,0
99153,-100,4,2,1,60,0,0
99333,556.45452718778,4,2,1,60,1,0
100306,-100,4,2,1,0,0,0
100585,-100,4,2,1,60,0,0
103784,559.054527187779,4,2,1,60,1,0
103923,-100,4,2,1,0,0,0
104203,-100,4,2,1,60,0,0
106665,-100,4,2,1,0,0,0
106935,-100,4,2,1,60,0,0
108256,567.75452718778,4,2,1,60,1,0
109391,562.554527187781,4,2,1,60,1,0
113891,565.354527187781,4,2,1,60,1,0
116152,560.154527187781,4,2,1,60,1,0
117705,-100,4,2,1,0,0,0
117983,-100,4,2,1,60,0,0
118392,539.154527187781,4,2,1,60,1,0
120548,541.654527187781,4,2,1,60,1,0
122088,-100,4,2,1,0,0,0
122366,-100,4,2,1,60,0,0
124881,557.954527187781,4,2,1,60,1,0
129344,542.954527187781,4,2,1,60,1,0
131515,562.954527187781,4,2,1,60,1,0
132640,552.954527187781,4,2,1,60,1,0
137063,542.954527187781,4,2,1,60,1,0
141406,558.954527187781,4,2,1,60,1,0
145877,574.954527187781,4,2,1,60,1,0
150476,544.954527187781,4,2,1,60,1,0
152482,-100,4,2,1,0,0,0
152792,-100,4,2,1,60,0,0
153846,-100,4,2,1,0,0,0
154119,-100,4,2,1,60,0,0
154835,548.254527187781,4,2,1,60,1,0
156301,-100,4,2,1,0,0,0
156573,-100,4,2,1,60,0,0
159221,546.114527187781,4,2,1,60,1,0
163589,550.114527187781,4,2,1,60,1,0
171677,-100,4,2,1,0,0,0
171951,-100,4,2,1,60,0,0
172390,541.11452718778,4,2,1,60,1,0
175501,-100,4,2,1,0,0,0
175771,-100,4,2,1,60,0,0
176718,558.114527187781,4,2,1,60,1,0
178950,610.114527187781,4,2,1,60,1,0
182610,649.114527187781,4,2,1,60,1,0
183761,649.114527187781,4,2,1,60,1,0
184410,705.114527187781,4,2,1,60,1,0

[Colours]
Combo1 : 114,113,142
Combo2 : 255,222,34
Combo3 : 89,115,101

[HitObjects]
256,208,11012,1,0
168,96,11622,1,0
344,96,12231,1,0
384,208,12841,2,0,B|384:344|128:344|128:200,1,360,0|2
64,288,15495,5,0
132,265,15775,1,0
200,243,16055,1,0
269,221,16336,1,2
400,288,16896,1,0
392,144,17457,2,0,B|336:64|248:64|120:88|112:240|112:240,1,360,0|2
104,304,19947,5,0
174,290,20232,1,0
195,221,20517,1,0
244,274,20803,2,0,B|288:288|344:256|344:256,1,90,0|2
336,192,21373,1,0
408,184,21658,2,0,B|456:128|440:64|352:48|352:48,1,180
288,48,22512,2,0,B|184:56|168:88,1,90,0|2
400,128,24785,5,0
328,104,25069,1,0
344,176,25354,1,0
272,152,25638,1,0
200,128,25922,1,0
128,112,26206,2,0,B|56:88|24:192|120:232|120:232,1,180,2|0
176,256,27058,2,0,B|248:264|272:248|272:248,1,90,0|2
104,72,29331,5,0
56,128,29615,1,0
72,200,29900,2,0,B|120:344|312:344|368:296|400:240|400:240,1,360,0|2
400,128,31610,5,0
336,96,31895,1,0
264,88,32181,1,0
192,104,32458,2,0,B|72:144|64:272|176:304|176:304,1,270
240,320,33570,1,2
384,312,34126,2,0,B|432:288|448:248|448:248,1,90
184,104,36071,5,0
328,104,36349,1,0
360,208,36627,2,0,B|344:296|160:296|144:208,1,270,0|0
64,256,39175,6,0,B|128:344|160:304|160:304,1,90
200,296,39757,1,2
152,240,40048,6,0,B|222:131|408:112|432:312,1,360
328,104,42100,5,0
184,104,42376,1,2
96,168,42650,2,0,B|128:297|256:296|256:296|384:297|423:162,1,450,0|0
64,144,45015,5,0
104,208,45315,1,0
176,224,45615,1,0
152,152,45915,1,2
216,128,46215,1,0
264,184,46515,1,0
328,216,46815,1,0
376,160,47115,2,0,B|282:78|118:141|116:327|116:327,1,360,2|2
120,296,49958,5,0
136,224,50243,1,0
208,240,50527,1,2
184,168,50811,1,0
248,136,51096,1,0
320,136,51380,1,0
384,160,51665,2,0,B|480:232|360:336|360:336,2,180,0|0|2
184,88,54455,5,0
256,64,54734,1,0
304,120,55013,1,2
320,192,55292,1,0
248,184,55571,1,0
176,200,55851,2,0,B|112:208|112:288|176:320|240:352|336:296|336:296,1,270
368,272,56987,1,2
72,112,58701,5,0
96,176,58987,1,0
152,224,59272,1,0
216,256,59558,1,2
232,184,59844,1,0
304,208,60130,1,0
376,184,60415,1,0
384,112,60701,2,0,B|352:64|264:64|232:136|232:136,1,180,2|0
168,168,61560,2,0,B|168:264|280:304|352:272|400:216|400:216,1,270,2|2
128,96,63564,5,0
80,152,63851,1,0
56,216,64145,2,0,B|128:288|184:256|224:200|224:200,1,180,2|0
152,168,65011,2,0,B|216:112|288:128|328:160|328:160,1,180
360,216,65877,1,0
320,272,66165,1,0
248,280,66454,2,0,B|160:264|136:136|136:136,1,180,2|0
152,80,67320,1,0
216,48,67609,1,0
288,64,67897,2,0,B|382:80|405:189|405:189,1,180,0|2
184,96,70469,5,2
328,96,70753,1,0
376,200,71038,2,0,B|376:352|136:352|136:200,1,360
440,160,73600,1,0
400,96,73888,1,0
352,152,74176,1,0
304,96,74464,2,0,B|264:16|136:0|64:112|80:224|80:224,1,360
192,120,76461,1,0
320,120,76747,1,2
408,208,77032,2,0,B|408:380|96:380|96:196,1,450
280,72,79319,5,0
224,120,79609,1,0
248,184,79899,1,0
320,192,80188,1,2
368,248,80478,1,0
344,312,80768,2,0,B|344:339|248:331,1,90
192,320,81347,2,0,B|104:248|48:48|424:64|424:64,1,450,0|0
96,120,83894,5,0
168,112,84177,1,0
240,136,84460,1,0
288,192,84743,1,2
192,296,85309,1,0
336,328,85875,2,0,B|424:256|480:56|112:72|112:72,1,450,2|0
112,288,88743,5,0
128,216,89022,1,0
192,176,89302,1,2
216,240,89581,1,0
288,264,89860,1,0
232,312,90140,2,0,B|233:340|313:364|393:284,1,180
368,224,90978,1,2
424,184,91258,2,0,B|424:185|408:81|360:25|232:-6|200:40,1,270
72,304,93216,5,0
96,240,93496,1,0
160,264,93776,1,2
200,200,94056,1,0
168,136,94335,1,0
96,136,94615,2,0,B|72:96|104:40|168:40|240:64|240:64,1,180
248,120,95449,1,2
224,192,95727,2,0,B|304:264|432:232|480:176|496:64|496:64,1,360
240,296,97669,5,0
168,272,97946,1,0
176,200,98224,1,2
240,160,98501,2,0,B|364:104|391:166|397:194|397:194,1,180
344,240,99333,2,0,B|193:272|99:162|162:78|291:37|291:37,1,360,2|0
432,104,101002,5,0
288,112,101558,1,0
256,176,101837,2,0,B|372:273|436:222,1,180,2|0
432,160,102671,1,0
408,88,102949,1,0
264,80,103506,2,0,B|192:128|288:240|288:240,1,180
184,96,105461,1,0
328,96,105740,1,0
376,184,106020,2,0,B|296:256|208:256|128:184,1,270,2|0
80,248,108539,5,0
72,176,108823,1,0
112,112,109107,1,0
176,80,109391,2,0,B|328:56|488:144|488:264|384:360|216:336|216:336,1,540,2|0
184,312,111359,1,0
152,248,111641,1,0
160,176,111922,1,2
112,112,114456,5,0
176,72,114739,1,0
248,80,115021,1,2
312,120,115304,1,0
352,176,115587,1,2
352,248,115869,1,0
312,312,116152,2,0,B|224:368|128:352|64:280|24:160|72:104|120:48|240:32|240:32,1,540,2|0
88,88,118931,5,0
152,120,119200,1,0
184,184,119470,1,2
208,256,119739,1,0
264,296,120009,1,2
336,296,120279,1,0
408,280,120548,2,0,B|480:232|488:168|472:104|432:32|336:40|264:40|208:88|232:184|376:184,1,540,2|0
56,80,123256,5,0
128,104,123527,1,0
136,176,123797,1,2
192,216,124068,1,0
256,184,124339,1,0
264,112,124610,2,0,B|288:48|352:40|432:56|416:224|416:224,1,270
344,184,125717,2,0,B|344:163|328:331|408:347|472:339|496:275,1,270,0|2
160,312,127670,5,0
96,280,127949,1,0
80,208,128228,1,0
120,144,128507,1,0
176,104,128786,1,0
248,128,129065,2,0,B|304:168|328:48|416:80|480:152|408:200|376:240,1,270,2|0
336,240,130158,2,0,B|280:280|256:160|168:192|104:264|176:312|208:352,1,270,0|2
296,320,132077,5,0
328,256,132359,1,0
336,184,132640,2,0,B|304:96|216:16|96:48|64:168|64:168,1,360,2|0
88,288,134298,1,0
184,184,134851,1,0
112,160,135128,2,0,B|144:96|248:64|272:72|272:72,1,180
280,144,135957,1,0
240,208,136234,2,0,B|352:256|448:208|448:208,1,180
488,200,137063,1,2
256,192,141406,5,2
256,192,143641,1,2
256,192,145877,5,2
168,288,148751,5,0
112,240,149039,1,0
104,168,149326,1,2
144,112,149614,1,0
216,88,149901,1,0
288,96,150189,1,0
352,136,150476,2,0,B|480:208|480:344|344:360|200:352|80:320|48:232|64:48|208:64|208:64,1,720,2|0
352,72,153200,5,0
416,104,153473,1,0
408,176,153745,2,0,B|408:256|368:272,1,90,2|0
320,296,154290,1,0
248,296,154563,1,0
176,296,154835,2,0,B|-40:256|0:0|360:80,1,540,2|0
416,296,157576,5,0
344,312,157850,1,0
272,288,158124,1,2
224,232,158398,1,0
296,216,158672,1,0
248,160,158946,2,0,B|252:56|113:70|113:70,1,180,2|0
64,120,159767,1,0
40,192,160040,2,0,B|19:278|144:323|261:263|261:263,1,270,0|2
192,80,161951,5,0
264,72,162224,1,0
336,72,162497,1,2
400,104,162770,1,0
440,160,163043,1,0
456,232,163316,2,0,B|465:287|427:325|364:337|336:272|336:272,1,180,2|0
296,224,164139,1,0
248,168,164414,2,0,B|201:91|80:148|40:274|40:274,1,270,0|2
240,48,166339,5,0
184,96,166614,1,0
152,160,166889,2,0,B|176:248|312:160|312:160,1,180,2|0
376,144,167714,1,0
376,216,167989,2,0,B|352:304|216:216|216:216,1,180,2|0
160,176,168815,1,0
96,208,169090,1,0
96,280,169365,1,0
152,320,169640,1,2
296,320,170190,6,0,B|408:312|392:264|392:264,1,90,2|0
400,224,170740,1,0
360,160,171015,1,0
288,144,171290,1,2
216,128,171565,2,0,B|96:112|120:80|120:80,1,90,0|0
72,56,172115,1,2
192,128,174013,5,0
320,128,174283,1,0
416,192,174554,2,0,B|304:288|192:288|88:192,1,360
