osu file format v6

[General]
AudioFilename: 04-simon_and_garfunkel-the_sound_of_silence.mp3
AudioLeadIn: 0
PreviewTime: 44716
Countdown: 0
SampleSet: Soft
StackLeniency: 0.7
Mode: 0
LetterboxInBreaks: 0

[Editor]
DistanceSpacing: 0.800000011920929
BeatDivisor: 4
GridSize: 8

[Metadata]
Title:The Sound Of Silence
Artist:Simon & Garfunkel
Creator:Matma Rex
Version:Easy
Source:Watchmen
Tags:

[Difficulty]
HPDrainRate:3
CircleSize:3
OverallDifficulty:3
SliderMultiplier:1.8
SliderTickRate:1

[Events]
//Background and Video events
0,0,"watchmenposter_final-729244.jpg"
Video,0,"comedian's funeral.flv"
//Break Periods
2,37955,43875
2,72375,78169
2,104543,113016
2,139434,146161
//Storyboard Layer 0 (Background)
//Storyboard Layer 1 (Fail)
//Storyboard Layer 2 (Pass)
//Storyboard Layer 3 (Foreground)
//Storyboard Sound Samples
//Background Colour Transformations
3,100,0,0,0

[TimingPoints]
7852,637.900000000001,4,2,2,60,1,0
10403,609.6,4,2,2,60,1,0
12841,593.6,4,2,2,60,1,0
15215,560.5,4,2,2,60,1,0
17457,551.254527187779,4,2,2,60,1,0
19662,570.554527187779,4,2,2,60,1,0
21944,568.354527187779,4,2,2,60,1,0
26490,568.354527187779,4,2,2,60,1,0
29900,570.254527187779,4,2,2,60,1,0
32181,555.854527187779,4,2,2,60,1,0
36627,564.45452718778,4,2,2,60,1,0
38884,582.154527187782,4,2,2,60,1,0
42100,550.75452718778,4,2,2,60,1,0
44716,599.75452718778,4,2,2,60,1,0
47115,568.75452718778,4,2,2,60,1,0
51665,558.139534883721,4,2,2,60,1,0
56130,571.428571428571,4,2,2,60,1,0
60701,572.754527187781,4,2,2,60,1,0
64145,577.354527187781,4,2,2,60,1,0
68763,568.854527187781,4,2,2,60,1,0
73313,575.754527187781,4,2,2,60,1,0
74464,570.854527187781,4,2,2,60,1,0
79030,579.454527187781,4,2,2,60,1,0
81347,566.037735849057,4,2,2,60,1,0
88743,558.85452718778,4,2,2,60,1,0
90419,559.55452718778,4,2,2,60,1,0
94895,554.85452718778,4,2,2,60,1,0
99333,556.45452718778,4,2,2,60,1,0
103784,559.054527187781,4,2,2,60,1,0
108256,567.75452718778,4,2,2,60,1,0
109391,562.554527187781,4,2,2,60,1,0
113891,565.354527187781,4,2,2,60,1,0
116152,560.154527187781,4,2,2,60,1,0
118392,539.154527187781,4,2,2,60,1,0
120548,541.654527187781,4,2,2,60,1,0
124881,557.954527187781,4,2,2,60,1,0
129344,542.954527187781,4,2,2,60,1,0
131515,562.954527187781,4,2,2,60,1,0
132640,552.954527187781,4,2,2,60,1,0
137063,542.954527187781,4,2,2,60,1,0
141406,558.954527187781,4,2,2,60,1,0
145877,574.954527187781,4,2,2,60,1,0
150476,544.954527187781,4,2,2,60,1,0
154835,548.254527187781,4,2,2,60,1,0
159221,546.114527187781,4,2,2,60,1,0
163589,550.114527187781,4,2,2,60,1,0
172390,541.114527187781,4,2,2,60,1,0
176718,558.114527187781,4,2,2,60,1,0
178950,610.114527187781,4,2,2,60,1,0
182610,649.114527187781,4,2,2,60,1,0
183761,649.114527187781,4,2,2,60,1,0
184410,705.114527187781,4,2,2,60,1,0

[Colours]
Combo1 : 114,113,142
Combo2 : 255,222,34
Combo3 : 89,115,101

[HitObjects]
256,208,11012,1,0
184,104,11622,1,2
320,104,12231,1,0
384,224,12841,2,0,B|384:360|128:360|128:216,1,360,2|0
112,280,15775,5,0
201,166,16336,1,2
245,303,16896,1,0
347,203,17457,2,0,B|388:148|356:74|293:10|192:32|90:135|90:135,1,360,2|0
104,160,20232,5,0
241,116,20803,1,2
201,254,21373,1,0
342,228,21944,2,0,B|407:205|421:126|405:38,2,180,2|0|2
128,96,24785,5,0
144,231,25354,1,2
262,148,25922,1,0
270,299,26490,2,0,B|360:352|424:272|376:208,2,180,2|0|2
256,64,29331,5,0
400,64,29900,2,0,B|496:48|496:48|456:128|496:208|496:208|384:192|384:192,1,360,2|0
256,192,31610,1,0
112,192,32181,2,0,B|16:176|16:176|56:256|16:336|16:336|128:320|128:320,1,360,2|0
256,320,33848,1,0
256,192,34404,1,2
256,280,36071,5,0
360,184,36627,2,0,B|336:88|336:88|256:128|176:88|176:88|152:200|152:200,1,360,2|0
88,120,45315,5,0
88,264,45915,1,2
208,192,46515,1,0
344,256,47115,2,0,B|440:272|440:272|480:192|440:112|440:112|328:128|328:128,1,360,2|0
424,120,49958,5,0
424,264,50527,1,2
304,192,51096,1,0
168,256,51665,2,0,B|72:272|72:272|32:192|72:112|72:112|184:128|184:128,1,360,2|0
112,288,54455,5,0
256,288,55013,1,2
400,288,55571,1,0
320,168,56130,2,0,B|336:72|336:72|256:32|176:72|176:72|192:184|192:184,1,360,2|0
112,96,58987,5,0
256,96,59558,1,2
400,96,60130,1,0
320,216,60701,2,0,B|336:312|336:312|256:352|176:312|176:312|192:200|192:200,1,360,2|0
176,120,63564,5,0
96,240,64145,2,0,B|184:312|272:224,1,180,2|0
176,120,65299,2,0,B|264:48|352:136,1,180
256,240,66454,2,0,B|344:312|432:224,1,180,2|0
336,120,67609,1,0
256,240,68186,2,0,B|168:312|80:224,1,180,2|0
40,192,70469,5,0
184,192,71038,2,0,C|224:168|288:216|352:168|416:216|464:176|464:176,1,360,2|0
448,80,79609,5,0
328,160,80188,1,2
448,240,80768,1,0
328,328,81347,2,0,B|272:344|192:304|184:240|184:216,1,180,2|0
248,112,82479,2,0,B|246:107|240:216|288:272|344:232,1,180
456,168,83611,1,2
312,152,84177,5,0
176,96,84743,1,2
296,16,85309,1,0
368,144,85875,2,0,B|368:240|256:280,1,180,2|0
160,144,87007,2,0,B|160:240|272:280,1,180
264,136,88139,1,2
72,88,88743,5,0
72,232,89302,1,2
192,160,89860,1,0
352,128,90419,2,0,B|392:128|392:128|424:96|424:88|424:80|392:48|392:48|328:48,1,180,2|0
352,192,91538,2,0,B|392:192|392:192|424:224|424:232|424:240|392:272|392:272|328:272,1,180,2|0
440,88,93216,5,0
440,232,93776,1,2
320,160,94335,1,0
160,128,94895,2,0,B|120:128|120:128|88:96|88:88|88:80|120:48|120:48|184:48,1,180,2|0
160,192,96004,2,0,B|120:192|120:192|88:224|88:232|88:240|120:272|120:272|184:272,1,180,2|0
184,296,97669,5,0
328,296,98224,1,2
368,160,98778,2,0,B|368:120|368:120|336:88|328:88|320:88|288:120|288:120|288:184,1,180,2|0
144,160,99889,2,0,B|144:120|144:120|176:88|184:88|192:88|224:120|224:120|224:184,1,180,2|0
112,280,101002,5,0
256,280,101558,1,2
400,280,102115,2,0,B|456:280|456:128|376:128,1,180,0|2
256,136,103228,1,0
112,136,103784,2,0,B|56:136|56:288|136:288,1,180,2|0
88,72,114456,5,0
232,72,115021,1,2
312,192,115587,1,0
224,320,116152,2,0,B|40:320|40:248|40:248|88:200|40:152|40:152|40:72|264:72|264:72,1,540,2|0
424,312,118931,5,0
280,312,119470,1,2
200,192,120009,1,0
288,64,120548,2,0,B|472:64|472:136|472:136|424:184|472:232|472:232|472:312|248:312|248:312,1,540,2|0
56,64,123256,5,0
128,192,123797,1,2
56,320,124339,1,0
128,192,124881,2,0,B|160:192|176:160|176:160|208:224|208:224|224:192|256:192|272:192,1,180,2|0
392,192,125996,2,0,B|360:192|344:160|344:160|312:224|312:224|296:192|264:192|248:192,1,180,2|0
456,64,127670,5,0
384,192,128228,1,2
456,320,128786,1,0
384,192,129344,2,0,B|352:192|336:160|336:160|304:224|304:224|288:192|256:192|240:192,1,180,2|0
120,192,130429,2,0,B|152:192|168:160|168:160|200:224|200:224|216:192|248:192|264:192,1,180,2|0
344,288,132077,5,0
360,144,132640,2,0,B|352:72|312:48|272:48|272:48|256:112|232:48|232:48|144:64|144:160|144:160,1,360,2|0
168,288,134298,1,0
256,176,134851,2,0,B|224:176|208:144|208:144|176:208|176:208|160:176|128:176|112:176,1,180,2|0
256,88,135957,1,0
370,178,136510,2,0,B|382:175|350:175|334:207|334:207|302:143|302:143|286:175|254:175,1,180,2|0
256,320,137605,5,0
328,192,138148,1,2
256,64,138691,1,0
184,192,139234,1,2
168,192,147601,5,0
344,192,148176,1,0
256,344,148751,5,0
168,192,149326,1,2
256,32,149901,1,0
344,192,150476,2,0,L|256:344|168:192|256:32|328:160|384:112,1,720,2|0
256,32,153200,5,0
168,184,153745,1,2
256,344,154290,1,0
344,184,154835,2,0,L|256:32|168:184|256:344|328:216|384:264,1,720,2|0
256,112,157576,5,0
256,272,158124,1,2
384,192,158672,1,0
240,160,159221,2,0,L|136:160|136:120|96:120|96:120,1,180,2|0
100,264,160313,2,0,L|140:264|140:224|244:224,1,180,2|0
256,112,161951,5,0
256,272,162497,1,2
128,192,163043,1,0
272,160,163589,2,0,L|376:160|376:120|416:120|416:120,1,180,2|0
412,264,164689,2,0,L|372:264|372:224|268:224,1,180,2|0
256,48,166339,5,0
144,144,166889,2,0,B|144:264|264:264|264:264,1,180,2|0
360,144,167989,2,0,B|360:264|240:264|240:264,1,180,2|0
104,264,169090,1,0
248,264,169640,1,0
360,144,170190,6,0,B|360:264|240:264|240:264,1,180,2|0
144,144,171290,2,0,B|144:264|264:264|264:264,1,180,2|0
256,120,172390,1,0
176,272,174013,5,0
336,272,174554,1,0
