osu file format v12

[General]
AudioFilename: What my cutie mark is telling me.mp3
AudioLeadIn: 0
PreviewTime: 125914
Countdown: 1
SampleSet: Normal
StackLeniency: 0.7
Mode: 0
LetterboxInBreaks: 1
WidescreenStoryboard: 0

[Editor]
Bookmarks: 16823,31369,45914,60460,66369,72960,96596,133187,155460,169550,184096
DistanceSpacing: 1
BeatDivisor: 4
GridSize: 4

[Metadata]
Title:What My Cutie Mark Is Telling Me (Remix)
TitleUnicode:What My Cutie Mark Is Telling Me (Remix)
Artist:Sim Gretina
ArtistUnicode:Sim Gretina
Creator:ztrot
Version:Normal
Source:My Little Pony: Friendship is Magic
Tags:Dance twilight pinkie rainbow applejack rarity CDFA fluttershy mlp
BeatmapID:274259
BeatmapSetID:97787

[Difficulty]
HPDrainRate:3
CircleSize:4
OverallDifficulty:3
ApproachRate:3
SliderMultiplier:1.4
SliderTickRate:2

[Events]
//Background and Video events
0,0,"mane_6_with_cutie_marks_by_luther38-d4xjud5.png",0,0
//Break Periods
2,60659,64929
2,97023,109929
//Storyboard Layer 0 (Background)
//Storyboard Layer 1 (Fail)
//Storyboard Layer 2 (Pass)
//Storyboard Layer 3 (Foreground)
//Storyboard Sound Samples
//Background Colour Transformations
3,100,163,162,255

[TimingPoints]
460,454.545454545455,4,1,1,79,1,0

[HitObjects]
48,48,16823,5,0,0:0:0:0:
88,184,17278,1,8,0:0:0:0:
192,88,17732,2,0,P|232:160|208:224,1,140,0|8,0:0|0:0,0:0:0:0:
144,256,18414,2,0,P|192:304|272:272,1,140
296,216,19096,5,8,0:0:0:0:
408,136,19550,1,0,0:0:0:0:
448,272,20005,1,8,0:0:0:0:
336,352,20460,6,0,B|264:320|248:368|184:336,2,140,0|8|0,0:0|0:0|0:0,0:0:0:0:
416,240,21823,1,8,0:0:0:0:
440,160,22050,2,0,P|368:160|336:224,1,140
352,288,22732,1,8,0:0:0:0:
256,184,23187,5,0,0:0:0:0:
176,64,23641,1,8,0:0:0:0:
336,64,24096,6,0,P|392:104|392:176,1,140,4|8,0:0|0:0,0:0:0:0:
256,264,25005,2,0,L|256:112,1,140,0|8,0:0|0:0,0:0:0:0:
256,40,25687,2,0,P|184:64|168:120,1,140
168,208,26369,2,0,P|88:192|88:120,2,140,8|0|8,0:0|0:0|0:0,0:0:0:0:
80,320,27732,5,0,0:0:0:0:
224,320,28187,1,8,0:0:0:0:
152,200,28641,1,0,0:0:0:0:
296,200,29096,1,8,0:0:0:0:
296,280,29323,2,0,P|368:312|432:280,1,140,4|0,0:0|0:0,0:0:0:0:
440,216,30005,1,8,0:0:0:0:
384,88,30460,5,0,0:0:0:0:
276,176,30914,1,0,0:0:0:0:
168,96,31369,6,0,P|88:112|64:160,1,140,4|8,0:0|0:0,0:0:0:0:
40,296,32278,1,0,0:0:0:0:
168,248,32732,1,8,0:0:0:0:
256,360,33187,5,0,0:0:0:0:
256,360,33641,1,8,0:0:0:0:
256,216,34096,1,0,0:0:0:0:
376,288,34550,1,8,0:0:0:0:
256,136,35005,5,0,0:0:0:0:
256,136,35460,1,8,0:0:0:0:
144,48,35914,1,0,0:0:0:0:
144,48,36369,1,8,0:0:0:0:
64,168,36823,6,0,P|48:240|104:296,2,140,0|8|0,0:0|0:0|0:0,0:0:0:0:
200,208,38187,1,8,0:0:0:0:
256,336,38641,5,4,0:0:0:0:
416,336,39096,1,8,0:0:0:0:
312,248,39550,1,0,0:0:0:0:
232,248,39778,1,0,0:0:0:0:
96,248,40232,5,0,0:0:0:0:
48,176,40460,2,0,P|112:152|128:88,2,140,0|8|0,0:0|0:0|0:0,0:0:0:0:
24,72,41823,1,8,0:0:0:0:
192,48,42278,5,0,0:0:0:0:
192,192,42732,1,8,0:0:0:0:
320,48,43187,1,0,0:0:0:0:
320,192,43641,1,8,0:0:0:0:
392,312,44096,5,4,0:0:0:0:
256,368,44550,1,8,0:0:0:0:
120,312,45005,1,0,0:0:0:0:
120,312,45460,1,8,0:0:0:0:
48,192,45914,6,0,P|112:152|112:88,1,140,0|8,0:0|0:0,0:0:0:0:
184,216,46823,2,0,P|208:144|264:128,1,140,0|8,0:0|0:0,0:0:0:0:
368,224,47732,1,0,0:0:0:0:
456,104,48187,1,8,0:0:0:0:
328,56,48641,2,0,P|256:64|200:32,1,140,0|8,0:0|0:0,0:0:0:0:
104,136,49550,6,0,P|104:208|56:256,1,140,0|8,0:0|0:0,0:0:0:0:
200,280,50460,2,0,P|184:200|224:160,1,140,0|8,0:0|0:0,0:0:0:0:
304,272,51369,1,0,0:0:0:0:
432,352,51823,1,8,0:0:0:0:
440,216,52278,6,0,P|392:160|408:96,1,140,0|8,0:0|0:0,0:0:0:0:
256,120,53187,1,0,0:0:0:0:
144,232,53641,2,0,P|121:181|157:106,1,140,8|0,0:0|0:0,0:0:0:0:
208,56,54323,2,0,P|264:64|292:48,1,70,0|8,0:0|0:0,0:0:0:0:
416,64,55005,5,0,0:0:0:0:
352,192,55460,1,8,0:0:0:0:
416,320,55914,1,0,0:0:0:0:
136,352,56823,5,0,0:0:0:0:
136,192,57278,1,8,0:0:0:0:
256,120,57732,1,0,0:0:0:0:
256,280,58187,1,8,0:0:0:0:
392,192,58641,5,4,0:0:0:0:
392,48,59096,1,0,0:0:0:0:
256,48,59550,1,0,0:0:0:0:
256,192,60005,2,0,L|256:280,2,70,0|0|4,0:0|0:0|0:0,0:0:0:0:
48,56,66369,5,0,0:0:0:0:
184,56,66823,1,0,0:0:0:0:
328,56,67278,1,0,0:0:0:0:
464,56,67732,2,0,P|496:116|484:188,1,140
344,172,68641,5,0,0:0:0:0:
392,312,69096,1,0,0:0:0:0:
256,280,69550,1,0,0:0:0:0:
120,312,70005,1,0,0:0:0:0:
88,176,70460,6,0,P|160:144|176:80,1,140
256,208,71369,2,0,L|256:64,1,140
424,176,72278,2,0,P|352:144|336:80,1,140
368,256,73187,5,0,0:0:0:0:
256,336,73641,1,0,0:0:0:0:
144,256,74096,1,0,0:0:0:0:
256,168,74550,1,0,0:0:0:0:
144,88,75005,6,0,P|72:120|64:192,2,140
368,88,76596,6,0,P|440:120|448:192,2,140
379,161,77732,1,0,0:0:0:0:
256,256,78187,5,0,0:0:0:0:
228,120,78641,1,0,0:0:0:0:
256,192,79323,12,0,81482,0:0:0:0:
464,336,82278,5,4,0:0:0:0:
424,200,82733,1,8,0:0:0:0:
320,296,83187,2,0,P|280:224|304:160,1,140,0|8,0:0|0:0,0:0:0:0:
368,128,83869,2,0,P|320:80|240:112,1,140
216,168,84551,5,8,0:0:0:0:
104,248,85005,1,0,0:0:0:0:
64,112,85460,1,8,0:0:0:0:
176,32,85915,6,0,B|248:64|264:16|328:48,2,140,0|8|0,0:0|0:0|0:0,0:0:0:0:
96,144,87278,1,8,0:0:0:0:
72,224,87505,2,0,P|144:224|176:160,1,140
160,96,88187,1,8,0:0:0:0:
256,200,88642,5,0,0:0:0:0:
336,320,89096,1,8,0:0:0:0:
176,320,89551,2,0,P|120:280|120:208,1,140,4|8,0:0|0:0,0:0:0:0:
256,120,90460,2,0,L|256:272,1,140,0|8,0:0|0:0,0:0:0:0:
256,344,91142,2,0,P|328:320|344:264,1,140
344,176,91824,2,0,P|424:192|424:264,2,140,8|0|8,0:0|0:0|0:0,0:0:0:0:
432,64,93187,5,0,0:0:0:0:
288,64,93642,1,8,0:0:0:0:
360,184,94096,1,0,0:0:0:0:
220,188,94550,2,0,P|156:216|84:188,1,140,0|0,0:0|0:0,0:0:0:0:
156,68,95460,1,8,0:0:0:0:
256,168,95914,5,0,0:0:0:0:
184,288,96369,1,0,0:0:0:0:
328,288,96823,1,4,0:0:0:0:
448,56,111369,6,0,P|448:128|392:160,1,140
296,64,112278,2,0,P|240:104|264:184,1,140
328,280,113187,1,0,0:0:0:0:
200,360,113641,1,0,0:0:0:0:
104,256,114096,2,0,P|160:220|152:152,1,140
256,60,115005,6,0,P|304:108|372:84,1,140
464,192,115914,1,0,0:0:0:0:
400,320,116369,1,0,0:0:0:0:
256,336,116823,2,0,L|256:184,2,140
176,336,117960,1,0,0:0:0:0:
96,336,118187,1,0,0:0:0:0:
40,192,118641,5,4,0:0:0:0:
96,64,119096,2,0,P|152:120|216:104,1,140,8|0,0:0|0:0,0:0:0:0:
168,48,119778,1,0,0:0:0:0:
248,48,120005,2,0,P|280:112|248:176,1,140,8|0,0:0|0:0,0:0:0:0:
128,224,120914,1,8,0:0:0:0:
248,296,121369,1,0,0:0:0:0:
304,80,122278,5,0,0:0:0:0:
444,80,122732,1,8,0:0:0:0:
352,192,123187,1,0,0:0:0:0:
212,192,123641,1,8,0:0:0:0:
120,280,124096,6,0,B|192:240|192:296|272:240,2,140,6|8|2,0:0|0:0|0:0,0:0:0:0:
160,176,125460,1,10,0:0:0:0:
256,48,125914,6,0,P|192:96|136:80,1,140,4|8,0:0|0:0,0:0:0:0:
48,192,126823,1,2,0:0:0:0:
160,288,127278,1,8,0:0:0:0:
352,288,127732,5,0,0:0:0:0:
464,192,128187,1,8,0:0:0:0:
256,144,128641,2,0,L|256:224,2,70,0|0|8,0:0|0:0|0:0,0:0:0:0:
256,296,129550,6,0,P|184:328|128:312,1,140,0|8,0:0|0:0,0:0:0:0:
32,208,130460,1,0,0:0:0:0:
112,80,130914,1,8,0:0:0:0:
256,80,131369,6,0,L|256:232,1,140,0|8,0:0|0:0,0:0:0:0:
184,344,132278,1,0,0:0:0:0:
324,312,132732,1,8,0:0:0:0:
472,344,133187,6,0,B|504:280|456:264|488:200,1,140,4|8,0:0|0:0,0:0:0:0:
432,80,134096,5,0,0:0:0:0:
292,64,134550,1,8,0:0:0:0:
256,192,135005,2,0,P|256:264|192:312,1,140,0|8,0:0|0:0,0:0:0:0:
72,280,135914,6,0,L|72:364,2,70
148,260,136596,2,0,L|148:180,1,70
76,68,137278,1,8,0:0:0:0:
280,56,137732,5,0,0:0:0:0:
440,56,138187,1,8,0:0:0:0:
356,168,138641,1,2,0:0:0:0:
212,168,139096,2,0,B|140:144|116:192|52:168,2,140,8|0|10,0:0|0:0|0:0,0:0:0:0:
308,88,140460,6,0,P|380:92|412:188,1,140,2|0,0:0|0:0,0:0:0:0:
416,212,141141,2,0,L|408:324,1,70
256,240,141823,1,0,0:0:0:0:
204,88,142278,2,0,P|132:92|100:188,1,140
96,212,142959,2,0,L|104:324,1,70
336,128,144096,6,0,P|328:212|248:232,1,140
145,235,145005,2,0,P|153:319|233:339,1,140
256,304,145687,1,0,0:0:0:0:
316,342,145914,2,0,P|359:319|367:235,2,140
172,104,147732,6,0,L|312:72,1,140
376,84,148414,1,0,0:0:0:0:
356,152,148641,2,0,P|360:228|420:236,1,140
444,104,149550,2,0,P|500:116|492:208,2,140
164,92,151369,6,0,P|104:132|36:112,1,140
140,16,152278,2,0,P|216:16|196:176,1,280
68,208,153641,1,0,0:0:0:0:
8,336,154096,2,0,P|84:352|156:324,1,140,0|8,0:0|0:0,0:0:0:0:
185,200,155005,6,0,L|333:200,1,140,4|8,2:0|0:0,0:0:0:0:
465,200,155914,2,0,P|456:276|324:304,1,210
368,248,156823,2,0,P|328:328|272:360,1,140,0|8,0:0|0:0,0:0:0:0:
147,354,157732,6,0,P|120:276|144:212,2,140,0|8|0,0:0|0:0|0:0,0:0:0:0:
256,264,159096,2,0,B|232:208|288:168|256:124,1,140,8|0,0:0|0:0,0:0:0:0:
152,36,160005,2,0,P|88:36|60:104,1,140,8|0,0:0|0:0,0:0:0:0:
68,240,160914,6,0,L|76:328,1,70,8|0,0:0|0:0,0:0:0:0:
20,356,161369,2,0,L|180:308,1,140,0|8,0:0|0:0,0:0:0:0:
256,220,162278,2,0,L|256:80,2,140,4|8|0,1:2|0:0|0:0,0:0:0:0:
372,296,163641,6,0,L|440:324,2,70,8|0|0,0:0|0:0|0:0,0:0:0:0:
376,152,164550,2,0,P|272:208|296:368,1,280,8|8,0:0|0:0,0:0:0:0:
460,296,165914,6,0,P|496:228|472:144,1,140,4|8,1:2|0:0,0:0:0:0:
384,72,166823,2,0,L|424:8,2,70,0|0|8,0:0|0:0|0:0,0:0:0:0:
244,60,167732,2,0,P|184:72|152:176,1,140,0|8,0:0|0:0,0:0:0:0:
148,208,168414,2,0,L|168:296,1,70
428,192,169550,6,0,P|424:256|352:296,1,140,4|8,1:1|0:0,0:0:0:0:
296,300,170232,2,0,L|248:236,1,70
116,224,170914,2,0,L|176:316,1,70,8|0,0:0|0:0,0:0:0:0:
296,300,171596,1,0,0:0:0:0:
296,300,171823,2,0,L|200:176,1,140,8|0,0:0|0:0,0:0:0:0:
108,92,172732,6,0,P|192:76|232:128,1,140,8|0,0:0|0:0,0:0:0:0:
260,172,173414,1,0,0:0:0:0:
292,236,173641,2,0,P|372:288|436:248,1,140,8|0,0:0|0:0,0:0:0:0:
504,176,174550,2,0,P|512:108|460:52,1,140,8|0,0:0|0:0,0:0:0:0:
332,32,175460,2,0,L|260:24,2,70,8|0|0,0:0|0:0|0:0,0:0:0:0:
324,172,176369,1,8,0:0:0:0:
256,296,176823,5,4,1:0:0:0:
192,328,177050,1,0,0:0:0:0:
128,360,177278,2,0,P|64:360|44:272,2,140,8|0|8,0:0|0:0|0:0,0:0:0:0:
108,292,178414,2,0,L|204:160,1,140
256,148,179096,2,0,L|256:72,2,70,8|0|0,0:0|0:0|0:0,0:0:0:0:
404,292,180005,6,0,L|321:178,1,140,8|0,0:0|0:0,0:0:0:0:
222,79,180914,2,0,L|314:79,2,70,8|0|0,0:0|0:0|0:0,0:0:0:0:
88,124,181823,1,8,0:0:0:0:
88,124,182050,2,0,P|100:208|228:216,1,210,0|8,0:0|0:0,0:0:0:0:
268,192,182960,2,0,L|340:156,1,70
472,164,183641,2,0,L|372:224,2,70,8|0|2,0:0|0:0|0:0,0:0:0:0:
