osu file format v12

[General]
AudioFilename: What my cutie mark is telling me.mp3
AudioLeadIn: 0
PreviewTime: 125914
Countdown: 1
SampleSet: Normal
StackLeniency: 0.7
Mode: 0
LetterboxInBreaks: 1
WidescreenStoryboard: 0

[Editor]
Bookmarks: 16823,31369,45914,60460,66369,72960,96596,133187,155460,169550,184096
DistanceSpacing: 1
BeatDivisor: 4
GridSize: 8

[Metadata]
Title:What My Cutie Mark Is Telling Me (Remix)
TitleUnicode:What My Cutie Mark Is Telling Me (Remix)
Artist:Sim Gretina
ArtistUnicode:Sim Gretina
Creator:ztrot
Version:Insane
Source:My Little Pony: Friendship is Magic
Tags:Dance twilight pinkie rainbow applejack rarity CDFA fluttershy mlp
BeatmapID:261252
BeatmapSetID:97787

[Difficulty]
HPDrainRate:7
CircleSize:4
OverallDifficulty:8
ApproachRate:8
SliderMultiplier:1.9
SliderTickRate:2

[Events]
//Background and Video events
0,0,"mane_6_with_cutie_marks_by_luther38-d4xjud5.png",0,0
//Break Periods
2,60660,65619
2,105205,110619
//Storyboard Layer 0 (Background)
//Storyboard Layer 1 (Fail)
//Storyboard Layer 2 (Pass)
//Storyboard Layer 3 (Foreground)
//Storyboard Sound Samples
//Background Colour Transformations
3,100,163,162,255

[TimingPoints]
460,454.545454545455,4,1,1,79,1,0

[HitObjects]
432,64,16823,1,0,0:0:0:0:
352,144,17050,1,0,0:0:0:0:
304,48,17278,1,8,0:0:0:0:
448,160,17505,1,0,0:0:0:0:
256,128,17732,2,0,P|282:215|372:239,1,190,0|8,0:0|0:0,0:0:0:0:
280,344,18414,2,0,P|200:296|152:208,1,190
80,296,19096,1,8,0:0:0:0:
16,216,19323,1,0,0:0:0:0:
152,288,19550,1,0,0:0:0:0:
8,288,19778,1,0,0:0:0:0:
80,168,20005,5,8,0:0:0:0:
80,168,20232,1,0,0:0:0:0:
136,48,20460,2,0,P|184:80|224:72,1,95
344,40,20914,2,0,P|392:32|432:56,1,95,8|0,0:0|0:0,0:0:0:0:
312,168,21369,2,0,P|264:240|176:216,1,190,0|8,0:0|0:0,0:0:0:0:
238,173,22050,2,0,P|278:236|380:197,1,190
384,336,22732,1,8,0:0:0:0:
288,328,22960,6,0,P|240:304|184:328,1,95
88,216,23414,1,0,0:0:0:0:
64,344,23641,1,8,0:0:0:0:
201,313,23869,1,0,0:0:0:0:
224,176,24096,6,0,P|168:168|144:120,1,95,4|0,0:0|0:0,0:0:0:0:
264,64,24550,2,0,P|304:72|336:128,1,95,8|0,0:0|0:0,0:0:0:0:
328,256,25005,2,0,P|416:248|432:160,1,190,0|8,0:0|0:0,0:0:0:0:
367,193,25687,2,0,P|404:265|335:334,1,190
224,224,26369,1,8,0:0:0:0:
208,344,26596,1,0,0:0:0:0:
104,272,26823,2,0,P|64:248|48:200,1,95
192,120,27278,6,0,P|224:152|280:144,1,95,8|0,0:0|0:0,0:0:0:0:
360,40,27732,1,0,0:0:0:0:
448,144,27960,1,0,0:0:0:0:
336,168,28187,1,8,0:0:0:0:
408,272,28414,1,0,0:0:0:0:
288,272,28641,2,0,P|224:216|144:272,1,190,0|8,0:0|0:0,0:0:0:0:
216,288,29323,2,0,P|192:209|93:215,1,190,4|0,0:0|0:0,0:0:0:0:
120,303,30005,1,8,0:0:0:0:
120,303,30232,1,0,0:0:0:0:
24,160,30460,5,0,0:0:0:0:
88,56,30687,1,0,0:0:0:0:
160,152,30914,1,8,0:0:0:0:
0,72,31141,1,0,0:0:0:0:
176,64,31369,5,4,0:0:0:0:
256,120,31596,1,0,0:0:0:0:
280,32,31823,2,0,P|320:48|344:96,1,95,8|0,0:0|0:0,0:0:0:0:
320,184,32278,1,0,0:0:0:0:
416,160,32505,1,0,0:0:0:0:
440,64,32732,2,0,P|480:80|504:128,1,95,8|0,0:0|0:0,0:0:0:0:
384,280,33187,5,0,0:0:0:0:
256,216,33414,1,0,0:0:0:0:
264,352,33641,2,0,P|216:360|160:320,1,95,8|0,0:0|0:0,0:0:0:0:
64,280,34096,1,0,0:0:0:0:
8,160,34323,1,0,0:0:0:0:
144,184,34550,1,8,0:0:0:0:
192,64,34778,5,0,0:0:0:0:
320,64,35005,1,0,0:0:0:0:
256,192,35232,1,0,0:0:0:0:
168,152,35460,1,8,0:0:0:0:
344,152,35687,1,0,0:0:0:0:
176,248,35914,2,0,P|112:240|88:208,1,95
336,248,36369,2,0,P|400:240|424:208,1,95,8|0,0:0|0:0,0:0:0:0:
360,56,36823,5,0,0:0:0:0:
256,128,37050,1,0,0:0:0:0:
152,56,37278,1,8,0:0:0:0:
328,176,37505,1,0,0:0:0:0:
184,176,37732,1,0,0:0:0:0:
256,264,37960,1,0,0:0:0:0:
256,264,38073,1,0,0:0:0:0:
256,264,38187,1,8,0:0:0:0:
144,280,38414,6,0,P|96:256|80:200,1,95,0|4,0:0|0:0,0:0:0:0:
232,312,38869,2,0,P|288:312|328:352,1,95,0|8,0:0|0:0,0:0:0:0:
160,368,39323,1,0,0:0:0:0:
208,224,39550,1,0,0:0:0:0:
160,368,39778,1,0,0:0:0:0:
48,264,40005,1,8,0:0:0:0:
40,112,40232,5,0,0:0:0:0:
160,56,40460,1,0,0:0:0:0:
256,136,40687,1,0,0:0:0:0:
352,56,40914,1,8,0:0:0:0:
472,112,41141,1,0,0:0:0:0:
376,200,41369,5,0,0:0:0:0:
136,200,41823,1,8,0:0:0:0:
48,328,42050,5,0,0:0:0:0:
112,192,42278,1,0,0:0:0:0:
200,312,42505,1,0,0:0:0:0:
43,230,42732,2,0,P|75:262|134:263,1,95,8|0,0:0|0:0,0:0:0:0:
224,200,43187,1,0,0:0:0:0:
168,96,43414,1,0,0:0:0:0:
56,128,43641,1,0,0:0:0:0:
128,360,44096,5,6,0:0:0:0:
384,360,44550,1,10,0:0:0:0:
176,144,45005,1,2,0:0:0:0:
256,256,45232,1,0,0:0:0:0:
336,144,45460,1,10,0:0:0:0:
168,232,45687,1,8,0:0:0:0:
344,232,45914,5,0,0:0:0:0:
400,304,46141,1,0,0:0:0:0:
312,336,46369,2,0,P|264:352|216:344,1,95,8|0,0:0|0:0,0:0:0:0:
136,312,46823,1,0,0:0:0:0:
208,256,47050,1,0,0:0:0:0:
112,232,47278,6,0,P|88:192|104:144,1,95,8|0,0:0|0:0,0:0:0:0:
224,168,47732,2,0,P|232:120|200:80,1,95
336,96,48187,2,0,P|360:152|392:168,1,95,8|0,0:0|0:0,0:0:0:0:
432,280,48641,1,0,0:0:0:0:
328,352,48869,1,8,0:0:0:0:
312,352,48982,1,0,0:0:0:0:
296,352,49096,1,8,0:0:0:0:
288,232,49323,5,0,0:0:0:0:
192,312,49550,2,0,P|136:296|112:256,1,95
216,168,50005,2,0,P|176:200|112:184,1,95,8|0,0:0|0:0,0:0:0:0:
176,56,50460,2,0,P|160:104|104:120,1,95
24,200,50914,5,8,0:0:0:0:
56,328,51141,1,0,0:0:0:0:
168,240,51369,1,0,0:0:0:0:
128,120,51596,1,0,0:0:0:0:
88,248,51823,2,0,P|112:296|160:320,1,95,8|0,0:0|0:0,0:0:0:0:
232,360,52278,1,0,0:0:0:0:
320,320,52505,1,8,0:0:0:0:
328,304,52619,1,0,0:0:0:0:
336,288,52732,1,8,0:0:0:0:
304,152,52960,5,0,0:0:0:0:
432,112,53187,1,4,0:0:0:0:
392,224,53414,1,0,0:0:0:0:
304,240,53641,1,8,0:0:0:0:
464,192,53869,1,0,0:0:0:0:
352,80,54096,2,0,P|304:64|248:88,1,95
144,200,54550,1,8,0:0:0:0:
128,336,54778,5,0,0:0:0:0:
64,232,55005,1,0,0:0:0:0:
216,248,55232,1,0,0:0:0:0:
48,320,55460,1,8,0:0:0:0:
216,336,55687,1,0,0:0:0:0:
144,208,55914,2,0,P|184:168|224:168,2,95,0|0|8,0:0|0:0|0:0,0:0:0:0:
48,104,56596,5,0,0:0:0:0:
128,24,56823,1,0,0:0:0:0:
160,128,57050,1,0,0:0:0:0:
248,56,57278,2,0,L|304:136,1,95,8|0,0:0|0:0,0:0:0:0:
432,176,57732,2,0,L|376:96,1,95
328,232,58187,1,8,0:0:0:0:
112,312,58641,5,6,0:0:0:0:
400,312,59096,1,2,0:0:0:0:
256,48,59550,5,2,0:0:0:0:
160,112,59778,1,0,0:0:0:0:
352,112,60005,1,2,0:0:0:0:
192,208,60232,1,0,0:0:0:0:
320,208,60460,1,4,0:0:0:0:
88,352,66369,5,0,0:0:0:0:
144,232,66596,1,0,0:0:0:0:
232,320,66823,1,0,0:0:0:0:
64,264,67050,1,0,0:0:0:0:
232,232,67278,1,0,0:0:0:0:
128,136,67505,5,8,0:0:0:0:
144,120,67619,1,0,0:0:0:0:
160,104,67732,1,2,0:0:0:0:
288,56,67960,2,0,P|304:104|352:128,1,95
400,32,68414,1,0,0:0:0:0:
448,120,68641,2,0,P|440:192|376:224,2,142.5
256,232,69664,1,0,0:0:0:0:
120,192,70005,1,0,0:0:0:0:
56,352,70232,5,0,0:0:0:0:
40,256,70460,1,0,0:0:0:0:
136,288,70687,1,0,0:0:0:0:
120,192,70914,2,0,P|168:216|208:208,1,95
176,120,71369,1,0,0:0:0:0:
56,120,71596,1,0,0:0:0:0:
112,16,71823,1,0,0:0:0:0:
240,16,72050,1,0,0:0:0:0:
296,128,72278,6,0,P|328:176|400:144,2,142.5
416,272,73187,1,0,0:0:0:0:
320,256,73414,1,0,0:0:0:0:
344,344,73641,5,0,0:0:0:0:
256,312,73869,1,0,0:0:0:0:
168,344,74096,1,0,0:0:0:0:
320,256,74323,1,0,0:0:0:0:
192,256,74550,2,0,P|144:224|144:192,1,95
320,256,75005,2,0,P|368:224|368:192,1,95
256,160,75460,1,0,0:0:0:0:
192,64,75687,1,0,0:0:0:0:
328,64,75914,6,0,P|376:112|472:48,1,190
400,40,76596,2,0,P|376:128|288:128,1,190
112,80,77278,1,0,0:0:0:0:
112,176,77505,1,0,0:0:0:0:
192,128,77732,2,0,P|200:208|120:272,1,190
32,232,78414,1,0,0:0:0:0:
144,336,78641,1,0,0:0:0:0:
208,192,78869,1,0,0:0:0:0:
48,320,79096,1,0,0:0:0:0:
224,280,79323,6,0,P|248:328|232:376,1,95
32,232,79778,2,0,P|48:184|96:160,1,95
144,336,80232,2,0,P|128:288|152:248,1,95,0|2,0:0|0:0,0:0:0:0:
184,136,80687,1,0,0:0:0:0:
328,136,80914,1,0,0:0:0:0:
256,240,81141,1,0,0:0:0:0:
376,328,81369,5,0,0:0:0:0:
400,328,81482,1,0,0:0:0:0:
456,208,81710,1,0,0:0:0:0:
432,208,81823,1,0,0:0:0:0:
336,48,82050,1,0,0:0:0:0:
320,56,82164,1,0,0:0:0:0:
304,64,82278,6,0,P|264:96|240:144,1,95,2|0,0:0|0:0,0:0:0:0:
128,96,82732,1,8,0:0:0:0:
40,176,82960,1,0,0:0:0:0:
160,224,83187,2,0,P|208:312|288:280,1,190,0|8,0:0|0:0,0:0:0:0:
228,242,83869,2,0,P|220:182|104:177,1,190
48,272,84550,1,8,0:0:0:0:
96,360,84778,1,0,0:0:0:0:
192,304,85005,1,0,0:0:0:0:
320,304,85232,1,0,0:0:0:0:
192,208,85460,5,8,0:0:0:0:
320,208,85687,1,0,0:0:0:0:
208,120,85914,2,0,P|152:128|112:176,1,95,0|0,0:0|0:0,0:0:0:0:
304,120,86369,2,0,P|360:128|400:176,1,95,8|0,0:0|0:0,0:0:0:0:
256,256,86823,2,0,P|320:336|392:272,1,190,0|8,0:0|0:0,0:0:0:0:
324,267,87505,2,0,P|397:235|448:321,1,190
488,184,88187,1,8,0:0:0:0:
368,144,88414,1,0,0:0:0:0:
464,56,88641,5,0,0:0:0:0:
304,32,88869,1,0,0:0:0:0:
368,144,89096,1,8,0:0:0:0:
456,56,89323,1,0,0:0:0:0:
296,32,89550,5,4,0:0:0:0:
272,120,89778,1,0,0:0:0:0:
208,56,90005,2,0,P|176:104|192:160,1,95,8|0,0:0|0:0,0:0:0:0:
240,208,90460,2,0,P|256:272|368:256,1,190,0|8,0:0|0:0,0:0:0:0:
308,223,91141,2,0,P|257:279|168:220,1,190
120,344,91823,1,8,0:0:0:0:
16,272,92050,1,0,0:0:0:0:
64,144,92278,5,0,0:0:0:0:
144,48,92505,1,0,0:0:0:0:
256,112,92732,1,8,0:0:0:0:
368,48,92960,1,0,0:0:0:0:
360,72,93073,1,0,0:0:0:0:
352,96,93187,2,0,P|336:144|344:192,1,95
456,264,93641,1,8,0:0:0:0:
344,328,93869,1,0,0:0:0:0:
264,224,94096,6,0,P|192:296|176:248,1,190,0|8,0:0|0:0,0:0:0:0:
224,120,94778,2,0,P|160:72|160:168,1,190
56,248,95460,1,8,0:0:0:0:
112,360,95687,1,0,0:0:0:0:
200,272,95914,1,0,0:0:0:0:
40,328,96141,1,8,0:0:0:0:
192,360,96369,1,0,0:0:0:0:
136,208,96596,1,0,0:0:0:0:
448,56,97050,5,0,0:0:0:0:
448,152,97278,1,8,0:0:0:0:
368,104,97505,1,0,0:0:0:0:
360,200,97732,2,0,P|368:256|344:296,1,95
272,232,98187,2,0,P|248:280|272:336,1,95,8|0,0:0|0:0,0:0:0:0:
168,352,98641,2,0,P|112:352|88:312,2,95,0|0|8,0:0|0:0|0:0,0:0:0:0:
158,260,99323,2,0,P|197:248|244:298,2,95
149,173,100005,2,0,P|155:127|194:99,1,95,8|0,0:0|0:0,0:0:0:0:
64,56,100460,5,0,0:0:0:0:
64,152,100688,1,0,0:0:0:0:
144,104,100915,1,8,0:0:0:0:
152,200,101142,2,0,P|144:256|183:292,1,95
240,232,101597,2,0,P|266:279|245:336,1,95,0|8,0:0|0:0,0:0:0:0:
344,352,102051,2,0,P|400:352|424:312,2,95,0|0|0,0:0|0:0|0:0,0:0:0:0:
353,264,102733,2,0,P|299:260|265:297,2,95,8|0|0,0:0|0:0|0:0,0:0:0:0:
368,166,103415,2,0,P|352:118|305:98,2,95,0|8|0,0:0|0:0|0:0,0:0:0:0:
272,192,104096,5,4,0:0:0:0:
192,80,104323,1,0,0:0:0:0:
144,200,104550,1,8,0:0:0:0:
280,104,104778,1,0,0:0:0:0:
112,120,105005,1,0,0:0:0:0:
448,80,111369,6,0,P|416:136|384:136,2,95
360,56,112050,1,0,0:0:0:0:
304,136,112278,1,0,0:0:0:0:
344,224,112505,1,0,0:0:0:0:
248,208,112732,1,0,0:0:0:0:
144,336,112960,5,0,0:0:0:0:
16,256,113187,1,0,0:0:0:0:
176,256,113414,1,0,0:0:0:0:
48,336,113641,1,0,0:0:0:0:
96,208,113869,1,0,0:0:0:0:
16,152,114096,2,0,P|96:112|184:160,1,190
328,64,114778,5,0,0:0:0:0:
432,112,115005,2,0,P|453:154|446:204,1,95
304,176,115460,2,0,P|287:134|295:80,1,95
424,272,115914,2,0,P|392:312|344:328,1,95
224,280,116369,1,0,0:0:0:0:
64,144,116596,5,0,0:0:0:0:
192,96,116823,1,0,0:0:0:0:
160,216,117050,1,0,0:0:0:0:
120,336,117278,2,0,P|72:304|48:256,2,95
256,304,117960,1,0,0:0:0:0:
280,304,118073,1,0,0:0:0:0:
304,304,118187,1,0,0:0:0:0:
200,368,118414,1,0,0:0:0:0:
248,208,118641,5,4,0:0:0:0:
176,144,118869,1,0,0:0:0:0:
280,120,119096,2,0,P|336:112|376:144,1,95,8|0,0:0|0:0,0:0:0:0:
208,64,119550,1,0,0:0:0:0:
112,80,119778,1,0,0:0:0:0:
88,168,120005,2,0,P|40:208|40:256,1,95,8|0,0:0|0:0,0:0:0:0:
48,256,120346,1,0,0:0:0:0:
64,272,120460,5,0,0:0:0:0:
192,224,120687,1,0,0:0:0:0:
160,352,120914,2,0,P|216:352|264:328,2,95,8|0|0,0:0|0:0|0:0,0:0:0:0:
264,240,121596,1,0,0:0:0:0:
360,312,121823,1,8,0:0:0:0:
368,192,122050,5,0,0:0:0:0:
256,112,122278,1,0,0:0:0:0:
144,192,122505,1,0,0:0:0:0:
256,272,122732,2,0,P|272:336|304:352,1,95,8|0,0:0|0:0,0:0:0:0:
312,352,123073,1,0,0:0:0:0:
336,352,123187,1,0,0:0:0:0:
448,312,123414,2,0,P|488:272|480:224,1,95,0|8,0:0|0:0,0:0:0:0:
128,80,124096,5,6,0:0:0:0:
384,80,124550,1,8,0:0:0:0:
256,336,125005,1,2,0:0:0:0:
176,240,125232,1,0,0:0:0:0:
336,240,125460,1,2,0:0:0:0:
256,112,125687,5,10,0:0:0:0:
256,136,125800,1,0,0:0:0:0:
256,160,125914,1,10,0:0:0:0:
176,320,126141,1,0,0:0:0:0:
336,320,126369,1,8,0:0:0:0:
256,240,126596,1,0,0:0:0:0:
256,240,126710,1,2,0:0:0:0:
256,240,126823,2,0,L|160:240,2,95,0|0|8,0:0|0:0|0:0,0:0:0:0:
384,144,127505,1,0,0:0:0:0:
384,144,127619,1,0,0:0:0:0:
384,144,127732,2,0,P|440:144|464:112,2,95,0|0|8,0:0|0:0|0:0,0:0:0:0:
160,48,128414,5,0,0:0:0:0:
304,136,128641,1,0,0:0:0:0:
208,136,128869,1,0,0:0:0:0:
352,48,129096,1,8,0:0:0:0:
136,248,129437,5,0,0:0:0:0:
136,248,129550,1,4,0:0:0:0:
176,336,129778,1,0,0:0:0:0:
240,264,130005,2,0,P|264:320|320:328,1,95,8|0,0:0|0:0,0:0:0:0:
336,248,130460,1,0,0:0:0:0:
456,160,130687,1,0,0:0:0:0:
288,120,130914,1,8,0:0:0:0:
432,240,131141,1,0,0:0:0:0:
264,200,131369,5,0,0:0:0:0:
376,96,131596,1,0,0:0:0:0:
224,56,131823,1,8,0:0:0:0:
360,176,132050,1,0,0:0:0:0:
192,144,132278,2,0,P|176:200|192:256,2,95,0|0|8,0:0|0:0|0:0,0:0:0:0:
80,264,132960,1,0,0:0:0:0:
96,280,133073,1,0,0:0:0:0:
112,296,133187,1,4,0:0:0:0:
376,56,133641,5,8,0:0:0:0:
256,120,133869,1,0,0:0:0:0:
384,192,134096,1,0,0:0:0:0:
288,40,134323,1,0,0:0:0:0:
440,128,134550,2,0,P|400:112|328:128,1,95
264,248,135005,2,0,P|288:304|336:312,2,95
176,320,135687,5,0,0:0:0:0:
56,200,135914,1,0,0:0:0:0:
32,320,136141,1,0,0:0:0:0:
152,200,136369,1,0,0:0:0:0:
104,352,136596,1,0,0:0:0:0:
104,128,136823,2,0,P|192:120|240:224,1,190
400,96,137505,5,0,0:0:0:0:
416,104,137619,1,0,0:0:0:0:
432,112,137732,1,0,0:0:0:0:
440,248,137960,1,0,0:0:0:0:
376,344,138187,1,0,0:0:0:0:
296,296,138414,1,0,0:0:0:0:
280,288,138528,1,0,0:0:0:0:
264,280,138641,5,0,0:0:0:0:
56,48,139096,1,0,0:0:0:0:
344,48,139550,5,0,0:0:0:0:
176,48,139778,1,0,0:0:0:0:
312,144,140005,5,0,0:0:0:0:
200,144,140232,1,0,0:0:0:0:
256,256,140460,1,0,0:0:0:0:
168,232,140687,1,0,0:0:0:0:
344,232,140914,1,0,0:0:0:0:
256,352,141141,1,0,0:0:0:0:
136,344,141369,2,0,P|80:320|64:272,1,95
65,291,141710,2,0,P|56:240|80:200,1,95
88,184,142050,1,0,0:0:0:0:
192,64,142278,5,0,0:0:0:0:
256,184,142505,1,0,0:0:0:0:
320,64,142732,1,0,0:0:0:0:
184,144,142960,1,0,0:0:0:0:
328,144,143187,2,0,P|368:176|416:176,1,95
410,177,143528,2,0,P|456:160|496:176,1,95
504,192,143869,1,0,0:0:0:0:
432,296,144096,5,0,0:0:0:0:
320,240,144323,1,0,0:0:0:0:
256,320,144550,1,0,0:0:0:0:
192,240,144778,1,0,0:0:0:0:
72,296,145005,2,0,L|72:200,1,95
8,240,145346,2,0,L|8:336,1,95
8,352,145687,1,0,0:0:0:0:
152,304,145914,5,0,0:0:0:0:
256,208,146141,1,0,0:0:0:0:
168,336,146369,1,0,0:0:0:0:
280,240,146596,1,0,0:0:0:0:
136,184,146823,2,0,P|160:128|208:112,1,95
208,104,147164,1,0,0:0:0:0:
232,96,147278,1,0,0:0:0:0:
424,72,147505,5,0,0:0:0:0:
352,136,147732,1,0,0:0:0:0:
440,168,147960,1,0,0:0:0:0:
368,232,148187,2,0,P|320:224|272:176,1,95
336,312,148641,1,0,0:0:0:0:
416,304,148869,1,0,0:0:0:0:
144,304,149323,5,0,0:0:0:0:
88,232,149550,1,0,0:0:0:0:
184,224,149778,1,0,0:0:0:0:
128,144,150005,1,0,0:0:0:0:
32,152,150232,1,0,0:0:0:0:
72,64,150460,2,0,P|184:64|224:144,1,190
344,88,151141,5,0,0:0:0:0:
480,192,151369,1,0,0:0:0:0:
312,240,151596,1,0,0:0:0:0:
384,176,151823,2,0,P|280:152|216:216,1,190
256,192,152732,12,0,154550,0:0:0:0:
80,320,155005,5,0,0:0:0:0:
160,240,155232,1,0,0:0:0:0:
208,336,155460,1,8,0:0:0:0:
64,224,155687,1,0,0:0:0:0:
256,256,155914,2,0,P|230:169|140:145,1,190,0|8,0:0|0:0,0:0:0:0:
232,40,156596,2,0,P|312:88|360:176,1,190
432,88,157278,1,8,0:0:0:0:
496,168,157505,5,0,0:0:0:0:
360,96,157732,1,0,0:0:0:0:
504,96,157960,1,0,0:0:0:0:
368,168,158187,1,8,0:0:0:0:
432,224,158414,1,0,0:0:0:0:
376,336,158642,6,0,P|328:304|288:312,1,95
168,344,159096,2,0,P|120:352|80:328,1,95,8|0,0:0|0:0,0:0:0:0:
200,216,159551,2,0,P|248:144|336:168,1,190,0|8,0:0|0:0,0:0:0:0:
274,211,160232,2,0,P|234:148|132:187,1,190
128,48,160914,5,8,0:0:0:0:
224,56,161142,2,0,P|272:80|328:56,1,95
424,168,161596,1,0,0:0:0:0:
448,40,161823,1,8,0:0:0:0:
311,71,162051,1,0,0:0:0:0:
288,208,162278,2,0,P|344:216|368:264,1,95,4|0,0:0|0:0,0:0:0:0:
248,320,162732,2,0,P|208:312|176:256,1,95,8|0,0:0|0:0,0:0:0:0:
184,128,163187,2,0,P|96:136|80:224,1,190,0|8,0:0|0:0,0:0:0:0:
145,191,163869,6,0,P|108:119|177:50,1,190
288,160,164551,1,8,0:0:0:0:
304,40,164778,1,0,0:0:0:0:
408,112,165005,2,0,P|448:136|464:184,1,95
320,264,165460,6,0,P|288:232|232:240,1,95,8|0,0:0|0:0,0:0:0:0:
152,344,165914,1,0,0:0:0:0:
64,240,166142,1,0,0:0:0:0:
176,216,166369,1,8,0:0:0:0:
104,112,166596,5,0,0:0:0:0:
256,168,166823,1,0,0:0:0:0:
408,112,167050,1,0,0:0:0:0:
256,56,167278,1,0,0:0:0:0:
176,160,167505,1,8,0:0:0:0:
176,184,167619,1,0,0:0:0:0:
176,200,167732,1,0,0:0:0:0:
336,160,167960,1,0,0:0:0:0:
256,264,168187,2,0,P|296:288|352:280,2,95
256,192,168755,12,0,169550,0:0:0:0:
432,320,170005,6,0,P|400:360|328:360,1,95,8|0,0:0|0:0,0:0:0:0:
352,272,170460,2,0,P|288:288|264:184,1,190,0|8,0:0|0:0,0:0:0:0:
352,168,171141,2,0,P|280:96|192:128,1,190
112,144,171823,2,0,L|64:240,1,95,8|0,0:0|0:0,0:0:0:0:
152,320,172278,2,0,L|192:232,1,95
312,328,172732,6,0,P|360:304|368:256,1,95,8|0,0:0|0:0,0:0:0:0:
232,200,173187,2,0,P|248:152|288:128,1,95
440,104,173641,1,8,0:0:0:0:
344,40,173869,1,0,0:0:0:0:
328,152,174096,2,0,P|272:168|224:64,1,190,0|8,0:0|0:0,0:0:0:0:
284,99,174778,2,0,L|138:235,1,190
56,288,175460,1,8,0:0:0:0:
168,336,175687,1,0,0:0:0:0:
344,336,175914,5,0,0:0:0:0:
384,240,176141,1,0,0:0:0:0:
168,336,176369,1,8,0:0:0:0:
128,240,176596,1,0,0:0:0:0:
256,312,176823,5,4,0:0:0:0:
304,232,177050,1,0,0:0:0:0:
208,232,177278,1,8,0:0:0:0:
256,152,177505,1,0,0:0:0:0:
181,92,177732,2,0,P|256:43|330:93,1,190,0|8,0:0|0:0,0:0:0:0:
329,188,178414,6,0,P|255:238|180:189,1,190
120,304,179096,1,8,0:0:0:0:
200,352,179323,1,0,0:0:0:0:
312,352,179550,1,0,0:0:0:0:
392,304,179778,1,0,0:0:0:0:
312,248,180005,5,0,0:0:0:0:
200,248,180232,1,0,0:0:0:0:
328,168,180460,2,0,P|352:128|344:80,1,95
168,80,180914,2,0,P|161:125|185:165,1,95,8|0,0:0|0:0,0:0:0:0:
256,112,181369,2,0,L|256:304,1,190,0|8,0:0|0:0,0:0:0:0:
192,289,182050,6,0,P|257:231|320:296,1,190
352,168,182732,1,8,0:0:0:0:
160,168,182960,1,0,0:0:0:0:
312,80,183187,5,0,0:0:0:0:
200,80,183414,1,8,0:0:0:0:
256,176,183641,1,8,0:0:0:0:
312,80,183869,1,0,0:0:0:0:
200,80,184096,1,4,0:0:0:0:
