osu file format v12

[General]
AudioFilename: Raise This Barn (Sim Gretina Remix).mp3
AudioLeadIn: 1985
PreviewTime: 44337
Countdown: 0
SampleSet: Soft
StackLeniency: 0.7
Mode: 0
LetterboxInBreaks: 1

[Editor]
DistanceSpacing: 1
BeatDivisor: 4
GridSize: 4

[Metadata]
Title:Raise This Barn (Remix)
TitleUnicode:Raise This Barn (Remix)
Artist:Sim Gretina
ArtistUnicode:Sim Gretina
Creator:power007
Version:Hard
Source:My Little Pony: Friendship is Magic
Tags:ASHLEIGH BALL twilight rainbow dash applejack rarity pinkie pie fluttershy
BeatmapID:204172
BeatmapSetID:71171

[Difficulty]
HPDrainRate:6
CircleSize:4
OverallDifficulty:6
ApproachRate:7
SliderMultiplier:1.8
SliderTickRate:2

[Events]
//Background and Video events
0,0,"applejack_pixels_by_shelltoontv.jpg",0,0
//Break Periods
2,59306,65591
2,110999,124668
//Storyboard Layer 0 (Background)
//Storyboard Layer 1 (Fail)
//Storyboard Layer 2 (Pass)
//Storyboard Layer 3 (Foreground)
//Storyboard Sound Samples
//Background Colour Transformations
3,100,163,162,255

[TimingPoints]
30,461.538461538462,4,2,1,35,1,0
7414,-100,4,2,0,40,0,0
14799,-100,4,2,0,45,0,0
29568,-100,4,2,0,60,0,1
36953,-100,4,2,0,60,0,0
44337,-100,4,2,0,60,0,1
57260,-100,4,2,0,60,0,0
73876,-100,4,2,1,60,0,0
81260,-100,4,2,0,60,0,1
88645,-100,4,2,1,60,0,0
89568,-100,4,2,0,60,0,0
96030,-100,4,2,0,60,0,1
108953,-100,4,2,1,60,0,0
110799,-133.333333333333,4,2,0,60,0,0
125568,-100,4,2,0,60,0,0
140337,-100,4,2,0,60,0,1
147722,-100,4,2,0,60,0,0
155106,-100,4,2,0,60,0,1
166183,-100,4,2,0,60,0,0
169876,-100,4,2,0,60,0,1
180953,-100,4,2,0,60,0,0
190183,-100,4,2,0,30,0,0

[Colours]
Combo1 : 158,238,87
Combo2 : 254,136,65
Combo3 : 112,16,16
Combo4 : 128,0,83
Combo5 : 206,88,209
Combo6 : 255,45,50

[HitObjects]
128,192,30,1,2,0:0:0:0:
256,256,491,1,2,0:0:0:0:
368,160,953,1,2,0:0:0:0:
488,240,1414,1,2,0:0:0:0:
376,328,1876,1,2,0:0:0:0:
256,256,2337,1,2,0:0:0:0:
128,320,2799,1,2,0:0:0:0:
212,160,3260,6,0,P|164:168|108:160,1,90,2|0,0:0|0:0,0:0:0:0:
168,88,3721,2,0,P|216:84|268:92,1,90,2|0,0:0|0:0,0:0:0:0:
284,176,4183,2,0,P|328:188|380:172,1,90,2|0,0:0|0:0,0:0:0:0:
444,228,4645,2,0,P|460:184|448:136,1,90,2|0,0:0|0:0,0:0:0:0:
488,60,5106,2,0,P|444:48|392:72,1,90,2|0,0:0|0:0,0:0:0:0:
312,48,5568,2,0,P|316:100|300:144,1,90,2|0,0:0|0:0,0:0:0:0:
220,172,6030,2,0,P|180:184|124:160,1,90,2|0,0:0|0:0,0:0:0:0:
168,92,6491,2,0,P|128:80|72:104,1,90,2|0,0:0|0:0,0:0:0:0:
136,168,6953,1,2,0:0:0:0:
256,164,7414,5,2,0:0:0:0:
188,136,7645,1,0,0:0:0:0:
156,72,7876,1,0,0:0:0:0:
256,164,8337,1,2,0:0:0:0:
324,136,8568,1,0,0:0:0:0:
356,72,8799,1,0,0:0:0:0:
156,72,9260,6,0,P|104:64|56:72,1,90,2|0,0:0|0:0,0:0:0:0:
112,148,9722,2,0,P|152:160|212:148,1,90,2|0,0:0|0:0,0:0:0:0:
276,104,10183,1,2,0:0:0:0:
112,148,10645,1,2,0:0:0:0:
36,260,11106,5,2,0:0:0:0:
80,316,11337,1,0,0:0:0:0:
152,332,11568,1,2,0:0:0:0:
224,324,11799,1,0,0:0:0:0:
280,280,12030,1,2,0:0:0:0:
296,208,12260,1,0,0:0:0:0:
284,136,12491,1,2,0:0:0:0:
284,136,12953,5,2,0:0:0:0:
280,280,13414,1,2,0:0:0:0:
152,332,13876,1,2,0:0:0:0:
36,260,14337,1,2,0:0:0:0:
172,212,14799,5,4,0:0:0:0:
236,176,15030,1,0,0:0:0:0:
308,184,15260,1,8,0:0:0:0:
404,76,15722,2,0,P|412:128|448:164,1,90
496,196,16183,1,8,0:0:0:0:
396,300,16645,5,4,0:0:0:0:
384,308,16760,1,0,0:0:0:0:
372,316,16876,1,0,0:0:0:0:
304,340,17106,2,0,P|256:332|208:344,1,90,8|0,0:0|0:0,0:0:0:0:
164,292,17568,1,0,0:0:0:0:
96,316,17799,1,0,0:0:0:0:
28,288,18030,1,8,0:0:0:0:
48,108,18491,6,0,L|32:52,2,45,4|0|0,0:0|0:0|0:0,0:0:0:0:
104,180,18953,1,8,0:0:0:0:
24,228,19183,2,0,L|8:272,2,45,0|0|0,0:0|0:0|0:0,0:0:0:0:
104,180,19645,1,0,0:0:0:0:
48,108,19876,2,0,P|28:72|28:8,1,90,8|0,0:0|0:0,0:0:0:0:
124,64,20337,5,4,0:0:0:0:
136,64,20453,1,0,0:0:0:0:
148,64,20568,1,0,0:0:0:0:
224,116,20799,2,0,P|272:128|320:116,1,90,8|0,0:0|0:0,0:0:0:0:
292,32,21260,2,0,P|340:24|384:44,1,90
448,92,21722,1,8,0:0:0:0:
208,192,22183,5,8,0:0:0:0:
304,192,22645,1,8,0:0:0:0:
128,192,23106,1,8,0:0:0:0:
384,192,23568,1,8,0:0:0:0:
64,248,24030,1,8,0:0:0:0:
448,248,24491,1,8,0:0:0:0:
124,316,24953,1,8,0:0:0:0:
388,316,25414,1,8,0:0:0:0:
256,192,25876,1,8,0:0:0:0:
256,192,26106,12,4,27722,0:0:0:0:
404,160,29568,6,0,P|416:116|412:64,2,90,2|0|8,0:0|0:0|0:0,0:0:0:0:
327,208,30260,1,0,0:0:0:0:
247,232,30491,2,0,P|195:228|159:204,2,90,2|0|8,0:0|0:0|0:0,0:0:0:0:
100,276,31414,5,2,0:0:0:0:
180,324,31645,1,0,0:0:0:0:
256,276,31876,1,8,0:0:0:0:
332,324,32106,1,0,0:0:0:0:
180,324,32337,5,2,0:0:0:0:
256,276,32568,1,2,0:0:0:0:
332,324,32799,1,8,0:0:0:0:
432,60,33260,5,2,0:0:0:0:
340,88,33491,1,2,0:0:0:0:
252,60,33722,1,8,0:0:0:0:
160,92,33953,1,0,0:0:0:0:
72,84,34183,2,0,P|24:64|4:28,2,90,2|0|8,0:0|0:0|0:0,0:0:0:0:
252,108,35106,6,0,P|256:156|288:200,1,90,2|2,0:0|0:0,0:0:0:0:
368,180,35568,2,0,P|360:232|328:272,1,90,8|8,0:0|0:0,0:0:0:0:
416,320,36030,2,0,L|508:320,1,90,2|2,0:0|0:0,0:0:0:0:
512,216,36491,2,0,L|420:216,1,90,12|0,0:0|0:0,0:0:0:0:
340,260,36953,5,2,0:0:0:0:
252,272,37184,1,2,0:0:0:0:
168,244,37414,1,2,0:0:0:0:
168,244,37876,2,0,P|168:192|152:148,1,90,4|0,0:0|0:0,0:0:0:0:
332,240,38337,2,0,P|332:188|348:144,1,90,4|0,0:0|0:0,0:0:0:0:
384,72,38799,5,2,0:0:0:0:
384,72,38914,1,0,0:0:0:0:
384,72,39030,1,0,0:0:0:0:
296,72,39260,2,0,P|252:80|208:72,1,90,8|0,0:0|0:0,0:0:0:0:
128,28,39722,1,2,0:0:0:0:
40,44,39953,1,0,0:0:0:0:
20,132,40183,1,8,0:0:0:0:
60,308,40645,5,2,0:0:0:0:
60,308,40760,1,0,0:0:0:0:
60,308,40876,1,0,0:0:0:0:
144,272,41106,1,8,0:0:0:0:
156,184,41337,1,0,0:0:0:0:
156,184,41453,1,0,0:0:0:0:
156,184,41568,2,0,L|156:88,1,90,2|0,0:0|0:0,0:0:0:0:
40,44,42030,2,0,L|40:136,1,90,8|0,0:0|0:0,0:0:0:0:
64,220,42491,6,0,L|16:220,2,45,2|0|0,0:0|0:0|0:0,0:0:0:0:
156,184,42953,2,0,P|200:192|264:180,1,90,8|0,0:0|0:0,0:0:0:0:
312,128,43414,1,2,0:0:0:0:
392,84,43645,1,2,0:0:0:0:
468,132,43876,1,2,0:0:0:0:
156,264,44337,6,0,P|208:252|236:216,1,90,6|8,0:0|0:0,0:0:0:0:
80,222,44799,2,0,P|104:196|156:184,1,90,8|0,0:0|0:0,0:0:0:0:
48,136,45260,2,0,P|68:96|64:52,1,90,2|8,0:0|0:0,0:0:0:0:
156,264,45722,2,0,P|136:304|140:348,1,90,8|0,0:0|0:0,0:0:0:0:
284,296,46183,5,4,0:0:0:0:
336,160,46645,1,4,0:0:0:0:
196,188,47106,1,4,0:0:0:0:
284,296,47568,1,4,0:0:0:0:
288,140,48030,6,0,P|296:92|284:40,1,90,2|8,0:0|0:0,0:0:0:0:
356,176,48491,2,0,P|396:144|412:104,1,90,8|0,0:0|0:0,0:0:0:0:
376,256,48953,2,0,P|424:256|468:240,1,90,2|8,0:0|0:0,0:0:0:0:
340,320,49414,2,0,P|376:340|432:348,1,90,8|0,0:0|0:0,0:0:0:0:
340,320,49876,5,4,0:0:0:0:
428,208,50337,1,4,0:0:0:0:
316,124,50799,1,4,0:0:0:0:
232,240,51260,1,4,0:0:0:0:
432,332,51722,5,4,0:0:0:0:
432,332,51837,1,0,0:0:0:0:
432,332,51953,1,0,0:0:0:0:
464,244,52183,2,0,P|424:232|376:248,1,90,2|0,0:0|0:0,0:0:0:0:
288,248,52645,1,2,0:0:0:0:
288,248,52760,1,0,0:0:0:0:
288,248,52876,1,0,0:0:0:0:
288,140,53106,2,0,P|240:148|188:132,1,90,2|0,0:0|0:0,0:0:0:0:
116,84,53568,5,4,0:0:0:0:
64,156,53799,1,0,0:0:0:0:
104,236,54030,1,2,0:0:0:0:
52,304,54260,1,0,0:0:0:0:
104,304,54491,1,4,0:0:0:0:
164,308,54722,1,0,0:0:0:0:
212,232,54953,2,0,P|244:268|256:328,1,90,0|0,0:0|0:0,0:0:0:0:
344,300,55414,6,0,L|368:337,2,45,4|0|0,0:0|0:0|0:0,0:0:0:0:
400,228,55876,1,2,0:0:0:0:
412,139,56106,2,0,L|416:95,2,45,0|0|4,0:0|0:0|0:0,0:0:0:0:
312,188,56568,1,0,0:0:0:0:
258,115,56799,2,0,P|232:149|222:199,1,90,2|0,0:0|0:0,0:0:0:0:
272,272,57260,5,4,0:0:0:0:
209,336,57491,1,2,0:0:0:0:
118,332,57722,1,2,0:0:0:0:
67,258,57953,1,2,0:0:0:0:
92,171,58183,1,2,0:0:0:0:
176,137,58414,1,2,0:0:0:0:
252,188,58645,1,2,0:0:0:0:
212,336,59106,5,4,0:0:0:0:
68,168,66491,5,4,0:0:0:0:
100,252,66722,1,0,0:0:0:0:
100,252,66953,1,8,0:0:0:0:
160,188,67183,2,0,P|168:136|164:92,1,90,0|0,0:0|0:0,0:0:0:0:
112,24,67645,1,0,0:0:0:0:
204,28,67876,2,0,P|248:36|304:24,1,90,8|0,0:0|0:0,0:0:0:0:
360,88,68337,6,0,P|368:140|408:172,1,90,4|0,0:0|0:0,0:0:0:0:
328,228,68799,2,0,P|368:256|408:256,1,90,8|0,0:0|0:0,0:0:0:0:
492,292,69260,2,0,P|496:240|476:200,1,90
392,164,69722,1,8,0:0:0:0:
224,96,70183,6,0,L|248:40,2,45,4|0|0,0:0|0:0|0:0,0:0:0:0:
148,144,70645,1,8,0:0:0:0:
72,92,70876,1,0,0:0:0:0:
72,92,70991,1,0,0:0:0:0:
72,92,71106,2,0,P|56:144|64:184,1,90,0|0,0:0|0:0,0:0:0:0:
120,248,71568,2,0,P|132:304|120:352,1,90,8|0,0:0|0:0,0:0:0:0:
216,356,72030,5,4,0:0:0:0:
216,356,72145,1,0,0:0:0:0:
216,356,72260,1,0,0:0:0:0:
288,304,72491,2,0,P|340:316|380:304,1,90,8|0,0:0|0:0,0:0:0:0:
336,224,72953,2,0,P|284:212|244:224,1,90,0|0,0:0|0:0,0:0:0:0:
168,260,73414,2,0,P|164:216|172:168,1,90,8|0,0:0|0:0,0:0:0:0:
88,136,73876,6,0,P|40:140|0:120,2,90,2|0|0,0:0|0:0|0:0,0:0:0:0:
260,80,74799,2,0,P|308:84|348:64,2,90,2|0|0,0:0|0:0|0:0,0:0:0:0:
128,204,75722,5,10,0:0:0:0:
264,324,76183,1,2,0:0:0:0:
296,148,76645,1,10,0:0:0:0:
440,256,77106,1,2,0:0:0:0:
256,192,77568,12,4,79414,0:0:0:0:
256,192,80337,5,2,0:0:0:0:
256,192,80568,1,2,0:0:0:0:
364,196,80799,2,0,L|416:196,2,45
256,192,81260,6,0,P|212:188|176:152,1,90,4|0,0:0|0:0,0:0:0:0:
136,76,81722,1,2,0:0:0:0:
56,236,82183,2,0,P|52:284|72:336,1,90,2|0,0:0|0:0,0:0:0:0:
148,360,82645,1,2,0:0:0:0:
300,272,83106,6,0,P|352:284|396:276,1,90,4|0,0:0|0:0,0:0:0:0:
464,228,83568,2,0,P|472:180|460:136,1,90,2|0,0:0|0:0,0:0:0:0:
408,68,84030,2,0,P|356:56|312:64,1,90,4|0,0:0|0:0,0:0:0:0:
248,116,84491,2,0,P|240:164|252:208,1,90,2|0,0:0|0:0,0:0:0:0:
300,272,84953,5,4,0:0:0:0:
228,316,85183,1,0,0:0:0:0:
144,284,85414,1,2,0:0:0:0:
116,200,85645,1,0,0:0:0:0:
148,112,85876,2,0,P|168:68|204:40,1,90,6|0,0:0|0:0,0:0:0:0:
236,120,86337,2,0,P|284:128|324:120,1,90,2|0,0:0|0:0,0:0:0:0:
348,208,86799,6,0,L|256:208,1,90,4|0,0:0|0:0,0:0:0:0:
348,208,87260,2,0,L|444:208,1,90,4|0,0:0|0:0,0:0:0:0:
276,320,87722,1,4,0:0:0:0:
492,328,88183,1,4,0:0:0:0:
392,208,88645,5,2,0:0:0:0:
392,100,88876,1,2,0:0:0:0:
300,44,89106,1,2,0:0:0:0:
88,80,89568,6,0,P|144:76|172:52,1,90,2|0,0:0|0:0,0:0:0:0:
300,44,90030,2,0,P|328:84|376:96,1,90,2|0,0:0|0:0,0:0:0:0:
432,180,90491,5,4,0:0:0:0:
432,180,90606,1,0,0:0:0:0:
432,180,90722,1,0,0:0:0:0:
396,284,90953,2,0,P|456:292|496:264,1,90,2|0,0:0|0:0,0:0:0:0:
432,180,91414,2,0,P|436:136|408:80,2,90,2|0|2,0:0|0:0|0:0,0:0:0:0:
396,284,92337,5,4,0:0:0:0:
396,284,92453,1,0,0:0:0:0:
396,284,92568,1,0,0:0:0:0:
300,336,92799,1,2,0:0:0:0:
196,304,93030,2,0,L|136:280,2,45,0|0|2,0:0|0:0|0:0,0:0:0:0:
300,336,93491,1,0,0:0:0:0:
396,284,93722,1,2,0:0:0:0:
312,84,94183,6,0,L|320:28,2,45,4|0|0,0:0|0:0|0:0,0:0:0:0:
220,140,94645,2,0,P|204:188|168:232,1,90,2|0,0:0|0:0,0:0:0:0:
156,312,95106,2,0,P|100:320|64:304,2,90,2|0|2,0:0|0:0|0:0,0:0:0:0:
324,232,96030,5,8,0:0:0:0:
324,232,96260,1,0,0:0:0:0:
324,232,96491,1,2,0:0:0:0:
188,152,96953,5,8,0:0:0:0:
188,152,97183,1,0,0:0:0:0:
188,152,97414,1,2,0:0:0:0:
324,232,97876,6,0,P|308:280|312:320,1,90,4|0,0:0|0:0,0:0:0:0:
324,228,98337,2,0,P|340:180|336:140,1,90,4|0,0:0|0:0,0:0:0:0:
252,172,98799,2,0,P|204:160|180:128,1,90,4|0,0:0|0:0,0:0:0:0:
172,40,99260,2,0,P|124:52|100:84,1,90,4|0,0:0|0:0,0:0:0:0:
140,164,99722,5,8,0:0:0:0:
200,228,99953,1,0,0:0:0:0:
132,288,100183,1,2,0:0:0:0:
196,352,100414,1,0,0:0:0:0:
108,328,100645,2,0,P|96:280|103:240,1,90,8|0,0:0|0:0,0:0:0:0:
192,260,101106,2,0,P|204:212|192:164,1,90,2|0,0:0|0:0,0:0:0:0:
284,160,101568,5,8,0:0:0:0:
128,68,102030,1,2,0:0:0:0:
284,160,102491,1,8,0:0:0:0:
264,44,102953,1,2,0:0:0:0:
148,72,103414,5,8,0:0:0:0:
148,72,103530,1,0,0:0:0:0:
148,72,103645,1,0,0:0:0:0:
60,52,103876,2,0,L|80:140,1,90,2|0,0:0|0:0,0:0:0:0:
132,204,104337,1,8,0:0:0:0:
132,204,104453,1,0,0:0:0:0:
132,204,104568,1,0,0:0:0:0:
224,204,104799,2,0,P|216:248|184:284,1,90,2|0,0:0|0:0,0:0:0:0:
100,296,105260,6,0,P|52:296|8:320,1,90,8|0,0:0|0:0,0:0:0:0:
40,228,105722,2,0,P|36:176|52:128,1,90,2|0,0:0|0:0,0:0:0:0:
132,204,106183,2,0,P|180:212|212:248,1,90,8|0,0:0|0:0,0:0:0:0:
260,312,106645,2,0,L|356:312,1,90,2|0,0:0|0:0,0:0:0:0:
432,276,107106,6,0,L|452:224,2,45,8|0|0,0:0|0:0|0:0,0:0:0:0:
352,312,107568,1,2,0:0:0:0:
336,232,107799,1,0,0:0:0:0:
336,232,107914,1,0,0:0:0:0:
336,232,108030,2,0,P|344:180|368:152,1,90,8|0,0:0|0:0,0:0:0:0:
456,176,108491,2,0,P|452:128|436:88,1,90,2|0,0:0|0:0,0:0:0:0:
368,152,108953,5,2,0:0:0:0:
312,84,109183,1,2,0:0:0:0:
220,80,109414,1,2,0:0:0:0:
152,136,109645,1,2,0:0:0:0:
152,228,109876,1,2,0:0:0:0:
220,288,110106,1,2,0:0:0:0:
312,292,110337,1,2,0:0:0:0:
440,192,110799,5,2,0:0:0:0:
48,220,125568,5,2,0:0:0:0:
36,120,125799,1,0,0:0:0:0:
116,48,126030,2,0,L|208:28,1,90,2|0,0:0|0:0,0:0:0:0:
284,112,126491,1,2,0:0:0:0:
180,136,126722,1,0,0:0:0:0:
148,240,126953,2,0,L|167:327,1,90,2|0,0:0|0:0,0:0:0:0:
320,216,127414,5,8,0:0:0:0:
180,136,127876,1,8,0:0:0:0:
328,36,128337,1,8,0:0:0:0:
320,216,128799,1,8,0:0:0:0:
456,96,129260,6,0,P|464:56|456:4,1,90,2|0,0:0|0:0,0:0:0:0:
376,48,129722,2,0,L|280:84,1,90,2|0,0:0|0:0,0:0:0:0:
364,132,130183,2,0,L|268:168,1,90,2|0,0:0|0:0,0:0:0:0:
416,192,130645,2,0,L|516:192,1,90,2|0,0:0|0:0,0:0:0:0:
416,192,131106,5,4,0:0:0:0:
256,48,131568,1,4,0:0:0:0:
96,192,132030,1,4,0:0:0:0:
256,336,132491,1,4,0:0:0:0:
284,112,132953,6,0,P|256:152|208:164,1,90,2|0,0:0|0:0,0:0:0:0:
140,212,133414,2,0,P|172:240|224:248,1,90,8|0,0:0|0:0,0:0:0:0:
304,272,133876,2,0,P|276:316|220:336,1,90,2|0,0:0|0:0,0:0:0:0:
152,328,134337,1,8,0:0:0:0:
76,88,134799,5,2,0:0:0:0:
180,120,135030,1,0,0:0:0:0:
268,60,135260,1,8,0:0:0:0:
76,88,135722,2,0,L|80:188,1,90,2|0,0:0|0:0,0:0:0:0:
180,120,136183,2,0,L|212:212,1,90,8|0,0:0|0:0,0:0:0:0:
392,88,136645,6,0,L|380:32,2,45,2|0|0,0:0|0:0|0:0,0:0:0:0:
464,168,137106,1,8,0:0:0:0:
444,272,137337,1,0,0:0:0:0:
444,272,137453,1,0,0:0:0:0:
444,272,137568,2,0,P|416:304|364:312,1,90,2|0,0:0|0:0,0:0:0:0:
264,308,138030,2,0,P|216:296|168:312,1,90,8|0,0:0|0:0,0:0:0:0:
68,308,138491,5,2,0:0:0:0:
68,308,138606,1,0,0:0:0:0:
68,308,138722,1,0,0:0:0:0:
52,200,138953,2,0,P|56:152|48:104,1,90,8|0,0:0|0:0,0:0:0:0:
52,200,139414,1,2,0:0:0:0:
64,308,139645,1,0,0:0:0:0:
148,344,139876,2,0,P|152:296|144:252,1,90,8|0,0:0|0:0,0:0:0:0:
228,224,140337,5,8,0:0:0:0:
316,220,140568,1,0,0:0:0:0:
392,172,140799,1,8,0:0:0:0:
184,144,141260,2,0,L|80:144,1,90,8|0,0:0|0:0,0:0:0:0:
128,60,141722,2,0,L|228:60,1,90,8|0,0:0|0:0,0:0:0:0:
304,84,142183,6,0,P|332:128|340:168,1,90,8|0,0:0|0:0,0:0:0:0:
384,244,142645,2,0,P|340:252|292:244,1,90,8|0,0:0|0:0,0:0:0:0:
220,296,143106,2,0,P|204:256|212:204,1,90,8|0,0:0|0:0,0:0:0:0:
260,136,143568,2,0,P|216:124|156:132,1,90,8|0,0:0|0:0,0:0:0:0:
260,136,144030,5,2,0:0:0:0:
308,232,144260,1,0,0:0:0:0:
260,328,144491,1,8,0:0:0:0:
152,340,144722,1,0,0:0:0:0:
68,268,144953,2,0,P|64:220|76:172,2,90,2|0|8,0:0|0:0|0:0,0:0:0:0:
68,56,145876,5,4,0:0:0:0:
208,216,146337,1,4,0:0:0:0:
32,344,146799,1,4,0:0:0:0:
208,216,147260,1,4,0:0:0:0:
96,308,147722,5,2,0:0:0:0:
124,224,147953,1,2,0:0:0:0:
92,140,148183,1,2,0:0:0:0:
208,304,148645,2,0,P|256:312|304:300,1,90,2|0,0:0|0:0,0:0:0:0:
348,196,149106,2,0,P|300:188|256:200,1,90,2|0,0:0|0:0,0:0:0:0:
112,108,149568,6,0,L|64:68,2,45,2|0|0,0:0|0:0|0:0,0:0:0:0:
132,216,150030,1,2,0:0:0:0:
348,196,150491,2,0,P|336:248|344:300,1,90,2|0,0:0|0:0,0:0:0:0:
436,236,150953,2,0,P|448:184|440:132,1,90,2|0,0:0|0:0,0:0:0:0:
324,116,151414,5,2,0:0:0:0:
324,104,151530,1,0,0:0:0:0:
324,92,151645,1,0,0:0:0:0:
244,52,151876,1,8,0:0:0:0:
156,60,152106,1,2,0:0:0:0:
156,76,152222,1,0,0:0:0:0:
156,92,152337,1,2,0:0:0:0:
80,136,152568,1,0,0:0:0:0:
28,208,152799,2,0,P|68:224|116:212,1,90,8|0,0:0|0:0,0:0:0:0:
204,208,153260,6,0,L|224:152,2,45,2|2|2,0:0|0:0|0:0,0:0:0:0:
228,296,153722,1,8,0:0:0:0:
312,328,153953,1,0,0:0:0:0:
400,308,154183,1,2,0:0:0:0:
432,224,154414,1,0,0:0:0:0:
408,136,154645,1,8,0:0:0:0:
432,224,155106,6,0,P|436:272|460:312,1,90,4|0,0:0|0:0,0:0:0:0:
368,296,155568,2,0,P|324:308|276:292,1,90,2|0,0:0|0:0,0:0:0:0:
256,208,156030,2,0,P|300:220|352:212,1,90,2|0,0:0|0:0,0:0:0:0:
300,136,156491,1,2,0:0:0:0:
148,232,156953,5,4,0:0:0:0:
96,60,157414,1,2,0:0:0:0:
268,116,157876,1,2,0:0:0:0:
96,168,158337,1,2,0:0:0:0:
268,204,158799,6,0,P|276:164|268:112,2,90,4|0|2,0:0|0:0|0:0,0:0:0:0:
268,208,159491,1,0,0:0:0:0:
192,156,159722,2,0,P|184:212|192:252,2,90,2|0|2,0:0|0:0|0:0,0:0:0:0:
80,296,160645,6,0,L|44:204,1,90,4|0,0:0|0:0,0:0:0:0:
136,208,161106,2,0,L|100:116,1,90,2|0,0:0|0:0,0:0:0:0:
16,100,161568,2,0,L|48:192,1,90,2|0,0:0|0:0,0:0:0:0:
104,124,162030,2,0,L|188:92,1,90,2|0,0:0|0:0,0:0:0:0:
252,152,162491,6,0,L|300:152,2,45,4|0|0,0:0|0:0|0:0,0:0:0:0:
172,196,162953,1,8,0:0:0:0:
296,324,163414,2,0,L|252:324,2,45,2|0|0,0:0|0:0|0:0,0:0:0:0:
376,284,163876,1,8,0:0:0:0:
296,324,164337,6,0,P|288:284|300:232,1,90,4|0,0:0|0:0,0:0:0:0:
212,204,164799,2,0,P|228:156|264:128,1,90,8|0,0:0|0:0,0:0:0:0:
324,192,165260,2,0,P|368:176|416:180,1,90,0|0,0:0|0:0,0:0:0:0:
412,268,165722,2,0,P|452:296|472:340,1,90,8|0,0:0|0:0,0:0:0:0:
384,352,166183,5,4,0:0:0:0:
384,352,166299,1,0,0:0:0:0:
384,352,166414,2,0,P|340:368|280:344,1,90,0|0,0:0|0:0,0:0:0:0:
208,344,166876,1,0,0:0:0:0:
208,344,166991,1,0,0:0:0:0:
208,344,167106,2,0,P|224:296|260:272,1,90,0|0,0:0|0:0,0:0:0:0:
292,192,167568,2,0,P|248:200|204:192,1,90,0|0,0:0|0:0,0:0:0:0:
128,140,168030,6,0,P|116:192|128:232,1,90,4|0,0:0|0:0,0:0:0:0:
88,72,168491,2,0,P|132:64|174:77,1,90,0|0,0:0|0:0,0:0:0:0:
172,288,168953,2,0,P|128:296|84:284,1,90,0|0,0:0|0:0,0:0:0:0:
28,224,169414,2,0,P|8:268|8:320,1,90,0|0,0:0|0:0,0:0:0:0:
172,288,169876,5,8,0:0:0:0:
232,228,170106,1,0,0:0:0:0:
160,176,170337,1,2,0:0:0:0:
292,168,170568,1,2,0:0:0:0:
148,184,170799,1,8,0:0:0:0:
268,168,171030,1,0,0:0:0:0:
196,116,171261,1,0,0:0:0:0:
160,176,171722,6,0,P|108:164|84:132,1,90,8|0,0:0|0:0,0:0:0:0:
228,96,172183,2,0,P|260:56|296:44,1,90,2|0,0:0|0:0,0:0:0:0:
292,272,172645,2,0,P|372:292|424:216,1,180,8|2,0:0|0:0,0:0:0:0:
384,60,173568,5,8,0:0:0:0:
404,148,173799,1,0,0:0:0:0:
368,232,174030,1,2,0:0:0:0:
292,272,174260,1,0,0:0:0:0:
232,340,174491,2,0,P|180:348|144:340,1,90,8|0,0:0|0:0,0:0:0:0:
368,232,174953,2,0,P|420:224|456:232,1,90,2|0,0:0|0:0,0:0:0:0:
288,224,175414,5,8,0:0:0:0:
240,52,175876,1,0,0:0:0:0:
120,64,176337,2,0,P|136:140|232:168,1,180,8|0,0:0|0:0,0:0:0:0:
64,312,177260,5,2,0:0:0:0:
96,228,177491,1,2,0:0:0:0:
180,196,177722,1,2,0:0:0:0:
268,208,177953,1,2,0:0:0:0:
348,252,178183,2,0,P|344:304|348:352,2,90,2|2|2,0:0|0:0|0:0,0:0:0:0:
228,164,179106,6,0,P|276:172|328:160,1,90,8|0,0:0|0:0,0:0:0:0:
228,164,179568,2,0,P|180:152|128:164,1,90,2|0,0:0|0:0,0:0:0:0:
276,88,180030,2,0,P|324:80|376:92,1,90,8|0,0:0|0:0,0:0:0:0:
184,232,180491,2,0,P|136:240|80:224,1,90,2|0,0:0|0:0,0:0:0:0:
140,160,180953,6,0,P|132:112|144:64,2,90,2|0|2,0:0|0:0|0:0,0:0:0:0:
220,120,181645,2,0,P|256:140|316:136,1,90,0|2,0:0|0:0,0:0:0:0:
392,116,182106,1,0,0:0:0:0:
452,184,182337,2,0,P|308:272|148:176,1,360,2|2,0:0|0:0,0:0:0:0:
384,332,183722,6,0,P|296:352|212:328,1,180,2|0,0:0|0:0,0:0:0:0:
148,264,184414,1,2,0:0:0:0:
216,204,184645,2,0,P|296:236|388:208,1,180,2|2,0:0|0:0,0:0:0:0:
456,48,185568,2,0,P|488:132|452:212,1,180,2|2,0:0|0:0,0:0:0:0:
400,284,186260,2,0,P|368:200|404:120,1,180,2|2,0:0|0:0,0:0:0:0:
256,192,186953,12,12,190183,0:0:0:0:
