osu file format v13

[General]
AudioFilename: Hearts Strong As Horses (Sim Gretina Remix).mp3
AudioLeadIn: 0
PreviewTime: 73572
Countdown: 1
SampleSet: Normal
StackLeniency: 0.7
Mode: 0
LetterboxInBreaks: 1
WidescreenStoryboard: 0

[Editor]
Bookmarks: 53981,73578,103457,120029
DistanceSpacing: 0.9
BeatDivisor: 4
GridSize: 4
TimelineZoom: 1

[Metadata]
Title:Hearts Strong As Horses (Remix)
TitleUnicode:Hearts Strong As Horses (Remix)
Artist:Sim Gretina
ArtistUnicode:Sim Gretina
Creator:ztrot
Version:Insane
Source:My Little Pony: Friendship Is Magic
Tags:ColdTooth mlp
BeatmapID:396168
BeatmapSetID:162397

[Difficulty]
HPDrainRate:7
CircleSize:4
OverallDifficulty:7
ApproachRate:8.5
SliderMultiplier:2.44
SliderTickRate:2

[Events]
//Background and Video events
0,0,"run_cmc___wallpaper_version_by_dori_to-d4vwhlg.jpg",0,0
//Break Periods
//Storyboard Layer 0 (Background)
//Storyboard Layer 1 (Fail)
//Storyboard Layer 2 (Pass)
//Storyboard Layer 3 (Foreground)
//Storyboard Sound Samples
//Background Colour Transformations
3,100,163,162,255

[TimingPoints]
24,483.870967741935,4,1,1,70,1,0
56999,-200,4,1,1,70,0,0
58088,-100,4,1,1,70,0,0
174217,-100,4,1,1,5,0,0

[Colours]
Combo1 : 255,85,255
Combo2 : 221,221,0
Combo3 : 120,120,188
Combo4 : 203,154,88

[HitObjects]
376,340,3894,5,4,0:0:0:0:
484,256,4136,1,2,0:0:0:0:
336,216,4378,2,0,P|288:256|220:240,1,122,8|0,0:0|0:0,0:0:0:0:
336,124,4862,2,0,P|392:136|424:192,1,122
423,188,5225,1,0,0:0:0:0:
256,40,5467,5,0,0:0:0:0:
224,84,5588,1,2,0:0:0:0:
172,108,5709,1,0,0:0:0:0:
116,116,5830,1,0,0:0:0:0:
240,212,6072,1,2,0:0:0:0:
240,212,6193,1,0,0:0:0:0:
128,292,6435,1,0,0:0:0:0:
284,348,6677,1,0,0:0:0:0:
476,196,7040,2,0,P|472:256|419:284,2,122,2|8|0,0:0|0:0|0:0,0:0:0:0:
392,60,7765,5,0,0:0:0:0:
376,196,8007,1,2,0:0:0:0:
268,120,8249,2,0,P|224:168|244:232,1,122,8|2,0:0|0:0,0:0:0:0:
80,120,8733,2,0,P|124:172|76:248,1,122,0|2,0:0|0:0,0:0:0:0:
113,220,9096,1,0,0:0:0:0:
336,340,9338,5,0,0:0:0:0:
284,360,9459,1,2,0:0:0:0:
228,360,9580,1,0,0:0:0:0:
176,340,9701,1,0,0:0:0:0:
340,256,9943,2,0,P|400:284|420:348,1,122,2|8,0:0|0:0,0:0:0:0:
172,256,10427,2,0,P|112:284|92:348,1,122,2|0,0:0|0:0,0:0:0:0:
256,284,10911,2,0,L|256:160,1,122,2|8,0:0|0:0,0:0:0:0:
384,48,11636,5,4,0:0:0:0:
336,120,11878,1,2,0:0:0:0:
128,48,12120,1,8,0:0:0:0:
176,120,12362,1,2,0:0:0:0:
256,32,12604,2,0,L|256:168,1,122
256,154,12967,1,0,0:0:0:0:
72,204,13209,5,0,0:0:0:0:
80,260,13330,1,2,0:0:0:0:
120,300,13451,1,0,0:0:0:0:
172,320,13572,1,0,0:0:0:0:
328,264,13814,2,0,L|260:264,1,61,2|0,0:0|0:0,0:0:0:0:
392,180,14177,1,0,0:0:0:0:
436,280,14419,1,0,0:0:0:0:
320,72,14781,1,2,0:0:0:0:
403,55,15023,2,0,P|433:60|452:84,2,61,8|0|2,0:0|0:0|0:0,0:0:0:0:
192,208,15507,5,0,0:0:0:0:
72,136,15749,1,2,0:0:0:0:
76,264,15991,2,0,P|142:281|148:340,1,122,8|2,0:0|0:0,0:0:0:0:
344,280,16475,2,0,P|388:348|424:340,1,122,0|2,0:0|0:0,0:0:0:0:
417,343,16838,1,0,0:0:0:0:
440,168,17080,1,0,0:0:0:0:
424,116,17201,1,2,0:0:0:0:
384,80,17322,1,0,0:0:0:0:
328,76,17443,1,4,0:0:0:0:
184,308,17927,1,4,0:0:0:0:
256,192,18169,1,0,0:0:0:0:
256,192,18290,1,4,0:0:0:0:
256,192,18411,12,0,19136,0:0:0:0:
76,96,19378,5,0,0:0:0:0:
192,176,19620,1,0,0:0:0:0:
184,192,19741,1,0,0:0:0:0:
176,208,19862,1,8,0:0:0:0:
48,248,20104,1,0,0:0:0:0:
168,332,20346,2,0,P|236:340|272:296,1,122
372,264,20830,1,8,0:0:0:0:
160,72,21314,5,0,0:0:0:0:
256,196,21556,1,0,0:0:0:0:
356,72,21798,1,8,0:0:0:0:
180,198,22040,2,0,P|255:120|331:202,1,244
432,312,22765,1,8,0:0:0:0:
464,164,23007,1,0,0:0:0:0:
80,312,23491,1,0,0:0:0:0:
48,164,23733,1,8,0:0:0:0:
160,72,23975,2,0,P|256:136|352:64,1,244
256,48,24701,1,8,0:0:0:0:
256,252,24943,6,0,L|256:292,4,30.5
168,360,25427,1,0,0:0:0:0:
344,360,25669,1,8,0:0:0:0:
144,248,25911,1,0,0:0:0:0:
368,248,26153,2,0,P|408:264|448:336,1,122
144,248,26636,2,0,P|104:264|64:336,1,122,8|0,0:0|0:0,0:0:0:0:
36,152,27120,5,4,0:0:0:0:
144,44,27362,1,2,0:0:0:0:
176,192,27604,1,8,0:0:0:0:
256,88,27846,1,0,0:0:0:0:
336,192,28088,2,0,P|388:224|384:280,1,122,0|2,0:0|0:0,0:0:0:0:
300,352,28572,1,8,0:0:0:0:
172,272,28814,1,0,0:0:0:0:
404,48,29056,5,0,0:0:0:0:
456,216,29298,1,2,0:0:0:0:
292,176,29540,1,8,0:0:0:0:
480,112,29782,2,0,P|372:136|316:32,1,244,2|2,0:0|0:0,0:0:0:0:
360,232,30507,1,8,0:0:0:0:
256,108,30749,1,2,0:0:0:0:
192,248,30991,1,0,0:0:0:0:
76,152,31233,5,2,0:0:0:0:
88,140,31354,1,0,0:0:0:0:
100,128,31475,1,8,0:0:0:0:
36,268,31717,2,0,P|84:256|144:308,1,122,2|0,0:0|0:0,0:0:0:0:
180,128,32201,2,0,P|216:176|280:180,1,122,2|8,0:0|0:0,0:0:0:0:
372,96,32685,1,0,0:0:0:0:
456,236,32927,2,0,P|384:352|392:216,2,366,0|0|8,0:0|0:0|0:0,0:0:0:0:
440,128,34620,5,0,0:0:0:0:
336,160,34862,1,4,0:0:0:0:
360,64,35104,1,0,0:0:0:0:
416,228,35346,2,0,P|364:260|360:320,1,122
52,88,36314,5,8,0:0:0:0:
112,228,36556,1,0,0:0:0:0:
216,108,36798,1,0,0:0:0:0:
36,188,37040,1,0,0:0:0:0:
196,212,37282,1,8,0:0:0:0:
144,80,37523,2,0,P|236:28|288:136,1,244
416,128,38249,1,8,0:0:0:0:
416,128,38491,1,0,0:0:0:0:
452,232,38733,5,0,0:0:0:0:
376,312,38975,1,0,0:0:0:0:
256,268,39217,1,8,0:0:0:0:
136,312,39459,1,0,0:0:0:0:
60,232,39701,1,0,0:0:0:0:
60,232,39943,1,0,0:0:0:0:
164,96,40185,5,8,0:0:0:0:
200,56,40306,1,0,0:0:0:0:
256,48,40427,1,0,0:0:0:0:
308,60,40548,1,0,0:0:0:0:
344,100,40669,1,0,0:0:0:0:
204,300,40911,2,0,P|252:300|296:238,1,122,0|8,0:0|0:0,0:0:0:0:
227,235,41394,2,0,P|219:171|172:141,1,122
162,210,41878,2,0,P|112:198|61:245,1,122,0|8,0:0|0:0,0:0:0:0:
32,52,42362,5,0,0:0:0:0:
40,64,42483,1,0,0:0:0:0:
48,76,42604,1,4,0:0:0:0:
156,92,42846,1,2,0:0:0:0:
256,44,43088,2,0,P|296:92|368:80,1,122,8|2,0:0|0:0,0:0:0:0:
492,108,43572,2,0,P|468:168|508:224,1,122,0|2,0:0|0:0,0:0:0:0:
493,214,43935,1,0,0:0:0:0:
396,268,44177,6,0,L|332:292,1,61,0|2,0:0|0:0,0:0:0:0:
368,192,44419,2,0,L|444:168,1,61
280,220,44782,1,2,0:0:0:0:
280,220,44903,1,0,0:0:0:0:
220,344,45144,1,0,0:0:0:0:
124,256,45386,1,0,0:0:0:0:
36,56,45749,2,0,P|72:84|60:164,2,122,2|8|2,0:0|0:0|0:0,0:0:0:0:
440,80,46475,5,0,0:0:0:0:
500,200,46717,1,2,0:0:0:0:
376,188,46959,2,0,P|408:224|380:300,1,122,8|2,0:0|0:0,0:0:0:0:
332,120,47443,2,0,P|296:160|304:228,1,122,0|2,0:0|0:0,0:0:0:0:
301,224,47806,1,0,0:0:0:0:
192,344,48048,1,0,0:0:0:0:
136,348,48169,1,2,0:0:0:0:
96,312,48290,1,0,0:0:0:0:
76,260,48411,1,0,0:0:0:0:
188,108,48653,6,0,P|236:108|280:170,1,122,2|8,0:0|0:0,0:0:0:0:
211,173,49136,2,0,P|203:237|156:267,1,122,2|0,0:0|0:0,0:0:0:0:
146,198,49620,2,0,P|96:210|45:163,2,122,2|8|2,0:0|0:0|0:0,0:0:0:0:
84,96,50346,5,4,0:0:0:0:
164,28,50588,1,2,0:0:0:0:
256,76,50830,2,0,L|388:76,1,122,8|2,0:0|0:0,0:0:0:0:
308,220,51314,2,0,P|368:168|420:184,1,122,0|2,0:0|0:0,0:0:0:0:
404,174,51677,1,0,0:0:0:0:
340,332,51919,6,0,L|400:352,1,61,0|2,0:0|0:0,0:0:0:0:
276,284,52161,2,0,L|220:328,1,61
64,328,52523,1,2,0:0:0:0:
64,328,52644,1,0,0:0:0:0:
0,216,52886,1,0,0:0:0:0:
152,240,53128,1,0,0:0:0:0:
304,96,53491,2,0,P|352:132|424:96,2,122,2|8|2,0:0|0:0|0:0,0:0:0:0:
72,76,54217,5,0,0:0:0:0:
196,104,54459,1,2,0:0:0:0:
112,192,54701,2,0,P|132:256|79:300,1,122,8|2,0:0|0:0,0:0:0:0:
216,200,55185,2,0,P|228:256|300:266,1,122,0|2,0:0|0:0,0:0:0:0:
328,236,55548,2,0,P|376:212|444:240,1,122
480,196,55911,1,2,0:0:0:0:
488,140,56032,1,0,0:0:0:0:
452,100,56153,1,4,0:0:0:0:
76,124,56636,1,4,0:0:0:0:
184,48,56878,1,0,0:0:0:0:
184,48,56999,6,0,P|228:100|352:52,1,213.5,4|0,0:0|0:0,0:0:0:0:
380,304,58088,6,0,P|324:348|268:336,1,122,4|0,0:0|0:0,0:0:0:0:
256,332,58451,1,0,0:0:0:0:
236,324,58572,1,8,0:0:0:0:
112,232,58814,1,0,0:0:0:0:
260,176,59056,1,0,0:0:0:0:
220,312,59298,1,0,0:0:0:0:
156,140,59540,1,8,0:0:0:0:
444,220,60023,6,0,P|384:216|360:108,1,183
416,152,60507,2,0,P|424:88|384:44,1,122,8|0,0:0|0:0,0:0:0:0:
76,96,61233,1,0,0:0:0:0:
56,228,61475,1,8,0:0:0:0:
180,168,61717,1,0,0:0:0:0:
0,152,61959,1,0,0:0:0:0:
164,92,62201,1,0,0:0:0:0:
144,256,62443,1,8,0:0:0:0:
288,308,62685,2,0,P|352:280|420:304,2,122
296,160,63411,1,8,0:0:0:0:
424,100,63653,6,0,L|456:140,4,30.5
256,220,64257,1,0,0:0:0:0:
88,96,64620,1,0,0:0:0:0:
328,84,65104,1,0,0:0:0:0:
256,168,65346,1,8,0:0:0:0:
188,84,65588,1,0,0:0:0:0:
72,296,65830,5,4,0:0:0:0:
164,352,66072,2,0,P|228:312|280:328,1,122,2|8,0:0|0:0,0:0:0:0:
168,236,66556,1,2,0:0:0:0:
72,176,66798,1,0,0:0:0:0:
188,120,67040,1,2,0:0:0:0:
172,104,67161,1,0,0:0:0:0:
152,88,67282,1,8,0:0:0:0:
256,212,67523,1,2,0:0:0:0:
440,296,67765,5,0,0:0:0:0:
348,352,68007,2,0,P|284:312|232:328,1,122,2|8,0:0|0:0,0:0:0:0:
344,236,68491,1,2,0:0:0:0:
440,176,68733,1,0,0:0:0:0:
324,120,68975,1,2,0:0:0:0:
340,104,69096,1,0,0:0:0:0:
360,88,69217,1,8,0:0:0:0:
256,212,69459,1,0,0:0:0:0:
152,332,69701,6,0,P|80:316|64:268,1,122,0|2,0:0|0:0,0:0:0:0:
156,216,70185,2,0,P|112:164|128:112,1,122,8|2,0:0|0:0,0:0:0:0:
387,116,70669,6,0,P|397:174|356:216,1,122,0|2,0:0|0:0,0:0:0:0:
448,276,71153,2,0,P|418:327|360:332,1,122,8|2,0:0|0:0,0:0:0:0:
256,280,71636,2,0,B|208:192|316:192|256:112,1,183
240,56,72120,1,8,0:0:0:0:
80,112,72362,1,2,0:0:0:0:
80,344,72846,1,2,0:0:0:0:
80,344,73088,1,8,0:0:0:0:
364,344,73572,5,0,0:0:0:0:
444,268,73814,1,0,0:0:0:0:
336,248,74056,2,0,P|360:172|456:156,2,183
256,128,75023,1,0,0:0:0:0:
148,344,75507,1,0,0:0:0:0:
68,268,75749,1,0,0:0:0:0:
176,248,75991,2,0,P|152:172|56:156,2,183
256,128,76959,1,0,0:0:0:0:
256,128,77201,1,0,0:0:0:0:
256,340,77443,5,0,0:0:0:0:
320,256,77685,1,0,0:0:0:0:
192,256,77927,2,0,P|148:320|100:256,2,183
108,112,78894,1,0,0:0:0:0:
404,112,79378,1,0,0:0:0:0:
452,212,79620,1,0,0:0:0:0:
344,200,79862,2,0,P|352:288|440:336,2,183
256,60,80830,1,0,0:0:0:0:
196,160,81072,1,0,0:0:0:0:
316,160,81314,1,0,0:0:0:0:
176,316,81556,5,0,0:0:0:0:
152,296,81677,1,0,0:0:0:0:
128,276,81798,1,2,0:3:0:0:
256,256,82040,2,0,L|312:216,1,61,0|2,0:0|0:3,0:0:0:0:
72,88,82523,1,0,0:0:0:0:
72,112,82644,1,0,0:0:0:0:
72,136,82765,1,2,0:3:0:0:
168,68,83007,1,0,0:0:0:0:
168,68,83249,1,0,0:0:0:0:
304,56,83491,1,0,0:0:0:0:
324,72,83612,1,0,0:0:0:0:
352,92,83733,1,2,0:3:0:0:
384,232,83975,1,0,0:0:0:0:
360,220,84096,1,2,0:3:0:0:
120,200,84459,5,0,0:0:0:0:
140,184,84580,1,0,0:0:0:0:
160,168,84701,1,2,0:3:0:0:
256,312,84943,1,0,0:0:0:0:
256,312,85185,1,0,0:0:0:0:
412,328,85427,1,0,0:0:0:0:
400,312,85548,1,0,0:0:0:0:
384,296,85669,1,2,0:3:0:0:
440,156,85911,1,0,0:0:0:0:
440,176,86032,1,2,0:3:0:0:
192,40,86394,1,0,0:0:0:0:
216,40,86515,1,0,0:0:0:0:
240,40,86636,1,2,0:3:0:0:
360,120,86878,1,0,0:0:0:0:
256,252,87120,5,0,0:0:0:0:
184,336,87362,2,0,P|120:312|96:264,1,122
328,176,87846,2,0,P|392:200|416:248,1,122
336,336,88330,1,0,0:0:0:0:
184,176,88572,1,0,0:0:0:0:
256,64,88814,5,0,0:0:0:0:
284,68,88935,1,0,0:0:0:0:
312,72,89056,1,4,0:0:0:0:
372,224,89298,1,2,0:0:0:0:
256,340,89540,2,0,P|216:292|144:304,1,122,8|2,0:0|0:0,0:0:0:0:
20,276,90023,2,0,P|44:216|4:160,1,122,0|2,0:0|0:0,0:0:0:0:
17,170,90386,1,0,0:0:0:0:
116,116,90628,6,0,L|160:64,1,61,0|2,0:0|0:0,0:0:0:0:
144,192,90870,2,0,L|96:252,1,61
232,164,91233,1,2,0:0:0:0:
232,164,91354,1,0,0:0:0:0:
292,40,91596,1,0,0:0:0:0:
388,128,91838,1,0,0:0:0:0:
476,328,92201,2,0,P|440:300|452:220,2,122,2|8|2,0:0|0:0|0:0,0:0:0:0:
72,304,92927,5,0,0:0:0:0:
12,184,93169,1,2,0:0:0:0:
136,196,93411,2,0,P|104:160|132:84,1,122,8|2,0:0|0:0,0:0:0:0:
180,264,93894,2,0,P|216:224|208:156,1,122,0|2,0:0|0:0,0:0:0:0:
210,159,94257,1,0,0:0:0:0:
320,40,94499,1,0,0:0:0:0:
376,36,94620,1,2,0:0:0:0:
416,72,94741,1,0,0:0:0:0:
436,124,94862,1,0,0:0:0:0:
324,276,95104,6,0,P|276:276|232:214,1,122,2|8,0:0|0:0,0:0:0:0:
164,244,95588,2,0,P|172:180|219:150,1,122,2|0,0:0|0:0,0:0:0:0:
300,208,96072,2,0,P|352:204|400:256,2,122,2|8|2,0:0|0:0|0:0,0:0:0:0:
432,328,96798,5,0,0:0:0:0:
332,276,97040,1,2,0:0:0:0:
232,336,97282,2,0,L|100:336,1,122,8|2,0:0|0:0,0:0:0:0:
204,164,97765,2,0,P|144:216|92:200,1,122,0|2,0:0|0:0,0:0:0:0:
107,209,98128,1,0,0:0:0:0:
168,88,98370,6,0,L|108:68,1,61,0|2,0:0|0:0,0:0:0:0:
252,96,98612,2,0,L|308:52,1,61
448,56,98975,1,2,0:0:0:0:
448,56,99096,1,0,0:0:0:0:
512,168,99338,1,0,0:0:0:0:
360,144,99580,1,0,0:0:0:0:
208,288,99943,2,0,P|160:252|88:288,2,122,2|8|2,0:0|0:0|0:0,0:0:0:0:
440,308,100669,5,0,0:0:0:0:
316,280,100911,1,2,0:0:0:0:
400,192,101153,2,0,P|380:128|412:88,1,122,8|2,0:0|0:0,0:0:0:0:
296,184,101636,2,0,P|284:128|216:104,1,122,0|2,0:0|0:0,0:0:0:0:
200,116,101999,2,0,P|140:140|84:112,1,122
52,156,102362,1,2,0:0:0:0:
52,212,102483,1,0,0:0:0:0:
76,260,102604,1,4,0:0:0:0:
436,260,103088,1,4,0:0:0:0:
328,336,103330,1,0,0:0:0:0:
256,192,103451,12,0,104298,0:0:0:0:
132,80,104540,6,0,P|188:36|244:48,1,122,4|2,0:0|0:0,0:0:0:0:
224,152,105023,1,8,0:0:0:0:
124,192,105265,2,0,P|152:252|124:304,2,122,2|0|2,0:0|0:0|0:0,0:0:0:0:
124,192,105870,1,0,0:0:0:0:
244,220,106112,2,0,L|300:188,1,61,0|2,0:0|0:0,0:0:0:0:
288,296,106354,2,0,L|232:332,1,61
400,288,106717,1,2,0:0:0:0:
400,288,106838,2,0,P|456:244|464:184,2,122
164,104,107685,1,2,0:0:0:0:
256,44,107927,1,8,0:0:0:0:
348,104,108169,1,2,0:0:0:0:
256,304,108411,5,0,0:0:0:0:
156,348,108653,2,0,P|112:288|60:292,1,122,2|8,0:0|0:0,0:0:0:0:
8,168,109136,1,2,0:0:0:0:
144,196,109378,2,0,P|108:144|112:76,1,122,0|2,0:0|0:0,0:0:0:0:
108,87,109741,1,0,0:0:0:0:
272,40,109983,1,0,0:0:0:0:
324,56,110104,1,2,0:0:0:0:
364,92,110225,1,0,0:0:0:0:
396,136,110346,1,0,0:0:0:0:
428,296,110588,6,0,P|384:344|328:328,2,122,2|8|2,0:0|0:0|0:0,0:0:0:0:
236,260,111314,2,0,P|184:304|200:368,1,122,0|2,0:0|0:0,0:0:0:0:
48,300,111798,1,8,0:0:0:0:
48,300,112040,1,2,0:0:0:0:
24,96,112282,5,0,0:0:0:0:
180,112,112523,1,2,0:0:0:0:
88,216,112765,1,8,0:0:0:0:
108,48,113007,1,2,0:0:0:0:
180,208,113249,1,0,0:0:0:0:
4,184,113491,1,2,0:0:0:0:
4,184,113612,1,0,0:0:0:0:
16,320,113854,6,0,L|76:304,1,61,0|2,0:0|0:0,0:0:0:0:
216,332,114096,2,0,L|144:304,1,61
296,268,114459,1,0,0:0:0:0:
296,268,114580,2,0,P|360:264|404:304,2,122,2|0|2,0:0|0:0|0:0,0:0:0:0:
464,120,115427,2,0,P|392:128|344:72,2,122,2|8|2,0:0|0:0|0:0,0:0:0:0:
420,52,116153,1,0,0:0:0:0:
56,320,116636,5,8,0:0:0:0:
44,192,116878,1,2,0:0:0:0:
152,248,117120,2,0,P|196:300|256:292,1,122,0|2,0:0|0:0,0:0:0:0:
245,297,117483,1,0,0:0:0:0:
424,300,117725,5,0,0:0:0:0:
460,260,117846,1,2,0:0:0:0:
452,204,117967,1,0,0:0:0:0:
404,176,118088,2,0,P|312:212|312:84,1,244,4|0,0:0|0:0,0:0:0:0:
392,64,118814,1,4,0:0:0:0:
392,64,118935,1,0,0:0:0:0:
256,192,119056,12,0,120023,0:0:0:0:
256,48,120265,5,0,0:0:0:0:
256,156,120507,2,0,P|188:120|144:248,1,244,8|0,0:0|0:0,0:0:0:0:
244,268,121233,1,0,0:0:0:0:
256,320,121354,1,0,0:0:0:0:
220,360,121475,2,0,P|160:376|100:344,1,122,8|0,0:0|0:0,0:0:0:0:
60,252,121959,1,0,0:0:0:0:
96,72,122201,1,0,0:0:0:0:
204,72,122443,1,8,0:0:0:0:
60,152,122685,1,0,0:0:0:0:
244,152,122927,1,0,0:0:0:0:
500,56,123411,6,0,P|464:116|480:176,1,122,8|0,0:0|0:0,0:0:0:0:
176,316,124136,1,0,0:0:0:0:
256,160,124378,1,8,0:0:0:0:
336,316,124620,1,0,0:0:0:0:
160,212,124862,1,0,0:0:0:0:
352,208,125104,1,0,0:0:0:0:
336,216,125225,1,0,0:0:0:0:
320,224,125346,1,8,0:0:0:0:
76,80,125830,5,0,0:0:0:0:
208,56,126072,1,0,0:0:0:0:
56,116,126314,1,8,0:0:0:0:
240,72,126556,1,0,0:0:0:0:
72,324,127040,1,0,0:0:0:0:
128,192,127282,1,8,0:0:0:0:
224,308,127523,1,0,0:0:0:0:
392,332,127765,6,0,P|432:280|420:220,1,122,0|2,0:0|0:0,0:0:0:0:
388,184,128128,1,0,0:0:0:0:
340,160,128249,1,8,0:0:0:0:
296,316,128491,1,2,0:0:0:0:
52,80,128975,5,2,0:0:0:0:
216,64,129217,1,8,0:0:0:0:
152,212,129459,1,2,0:0:0:0:
72,244,129701,2,0,P|80:164|120:136,1,122,0|2,0:0|0:0,0:0:0:0:
136,296,130185,2,0,P|200:280|232:232,2,122,8|2|0,0:0|0:0|0:0,0:0:0:0:
256,356,130911,1,2,0:0:0:0:
280,356,131032,1,0,0:0:0:0:
304,356,131153,1,8,0:0:0:0:
408,316,131394,1,2,0:0:0:0:
420,112,131636,5,0,0:0:0:0:
256,160,131878,1,2,0:0:0:0:
92,112,132120,1,8,0:0:0:0:
200,40,132362,1,2,0:0:0:0:
312,40,132604,1,0,0:0:0:0:
256,332,133088,1,8,0:0:0:0:
4,216,133572,5,0,0:0:0:0:
48,116,133814,1,0,0:0:0:0:
148,72,134056,1,0,0:0:0:0:
256,48,134298,1,0,0:0:0:0:
368,72,134540,1,0,0:0:0:0:
464,116,134782,1,0,0:0:0:0:
508,216,135023,1,0,0:0:0:0:
256,320,135265,5,0,0:0:0:0:
228,316,135386,1,0,0:0:0:0:
200,312,135507,1,4,0:0:0:0:
140,160,135749,1,2,0:0:0:0:
256,44,135991,2,0,P|296:92|368:80,1,122,8|2,0:0|0:0,0:0:0:0:
492,108,136475,2,0,P|468:168|508:224,1,122,0|2,0:0|0:0,0:0:0:0:
493,214,136838,1,0,0:0:0:0:
396,268,137080,6,0,L|352:320,1,61,0|2,0:0|0:0,0:0:0:0:
368,192,137322,2,0,L|416:132,1,61
280,220,137685,1,2,0:0:0:0:
280,220,137806,1,0,0:0:0:0:
220,344,138048,1,0,0:0:0:0:
124,256,138290,1,0,0:0:0:0:
36,56,138653,2,0,P|72:84|60:164,2,122,2|8|0,0:0|0:0|0:0,0:0:0:0:
440,80,139378,5,0,0:0:0:0:
500,200,139620,1,2,0:0:0:0:
376,188,139862,2,0,P|408:224|380:300,1,122,8|2,0:0|0:0,0:0:0:0:
332,120,140346,2,0,P|296:160|304:228,1,122,0|2,0:0|0:0,0:0:0:0:
301,224,140709,1,0,0:0:0:0:
192,344,140951,1,0,0:0:0:0:
136,348,141072,1,2,0:0:0:0:
96,312,141193,1,0,0:0:0:0:
76,260,141314,1,0,0:0:0:0:
188,108,141556,6,0,P|236:108|280:170,1,122,2|8,0:0|0:0,0:0:0:0:
348,140,142040,2,0,P|340:204|293:234,1,122,2|0,0:0|0:0,0:0:0:0:
212,180,142523,2,0,P|156:180|116:128,2,122,2|8|0,0:0|0:0|0:0,0:0:0:0:
80,56,143249,5,0,0:0:0:0:
188,108,143491,1,2,0:0:0:0:
280,48,143733,2,0,P|332:72|412:48,1,122,8|2,0:0|0:0,0:0:0:0:
308,220,144217,2,0,P|368:168|420:184,1,122,0|2,0:0|0:0,0:0:0:0:
404,174,144580,1,0,0:0:0:0:
344,296,144822,6,0,L|404:316,1,61,0|2,0:0|0:0,0:0:0:0:
260,288,145064,2,0,L|204:332,1,61
64,328,145427,1,2,0:0:0:0:
64,328,145548,1,0,0:0:0:0:
0,216,145790,1,0,0:0:0:0:
152,240,146032,1,0,0:0:0:0:
304,96,146394,2,0,P|352:132|424:96,2,122,2|8|0,0:0|0:0|0:0,0:0:0:0:
72,76,147120,5,0,0:0:0:0:
196,104,147362,1,2,0:0:0:0:
112,192,147604,2,0,P|132:256|92:312,1,122,8|2,0:0|0:0,0:0:0:0:
216,200,148088,2,0,P|228:256|296:280,1,122,0|2,0:0|0:0,0:0:0:0:
312,268,148451,2,0,P|372:244|428:272,1,122
460,228,148814,1,2,0:0:0:0:
460,172,148935,1,0,0:0:0:0:
436,124,149056,1,4,0:0:0:0:
76,124,149540,1,4,0:0:0:0:
184,48,149782,1,0,0:0:0:0:
256,192,149903,12,0,150749,0:0:0:0:
380,304,150991,6,0,P|324:348|268:336,1,122,4|2,0:0|0:0,0:0:0:0:
288,232,151475,1,8,0:0:0:0:
388,192,151717,2,0,P|360:132|388:80,2,122,2|0|0,0:0|0:0|0:0,0:0:0:0:
388,192,152322,1,0,0:0:0:0:
268,164,152564,2,0,L|212:196,1,61,0|2,0:0|0:0,0:0:0:0:
224,88,152806,2,0,L|280:52,1,61
112,96,153169,1,2,0:0:0:0:
112,96,153290,2,0,P|56:140|48:200,2,122
348,280,154136,1,2,0:0:0:0:
256,340,154378,1,8,0:0:0:0:
164,280,154620,1,2,0:0:0:0:
256,80,154862,5,0,0:0:0:0:
356,36,155104,2,0,P|400:96|452:92,1,122,2|8,0:0|0:0,0:0:0:0:
504,216,155588,1,2,0:0:0:0:
368,188,155830,2,0,P|404:240|400:308,1,122,0|2,0:0|0:0,0:0:0:0:
403,296,156193,1,0,0:0:0:0:
240,344,156435,1,0,0:0:0:0:
188,328,156556,1,2,0:0:0:0:
148,292,156677,1,0,0:0:0:0:
116,248,156798,1,0,0:0:0:0:
84,88,157040,6,0,P|128:40|184:56,2,122,2|8|0,0:0|0:0|0:0,0:0:0:0:
276,124,157765,2,0,P|328:80|312:16,1,122,0|2,0:0|0:0,0:0:0:0:
464,84,158249,1,8,0:0:0:0:
464,84,158491,1,2,0:0:0:0:
488,288,158733,5,0,0:0:0:0:
332,272,158975,1,2,0:0:0:0:
424,168,159217,1,8,0:0:0:0:
404,336,159459,1,2,0:0:0:0:
332,176,159701,1,0,0:0:0:0:
508,200,159943,1,2,0:0:0:0:
508,200,160064,1,0,0:0:0:0:
496,64,160306,6,0,L|436:80,1,61,0|2,0:0|0:0,0:0:0:0:
296,52,160548,2,0,L|368:80,1,61
216,116,160911,1,2,0:0:0:0:
216,116,161032,2,0,P|152:120|108:80,2,122
48,264,161878,2,0,P|120:256|168:312,2,122,2|8|0,0:0|0:0|0:0,0:0:0:0:
92,332,162604,1,0,0:0:0:0:
456,64,163088,5,0,0:0:0:0:
468,192,163330,1,2,0:0:0:0:
360,136,163572,2,0,P|316:84|256:92,1,122,0|2,0:0|0:0,0:0:0:0:
266,86,163935,1,0,0:0:0:0:
88,84,164177,5,0,0:0:0:0:
52,124,164298,1,2,0:0:0:0:
60,180,164419,1,0,0:0:0:0:
108,208,164540,2,0,P|200:172|200:300,1,244,4|4,0:0|0:0,0:0:0:0:
256,192,165265,12,0,166233,0:0:0:0:
148,40,166475,5,0,0:0:0:0:
68,116,166717,1,0,0:0:0:0:
176,136,166959,2,0,P|152:212|56:228,2,183
256,256,167927,1,0,0:0:0:0:
364,40,168411,1,0,0:0:0:0:
444,116,168653,1,0,0:0:0:0:
336,136,168894,2,0,P|360:212|456:228,2,183
256,260,169862,1,0,0:0:0:0:
256,260,170104,1,0,0:0:0:0:
256,44,170346,5,0,0:0:0:0:
204,128,170588,1,0,0:0:0:0:
256,148,170709,1,0,0:0:0:0:
308,128,170830,2,0,P|352:64|400:128,2,183
404,272,171798,1,0,0:0:0:0:
108,272,172282,1,0,0:0:0:0:
60,172,172523,1,0,0:0:0:0:
112,176,172644,1,0,0:0:0:0:
168,184,172765,2,0,P|156:104|72:48,2,183
256,48,173733,1,0,0:0:0:0:
256,324,174217,1,4,0:0:0:0:
256,192,174338,12,0,177604,0:0:0:0:
