osu file format v12

[General]
AudioFilename: Crystal Fair Remix.mp3
AudioLeadIn: 0
PreviewTime: 83869
Countdown: 1
SampleSet: Normal
StackLeniency: 0.7
Mode: 0
LetterboxInBreaks: 1

[Editor]
Bookmarks: 15239,83810,121906
DistanceSpacing: 0.8
BeatDivisor: 2
GridSize: 8

[Metadata]
Title:Crystal Fair (Remix)
TitleUnicode:Crystal Fair (Remix)
Artist:Sim Gretina
ArtistUnicode:Sim Gretina
Creator:ztrot
Version:Hard
Source:My Little Pony: Friendship is Magic
Tags:mlp house trance twilight Tasha
BeatmapID:249231
BeatmapSetID:76649

[Difficulty]
HPDrainRate:5
CircleSize:3
OverallDifficulty:6
ApproachRate:6
SliderMultiplier:1.9
SliderTickRate:2

[Events]
//Background and Video events
0,0,"BG.jpg",0,0
//Break Periods
2,84069,90438
//Storyboard Layer 0 (Background)
//Storyboard Layer 1 (Fail)
//Storyboard Layer 2 (Pass)
//Storyboard Layer 3 (Foreground)
//Storyboard Sound Samples
//Background Colour Transformations
3,100,163,162,255

[TimingPoints]
60,476.190476190476,4,1,1,60,1,0
45774,-100,4,1,1,60,0,1
53393,-100,4,1,1,60,0,0
68631,-100,4,1,1,60,0,1
83869,-100,4,1,1,60,0,0
99107,-100,4,1,1,60,0,1
121012,-100,4,1,1,60,0,0
121964,-100,4,1,1,60,0,1
137202,-100,4,1,1,60,0,0

[HitObjects]
72,112,15298,2,0,P|80:208|160:248,1,190,0|8,0:0|0:0,0:0:0:0:
256,88,16250,1,0,0:0:0:0:
208,168,16488,1,0,0:0:0:0:
304,168,16726,1,8,0:0:0:0:
440,112,17202,6,0,P|432:208|352:248,1,190,0|8,0:0|0:0,0:0:0:0:
208,168,18155,1,0,0:0:0:0:
256,256,18393,1,0,0:0:0:0:
304,168,18631,1,8,0:0:0:0:
256,80,18869,1,0,0:0:0:0:
160,64,19107,6,0,P|96:128|128:224,1,190,0|8,0:0|0:0,0:0:0:0:
256,352,20059,1,0,0:0:0:0:
208,264,20298,1,0,0:0:0:0:
304,264,20536,1,8,0:0:0:0:
184,120,21012,6,0,P|255:68|329:128,2,190,0|8|0,0:0|0:0|0:0,0:0:0:0:
256,184,22202,1,0,0:0:0:0:
256,280,22440,1,8,0:0:0:0:
440,176,22917,6,0,P|389:93|292:92,1,190,0|8,0:0|0:0,0:0:0:0:
344,176,23631,1,0,0:0:0:0:
376,264,23869,1,0,0:0:0:0:
136,264,24345,1,8,0:0:0:0:
168,176,24583,1,0,0:0:0:0:
256,120,24821,2,0,L|256:216,2,95,0|0|8,0:0|0:0|0:0,0:0:0:0:
72,64,25774,5,0,0:0:0:0:
160,96,26012,1,0,0:0:0:0:
88,160,26250,2,0,P|120:192|184:192,1,95,8|0,0:0|0:0,0:0:0:0:
200,288,26726,6,0,P|112:336|24:304,1,190,0|8,0:0|0:0,0:0:0:0:
312,288,27679,2,0,P|400:336|488:304,1,190,0|8,0:0|0:0,0:0:0:0:
344,184,28631,2,0,P|255:154|159:191,2,190,0|8|0,0:0|0:0|0:0,0:0:0:0:
208,320,30059,5,0,0:0:0:0:
304,320,30298,1,0,0:0:0:0:
256,240,30536,1,4,0:0:0:0:
352,240,30774,6,0,P|432:176|408:96,1,190
232,144,31726,2,0,P|136:192|64:144,1,190
224,48,32679,2,0,P|304:80|320:176,2,190
232,144,33869,1,0,0:0:0:0:
256,336,34345,1,0,0:0:0:0:
96,240,34821,5,8,0:0:0:0:
192,224,35059,1,0,0:0:0:0:
256,144,35298,1,0,0:0:0:0:
320,224,35536,1,0,0:0:0:0:
416,240,35774,2,0,P|448:208|448:160,1,95,8|0,0:0|0:0,0:0:0:0:
424,48,36250,6,0,P|352:112|344:208,1,190,0|8,0:0|0:0,0:0:0:0:
88,48,37202,2,0,P|160:112|168:208,1,190,0|8,0:0|0:0,0:0:0:0:
256,240,37917,1,0,0:0:0:0:
342,298,38155,6,0,P|255:332|166:295,3,190,0|8|0|8,0:0|0:0|0:0|0:0,0:0:0:0:
256,128,40059,1,0,0:0:0:0:
208,48,40298,1,0,0:0:0:0:
304,48,40536,1,8,0:0:0:0:
448,168,41012,6,0,P|368:224|376:328,1,190,0|8,0:0|0:0,0:0:0:0:
256,152,41964,1,0,0:0:0:0:
146,309,42440,2,0,P|144:224|64:168,1,190,8|0,0:0|0:0,0:0:0:0:
256,152,43393,1,8,0:0:0:0:
328,328,43869,5,4,0:0:0:0:
424,328,44107,1,0,0:0:0:0:
392,144,44583,5,0,0:0:0:0:
352,56,44821,1,0,0:0:0:0:
256,40,45059,1,0,0:0:0:0:
160,56,45298,1,0,0:0:0:0:
120,144,45536,1,0,0:0:0:0:
88,232,45774,6,0,P|32:184|56:80,1,190,0|8,0:0|0:0,0:0:0:0:
456,80,46726,2,0,P|480:184|424:232,1,190,0|8,0:0|0:0,0:0:0:0:
384,144,47440,1,0,0:0:0:0:
336,224,47679,2,0,P|288:144|336:64,1,190,0|8,0:0|0:0,0:0:0:0:
384,144,48393,1,0,0:0:0:0:
424,232,48631,1,0,0:0:0:0:
104,344,49107,5,8,0:0:0:0:
192,304,49345,1,0,0:0:0:0:
112,256,49583,1,0,0:0:0:0:
256,136,50059,5,8,0:0:0:0:
208,48,50298,1,0,0:0:0:0:
304,48,50536,1,0,0:0:0:0:
400,256,51012,5,8,0:0:0:0:
320,304,51250,1,0,0:0:0:0:
408,344,51488,2,0,P|480:296|464:192,2,190,0|8|0,0:0|0:0|0:0,0:0:0:0:
336,280,52679,1,0,0:0:0:0:
256,232,52917,1,8,0:0:0:0:
256,328,53155,1,0,0:0:0:0:
176,280,53393,5,4,0:0:0:0:
112,344,53631,1,0,0:0:0:0:
88,256,53869,2,0,P|120:208|160:192,1,95,8|0,0:0|0:0,0:0:0:0:
248,208,54345,1,0,0:0:0:0:
216,120,54583,1,0,0:0:0:0:
312,136,54821,2,0,P|336:176|336:232,1,95,8|0,0:0|0:0,0:0:0:0:
352,320,55298,6,0,P|448:312|456:216,2,190,0|8|0,0:0|0:0|0:0,0:0:0:0:
104,216,56726,1,8,0:0:0:0:
256,64,57202,5,0,0:0:0:0:
160,120,57440,1,0,0:0:0:0:
256,192,57679,1,8,0:0:0:0:
352,120,57917,1,0,0:0:0:0:
352,120,58155,6,0,P|400:208|496:208,2,190,0|8|0,0:0|0:0|0:0,0:0:0:0:
256,288,59583,1,8,0:0:0:0:
88,192,60059,1,0,0:0:0:0:
120,280,60298,1,0,0:0:0:0:
184,208,60536,1,8,0:0:0:0:
152,120,60774,1,0,0:0:0:0:
56,96,61012,1,4,0:0:0:0:
256,80,61488,6,0,P|336:144|400:104,1,190,8|0,0:0|0:0,0:0:0:0:
336,40,62202,1,0,0:0:0:0:
432,16,62440,2,0,P|496:80|469:166,1,190,8|0,0:0|0:0,0:0:0:0:
408,344,63393,1,8,0:0:0:0:
272,208,63869,1,0,0:0:0:0:
216,288,64107,1,0,0:0:0:0:
128,328,64345,5,8,0:0:0:0:
48,280,64583,1,0,0:0:0:0:
48,184,64821,1,4,0:0:0:0:
128,136,65059,2,0,P|216:176|256:96,2,190
184,56,66250,1,0,0:0:0:0:
256,192,66726,12,0,68631,0:0:0:0:
256,352,69107,5,8,0:0:0:0:
72,312,69583,2,0,P|32:216|80:152,1,190,0|8,0:0|0:0,0:0:0:0:
256,80,70536,1,0,0:0:0:0:
208,160,70774,1,0,0:0:0:0:
304,160,71012,1,8,0:0:0:0:
392,328,71488,6,0,P|424:232|360:224,1,190,0|8,0:0|0:0,0:0:0:0:
120,328,72440,2,0,P|88:232|152:224,1,190,0|8,0:0|0:0,0:0:0:0:
327,137,73393,2,0,P|256:83|183:143,1,190,0|8,0:0|0:0,0:0:0:0:
312,248,74345,5,0,0:0:0:0:
256,328,74583,1,0,0:0:0:0:
200,248,74821,1,8,0:0:0:0:
80,96,75298,1,0,0:0:0:0:
184,136,75536,1,0,0:0:0:0:
256,240,75774,1,8,0:0:0:0:
328,136,76012,1,0,0:0:0:0:
432,96,76250,6,0,P|368:168|424:240,1,190,4|8,0:0|0:0,0:0:0:0:
80,96,77202,2,0,P|144:168|88:240,1,190,0|8,0:0|0:0,0:0:0:0:
256,352,78155,1,0,0:0:0:0:
208,272,78393,1,0,0:0:0:0:
304,272,78631,1,8,0:0:0:0:
128,344,79107,1,0,0:0:0:0:
384,344,79583,1,8,0:0:0:0:
448,168,80059,5,0,0:0:0:0:
336,144,80298,1,0,0:0:0:0:
320,32,80536,1,8,0:0:0:0:
64,168,81012,1,0,0:0:0:0:
176,144,81250,1,0,0:0:0:0:
192,32,81488,1,8,0:0:0:0:
256,208,81964,5,0,0:0:0:0:
208,288,82202,1,0,0:0:0:0:
304,288,82440,1,8,0:0:0:0:
136,208,82917,1,0,0:0:0:0:
376,208,83393,1,8,0:0:0:0:
256,48,83869,1,0,0:0:0:0:
351,337,91488,6,0,L|151:337,2,190,0|8|0,0:0|0:0|0:0,0:0:0:0:
304,232,92679,1,0,0:0:0:0:
208,232,92917,1,8,0:0:0:0:
256,144,93155,1,0,0:0:0:0:
161,47,93393,2,0,L|361:47,2,190,0|8|0,0:0|0:0|0:0,0:0:0:0:
200,144,94583,1,0,0:0:0:0:
312,144,94821,5,8,0:0:0:0:
256,232,95059,1,0,0:0:0:0:
256,328,95298,1,0,0:0:0:0:
336,232,95536,1,0,0:0:0:0:
176,232,95774,1,0,0:0:0:0:
56,264,96012,1,4,0:0:0:0:
136,344,96250,1,0,0:0:0:0:
376,344,96726,1,4,0:0:0:0:
104,176,97202,1,4,0:0:0:0:
408,176,97679,1,4,0:0:0:0:
256,328,98155,5,0,0:0:0:0:
256,136,98631,1,0,0:0:0:0:
440,272,99107,6,0,P|432:176|352:136,1,190,4|8,0:0|0:0,0:0:0:0:
256,296,100059,1,0,0:0:0:0:
304,216,100298,1,0,0:0:0:0:
208,216,100536,1,8,0:0:0:0:
72,272,101012,6,0,P|80:176|160:136,1,190,0|8,0:0|0:0,0:0:0:0:
320,232,101964,1,0,0:0:0:0:
256,160,102202,1,0,0:0:0:0:
192,232,102440,1,8,0:0:0:0:
256,304,102679,1,0,0:0:0:0:
352,320,102917,6,0,P|416:256|384:160,1,190,0|8,0:0|0:0,0:0:0:0:
256,32,103869,1,0,0:0:0:0:
304,120,104107,1,0,0:0:0:0:
208,120,104345,1,8,0:0:0:0:
328,264,104821,6,0,P|257:316|183:256,2,190,0|8|0,0:0|0:0|0:0,0:0:0:0:
256,200,106012,1,0,0:0:0:0:
256,104,106250,1,8,0:0:0:0:
168,144,106488,1,0,0:0:0:0:
96,208,106726,6,0,P|128:288|224:296,1,190,4|8,0:0|0:0,0:0:0:0:
160,120,107679,1,0,0:0:0:0:
352,120,108155,1,8,0:0:0:0:
256,288,108631,2,0,L|256:192,2,95,0|0|8,0:0|0:0|0:0,0:0:0:0:
440,320,109583,5,0,0:0:0:0:
272,232,110059,2,0,P|319:226|351:194,1,95,8|0,0:0|0:0,0:0:0:0:
312,96,110536,6,0,P|400:48|488:80,1,190,0|8,0:0|0:0,0:0:0:0:
200,96,111488,2,0,P|112:48|24:80,1,190,0|8,0:0|0:0,0:0:0:0:
168,200,112440,2,0,P|257:230|353:193,2,190,0|8|0,0:0|0:0|0:0,0:0:0:0:
304,64,113869,5,8,0:0:0:0:
208,64,114107,1,0,0:0:0:0:
256,144,114345,1,4,0:0:0:0:
312,328,114821,6,0,P|352:312|368:264,1,95,8|0,0:0|0:0,0:0:0:0:
200,328,115298,2,0,P|160:312|144:264,1,95
256,240,115774,2,0,L|256:128,2,95,8|0|0,0:0|0:0|0:0,0:0:0:0:
160,256,116488,2,0,P|80:224|64:128,2,190
152,160,117679,1,8,0:0:0:0:
256,48,118155,5,0,0:0:0:0:
416,144,118631,1,8,0:0:0:0:
256,240,119107,1,0,0:0:0:0:
96,144,119583,1,8,0:0:0:0:
88,336,120059,6,0,P|160:272|168:176,1,190,0|8,0:0|0:0,0:0:0:0:
424,336,121012,2,0,P|352:272|344:176,1,190,0|8,0:0|0:0,0:0:0:0:
170,86,121964,6,0,P|257:52|346:89,3,190,0|8|0|8,0:0|0:0|0:0|0:0,0:0:0:0:
256,256,123869,1,0,0:0:0:0:
304,336,124107,1,0,0:0:0:0:
208,336,124345,1,8,0:0:0:0:
64,216,124821,6,0,P|144:160|136:56,1,190,0|8,0:0|0:0,0:0:0:0:
256,232,125774,1,0,0:0:0:0:
366,75,126250,2,0,P|368:160|448:216,1,190,8|0,0:0|0:0,0:0:0:0:
256,232,127202,1,8,0:0:0:0:
184,56,127679,2,0,L|104:128,1,95
40,184,128155,1,8,0:0:0:0:
120,240,128393,5,0,0:0:0:0:
160,328,128631,1,0,0:0:0:0:
256,344,128869,1,0,0:0:0:0:
352,328,129107,1,8,0:0:0:0:
392,240,129345,1,0,0:0:0:0:
424,152,129583,6,0,P|480:200|456:304,1,190,4|8,0:0|0:0,0:0:0:0:
56,304,130536,2,0,P|32:200|88:152,1,190,0|8,0:0|0:0,0:0:0:0:
125,237,131250,1,0,0:0:0:0:
176,160,131488,2,0,P|224:240|176:320,1,190,0|8,0:0|0:0,0:0:0:0:
136,80,132440,1,0,0:0:0:0:
408,40,132917,5,8,0:0:0:0:
320,80,133155,1,0,0:0:0:0:
400,128,133393,1,0,0:0:0:0:
256,248,133869,5,8,0:0:0:0:
304,336,134107,1,0,0:0:0:0:
208,336,134345,1,0,0:0:0:0:
112,128,134821,5,8,0:0:0:0:
192,80,135059,1,0,0:0:0:0:
104,40,135298,2,0,P|32:88|48:192,2,190,0|8|0,0:0|0:0|0:0,0:0:0:0:
192,80,136488,1,0,0:0:0:0:
272,32,136726,1,8,0:0:0:0:
336,104,136964,1,0,0:0:0:0:
408,40,137202,5,4,0:0:0:0:
336,104,137440,1,0,0:0:0:0:
424,128,137679,2,0,P|392:176|352:192,1,95,8|0,0:0|0:0,0:0:0:0:
264,176,138155,1,0,0:0:0:0:
296,264,138393,1,0,0:0:0:0:
200,248,138631,2,0,P|176:208|176:152,1,95,8|0,0:0|0:0,0:0:0:0:
160,64,139107,6,0,P|64:72|56:168,2,190,0|8|0,0:0|0:0|0:0,0:0:0:0:
408,168,140536,1,8,0:0:0:0:
256,192,141012,12,0,144821,0:0:0:0:
