osu file format v14

[General]
AudioFilename: Sakura Uta (Arranged by KaNa).mp3
AudioLeadIn: 0
PreviewTime: 58609
Countdown: 0
SampleSet: Soft
StackLeniency: 0.7
Mode: 0
LetterboxInBreaks: 0
WidescreenStoryboard: 0

[Editor]
Bookmarks: 60882,68155,75314,82700,85200,102132,104518,107473,119064,126337,133723,140882,177246,184632,187018
DistanceSpacing: 0.9
BeatDivisor: 4
GridSize: 4
TimelineZoom: 1

[Metadata]
Title:Sakura Uta
TitleUnicode:サクラウタ
Artist:Silver Forest feat. Aki
ArtistUnicode:Silver Forest feat. アキ
Creator:RVMathew
Version:Normal
Source:東方神霊廟 ~ Ten Desires.
Tags:Sweet Little Lily Touhou Project Shinreibyou Toho Track 07 ZUN Reimu Hakurei 死霊の夜桜 Night Sakura of Dead Spirits Kana Ijuin Stage 1 theme
BeatmapID:1262430
BeatmapSetID:587754

[Difficulty]
HPDrainRate:4
CircleSize:3
OverallDifficulty:4
ApproachRate:5
SliderMultiplier:1.2
SliderTickRate:1

[Events]
//Background and Video events
0,0,"hakurei-reimu-spring-1920x1080.jpg",0,0
//Break Periods
2,91537,93773
2,146082,159228
//Storyboard Layer 0 (Background)
//Storyboard Layer 1 (Fail)
//Storyboard Layer 2 (Pass)
//Storyboard Layer 3 (Foreground)
//Storyboard Sound Samples

[TimingPoints]
428,454.5454545455,4,2,1,43,1,0
428,-125,4,2,1,43,0,0
14973,-100,4,2,2,69,0,0
29518,-99.9999999999999,4,2,1,69,0,0
58609,-100,4,2,2,75,0,1
72246,-100,4,2,2,75,0,0
73155,-100,4,2,2,75,0,1
87700,-100,4,2,1,69,0,0
89291,-100,4,2,1,60,0,0
94973,-100,4,2,1,69,0,0
116791,-100,4,2,2,75,0,1
130428,-100,4,2,2,75,0,0
131337,-100,4,2,2,75,0,1
145882,-142.857142857143,4,2,1,69,0,0
160428,-100,4,2,1,69,0,0
174973,-100,4,2,2,75,0,1
188609,-100,4,2,2,59,0,0
189518,-100,4,2,1,59,0,0

[Colours]
Combo1 : 255,183,197
Combo2 : 255,62,197
Combo3 : 215,0,5

[HitObjects]
256,64,14518,5,0,1:0:0:0:
336,136,14973,6,0,P|368:188|360:260,1,120,4|8,0:0|3:2,0:0:0:0:
338,349,15882,2,0,P|391:341|442:357,2,90,2|2|2,3:2|1:2|1:2,0:0:0:0:
285,339,16791,2,0,P|244:273|249:213,1,120,0|8,3:2|3:2,0:0:0:0:
317,153,17700,2,0,P|370:151|421:122,2,90,2|2|2,3:2|1:2|1:2,0:0:0:0:
263,146,18609,6,0,P|189:133|143:146,1,120,0|8,3:2|3:2,0:0:0:0:
127,250,19518,2,0,P|130:314|156:348,2,90,2|2|2,3:2|1:2|1:2,0:0:0:0:
167,213,20428,2,0,P|191:158|184:99,1,120,0|8,3:2|3:2,0:0:0:0:
96,37,21337,2,0,P|51:28|2:27,2,90,2|2|2,3:2|1:2|1:2,0:0:0:0:
144,62,22246,6,0,B|199:80|199:80|261:68,1,120,0|8,3:2|3:2,0:0:0:0:
367,79,23155,2,0,P|411:50|472:34,2,90,2|2|2,3:2|1:2|1:2,0:0:0:0:
334,122,24064,2,0,P|318:178|347:232,1,120,0|8,3:2|3:2,0:0:0:0:
445,271,24973,2,0,B|438:324|368:344,2,90,2|2|2,3:2|1:2|1:2,0:0:0:0:
472,224,25882,6,0,P|478:152|451:94,1,120,0|8,3:2|3:2,0:0:0:0:
370,51,26791,2,0,P|399:17|448:3,2,90,2|2|2,3:2|1:2|1:2,0:0:0:0:
331,89,27700,2,0,P|315:146|344:197,1,120,0|8,3:2|3:2,0:0:0:0:
341,304,28609,2,0,L|273:328,1,60,8|4,0:3|0:3,0:0:0:0:
232,337,29064,1,8,0:0:0:0:
171,248,29518,6,0,P|187:191|159:140,1,120,4|8,1:0|0:0,0:0:0:0:
131,94,30200,2,0,P|183:109|247:69,1,120,0|2,1:2|0:0,0:0:0:0:
282,47,30882,1,8,0:0:0:0:
326,78,31109,2,0,P|378:106|435:92,1,120,0|0,3:2|0:0,0:0:0:0:
486,109,31791,2,0,P|496:168|473:238,2,120,10|0|8,0:0|3:2|0:0,0:0:0:0:
390,59,33155,6,0,B|326:51|326:51|275:78,1,120,0|8,3:1|0:0,0:0:0:0:
242,118,33837,2,0,P|229:175|262:223,1,120,0|2,1:2|0:0,0:0:0:0:
306,254,34518,1,8,0:0:0:0:
290,306,34746,2,0,B|212:351|212:351|98:331,1,180,0|10,3:2|0:0,0:0:0:0:
69,242,35882,2,0,L|45:171,1,60,0|2,3:2|0:2,0:0:0:0:
48,131,36337,1,8,0:0:0:0:
135,68,36791,6,0,P|198:91|258:77,1,120,0|8,3:2|1:2,0:0:0:0:
299,62,37473,2,0,B|333:115|333:115|319:176,1,120,0|2,1:2|0:0,0:0:0:0:
301,221,38155,1,8,0:0:0:0:
327,268,38382,2,0,P|385:255|443:268,1,120,0|0,3:2|0:0,0:0:0:0:
490,296,39064,1,10,0:0:0:0:
485,188,39518,2,0,L|497:112,1,60,0|2,3:2|0:0,0:0:0:0:
503,75,39973,1,8,0:0:0:0:
398,48,40428,6,0,P|342:66|274:49,1,120,0|8,3:2|0:0,0:0:0:0:
234,76,41109,2,0,P|252:132|235:200,1,120,0|2,1:2|0:0,0:0:0:0:
248,244,41791,1,8,0:0:0:0:
270,293,42018,1,0,1:2:0:0:
375,316,42473,1,0,1:2:0:0:
427,302,42700,1,8,0:0:0:0:
492,215,43155,1,4,1:2:0:0:
459,112,43609,1,8,0:0:0:0:
361,157,44064,6,0,P|302:165|234:143,1,120,4|8,1:0|3:2,0:0:0:0:
194,130,44746,1,2,1:2:0:0:
168,83,44973,2,0,L|186:24,2,60,0|2|8,3:2|0:0|3:2,0:0:0:0:
72,33,45882,2,0,L|54:90,1,60,0|0,3:2|0:0,0:0:0:0:
27,137,46337,2,0,P|53:190|38:267,1,120,8|0,3:2|3:2,0:0:0:0:
10,349,47246,1,8,3:2:0:0:
117,336,47700,6,0,P|171:313|240:336,1,120,0|8,3:2|3:2,0:0:0:0:
275,355,48382,1,2,1:2:0:0:
316,320,48609,2,0,L|329:253,1,60,0|2,3:2|0:0,0:0:0:0:
333,207,49064,1,8,3:2:0:0:
227,186,49518,2,0,B|165:199|165:199|92:155,1,120,0|8,3:2|3:2,0:0:0:0:
29,105,50428,1,0,3:2:0:0:
63,63,50655,1,2,0:2:0:0:
117,65,50882,1,8,3:2:0:0:
225,56,51337,6,0,P|243:117|221:180,1,120,0|8,3:2|3:2,0:0:0:0:
204,220,52018,1,2,1:2:0:0:
204,220,52246,2,0,L|139:194,2,60,0|2|8,3:2|0:0|3:2,0:0:0:0:
312,220,53155,2,0,L|370:197,1,60,0|0,3:2|0:0,0:0:0:0:
370,143,53609,2,0,P|350:98|367:28,1,120,8|0,3:2|3:2,0:0:0:0:
459,85,54519,1,8,3:2:0:0:
469,192,54973,6,0,P|489:237|472:307,1,120,0|8,3:2|3:2,0:0:0:0:
444,350,55655,1,2,1:2:0:0:
444,350,55882,2,0,L|513:366,2,60,0|2|8,3:2|0:0|3:2,0:0:0:0:
393,331,56564,2,0,P|334:319|267:344,1,120,0|0,1:2|1:2,0:0:0:0:
224,331,57246,2,0,P|198:267|218:217,2,120,8|0|0,0:0|3:0|0:0,0:0:0:0:
329,354,58609,5,6,3:2:0:0:
381,333,58837,1,0,0:0:0:0:
381,333,59064,2,0,L|394:269,1,60,8|0,0:0|0:0,0:0:0:0:
407,222,59518,2,0,P|423:152|403:98,1,120,2|8,3:2|0:0,0:0:0:0:
359,87,60200,2,0,P|305:120|225:112,1,120,2|2,0:0|0:0,0:0:0:0:
196,129,60882,2,0,P|191:171|197:194,1,60,8|0,0:0|0:0,0:0:0:0:
211,240,61337,2,0,L|280:228,2,60,2|0|8,3:2|0:0|0:0,0:0:0:0:
124,305,62246,5,2,3:2:0:0:
72,287,62473,1,0,0:0:0:0:
72,287,62700,2,0,L|62:221,1,60,8|0,0:0|0:0,0:0:0:0:
101,189,63155,2,0,P|122:146|99:71,1,120,2|8,3:2|0:0,0:0:0:0:
115,25,63837,2,0,B|255:33,1,120,2|0,0:0|0:0,0:0:0:0:
277,65,64518,1,8,0:0:0:0:
385,68,64973,2,0,P|393:31|387:-6,2,60,2|0|8,3:2|0:0|0:0,0:0:0:0:
390,176,65882,6,0,L|467:165,2,60,2|0|8,3:2|0:0|0:0,0:0:0:0:
337,166,66564,1,0,0:0:0:0:
300,205,66791,2,0,P|316:253|283:317,1,120,2|8,3:2|0:0,0:0:0:0:
234,320,67473,2,0,P|164:311|93:340,1,120,2|0,0:0|0:0,0:0:0:0:
64,316,68155,2,0,P|60:276|62:243,1,60,8|0,0:0|0:0,0:0:0:0:
76,204,68609,2,0,L|63:122,2,60,2|0|8,3:2|0:0|0:0,0:0:0:0:
164,141,69518,6,0,P|157:109|175:69,1,60,2|0,3:2|0:0,0:0:0:0:
215,65,69973,2,0,P|265:84|294:84,1,60,8|0,0:0|0:0,0:0:0:0:
325,85,70428,1,2,3:2:0:0:
359,193,70882,1,8,0:0:0:0:
359,193,71109,2,0,P|367:247|342:300,2,90,2|2|10,0:0|0:0|0:0,0:0:0:0:
318,158,72018,1,2,3:0:0:0:
266,173,72246,2,0,B|206:188|206:188|131:158,1,120,0|8,3:0|3:2,0:0:0:0:
99,72,73155,6,0,P|102:46|84:5,2,60,6|0|8,3:2|0:0|0:0,0:0:0:0:
78,124,73837,1,0,0:0:0:0:
78,124,74064,2,0,L|206:146,1,120,2|8,3:2|0:0,0:0:0:0:
236,181,74746,2,0,P|214:230|239:290,1,120,2|0,0:0|0:0,0:0:0:0:
288,308,75428,2,0,L|361:306,1,60,8|0,0:0|0:0,0:0:0:0:
388,270,75882,2,0,L|450:269,2,60,2|0|8,3:2|0:0|0:0,0:0:0:0:
348,169,76791,6,0,L|336:90,2,60,2|0|8,3:2|0:0|0:0,0:0:0:0:
323,219,77473,1,0,0:0:0:0:
323,219,77700,2,0,L|202:275,1,120,2|8,3:2|0:0,0:0:0:0:
170,302,78382,2,0,P|173:252|119:189,1,120,2|0,0:0|0:0,0:0:0:0:
83,178,79064,1,8,0:0:0:0:
127,80,79518,2,0,P|139:39|125:1,2,60,2|0|8,3:2|0:0|0:0,0:0:0:0:
204,156,80428,6,0,P|192:197|206:235,1,60,2|0,3:2|0:0,0:0:0:0:
209,265,80882,1,8,0:0:0:0:
263,260,81109,1,0,0:0:0:0:
307,292,81337,2,0,B|362:288|362:288|426:308,1,120,2|8,3:2|0:0,0:0:0:0:
474,327,82018,2,0,P|492:271|472:215,1,120,2|0,0:0|0:0,0:0:0:0:
426,187,82700,2,0,L|408:115,1,60,8|0,0:0|0:0,0:0:0:0:
365,101,83155,2,0,L|385:36,2,60,2|0|8,3:2|0:0|0:0,0:0:0:0:
266,145,84064,6,0,P|262:182|248:210,1,60,2|0,3:2|0:0,0:0:0:0:
233,253,84518,2,0,P|221:280|219:310,1,60,8|0,0:0|0:0,0:0:0:0:
249,356,84973,1,2,3:2:0:0:
360,342,85428,1,8,0:0:0:0:
360,342,85655,2,0,P|414:332|467:356,2,90,2|2|10,0:0|0:0|0:0,0:0:0:0:
309,361,86564,1,2,0:0:0:0:
260,338,86791,2,0,P|229:287|245:212,1,120,0|8,0:0|0:3,0:0:0:0:
300,143,87700,5,4,0:0:0:0:
256,192,87928,12,0,91337,0:0:0:0:
256,300,94973,6,0,P|292:284|321:259,1,60,4|0,3:2|0:0,0:0:0:0:
348,235,95428,2,0,L|367:160,1,60,8|0,0:0|0:0,0:0:0:0:
378,125,95882,2,0,P|433:141|473:131,2,90,0|0|0,3:2|0:0|3:2,0:0:0:0:
288,77,97018,1,0,0:0:0:0:
288,77,97246,2,0,L|256:128,1,60,8|0,0:0|0:0,0:0:0:0:
223,170,97700,2,0,B|165:149|165:149|90:156,1,120,0|8,3:2|0:0,0:0:0:0:
29,230,98609,6,0,P|17:198|14:166,2,60,0|0|8,3:2|0:0|0:0,0:0:0:0:
70,274,99291,1,0,0:0:0:0:
70,274,99518,2,0,L|174:264,1,90,0|0,3:2|0:0,0:0:0:0:
188,189,100200,2,0,L|169:85,2,90,0|0|8,3:2|0:0|0:0,0:0:0:0:
294,214,101337,2,0,L|306:285,1,60,0|0,3:2|0:0,0:0:0:0:
325,323,101791,2,0,L|408:338,1,60,8|0,0:0|0:0,0:0:0:0:
436,318,102246,6,0,P|464:267|443:208,1,120,0|8,1:2|3:2,0:0:0:0:
414,167,102928,1,2,1:2:0:0:
414,167,103155,2,0,P|419:134|436:110,2,60,0|2|8,3:2|0:0|3:2,0:0:0:0:
373,202,103837,2,0,P|323:240|245:243,1,120,0|0,0:0|0:0,0:0:0:0:
214,250,104518,1,8,3:2:0:0:
136,325,104973,2,0,P|89:307|18:314,1,120,0|8,3:2|3:2,0:0:0:0:
60,212,105882,6,0,P|38:165|69:98,1,120,0|8,3:2|3:2,0:0:0:0:
106,73,106564,1,2,1:2:0:0:
106,73,106791,2,0,P|85:44|75:5,2,60,0|2|8,3:2|0:0|3:2,0:0:0:0:
179,153,107700,1,0,3:2:0:0:
182,207,107928,1,0,0:0:0:0:
154,253,108155,2,0,P|158:284|177:322,1,60,8|0,3:2|0:0,0:0:0:0:
220,328,108609,2,0,P|243:324|300:320,2,60,0|2|8,3:2|0:0|3:2,0:0:0:0:
112,318,109518,6,0,P|74:273|87:216,1,120,0|8,3:2|3:2,0:0:0:0:
116,172,110200,1,2,1:2:0:0:
170,165,110428,2,0,P|169:128|186:101,2,60,0|2|8,0:0|0:0|3:2,0:0:0:0:
188,216,111109,2,0,P|217:228|324:226,1,120,0|0,1:2|0:0,0:0:0:0:
358,223,111791,1,8,3:2:0:0:
403,125,112246,2,0,L|392:55,1,60,0|2,3:2|1:2,0:0:0:0:
354,29,112700,1,8,3:2:0:0:
248,53,113155,6,0,P|188:79|123:63,1,120,0|8,3:2|3:2,0:0:0:0:
79,61,113837,1,2,1:2:0:0:
26,71,114064,2,0,P|37:32|32:6,2,60,0|2|8,3:2|0:0|3:2,0:0:0:0:
11,123,114746,2,0,P|1:177|28:244,1,120,0|0,1:2|1:2,0:0:0:0:
58,278,115428,2,0,L|182:306,1,120,8|8,3:2|3:3,0:0:0:0:
232,212,116337,1,8,3:3:0:0:
209,106,116791,5,6,3:2:0:0:
267,116,117018,1,0,0:0:0:0:
267,116,117246,2,0,L|340:83,1,60,8|0,0:0|0:0,0:0:0:0:
359,52,117700,2,0,P|401:78|477:82,1,120,2|8,3:2|0:0,0:0:0:0:
496,131,118382,2,0,P|474:195|476:265,1,120,2|0,0:0|0:0,0:0:0:0:
464,300,119064,2,0,L|398:296,1,60,8|0,0:0|0:0,0:0:0:0:
362,262,119518,2,0,L|386:191,2,60,2|0|8,3:2|0:0|0:0,0:0:0:0:
256,285,120428,6,0,L|267:349,2,60,2|0|8,3:2|0:0|0:0,0:0:0:0:
222,251,121110,1,0,0:0:0:0:
222,251,121337,2,0,B|197:198|197:198|210:138,1,120,2|8,3:2|0:0,0:0:0:0:
263,131,122018,2,0,B|288:184|288:184|275:244,1,120,2|0,0:0|0:0,0:0:0:0:
257,295,122700,1,8,0:0:0:0:
153,323,123155,2,0,L|84:331,2,60,2|0|8,3:2|0:0|0:0,0:0:0:0:
83,241,124064,6,0,L|14:250,2,60,2|0|8,3:2|0:0|0:0,0:0:0:0:
140,234,124746,1,0,0:0:0:0:
140,234,124973,2,0,B|198:254|198:254|272:222,1,120,2|8,3:2|0:0,0:0:0:0:
298,202,125655,2,0,P|354:183|413:191,1,120,2|0,0:0|0:0,0:0:0:0:
463,169,126337,2,0,L|472:107,1,60,8|0,0:0|0:0,0:0:0:0:
432,72,126791,2,0,L|426:8,2,60,2|0|8,3:2|0:0|0:0,0:0:0:0:
339,128,127700,6,0,P|327:172|344:205,1,60,2|0,3:2|0:0,0:0:0:0:
374,217,128155,2,0,P|383:257|374:296,1,60,8|0,0:0|0:0,0:0:0:0:
368,328,128609,1,2,3:2:0:0:
270,367,129064,1,8,0:0:0:0:
270,367,129291,2,0,P|204:351|166:356,2,90,2|2|10,0:0|0:0|0:0,0:0:0:0:
323,354,130200,1,2,3:0:0:0:
306,302,130428,2,0,P|265:258|264:194,1,120,0|8,3:0|3:2,0:0:0:0:
280,94,131337,5,6,3:2:0:0:
331,78,131564,1,0,0:0:0:0:
331,78,131791,2,0,L|397:84,1,60,8|0,0:0|0:0,0:0:0:0:
411,134,132246,2,0,P|418:193|381:251,1,120,2|8,3:2|0:0,0:0:0:0:
335,240,132928,2,0,P|268:226|210:255,1,120,2|0,0:0|0:0,0:0:0:0:
171,263,133609,2,0,L|114:234,1,60,8|0,0:0|0:0,0:0:0:0:
66,219,134064,2,0,L|13:271,2,60,2|0|8,3:2|0:0|0:0,0:0:0:0:
123,127,134973,6,0,L|143:62,2,60,2|0|8,3:2|0:0|0:0,0:0:0:0:
76,154,135655,1,0,0:0:0:0:
76,154,135882,2,0,P|92:211|81:270,1,120,2|8,3:2|0:0,0:0:0:0:
47,312,136564,2,0,L|192:333,1,120,2|0,0:0|0:0,0:0:0:0:
219,338,137246,1,8,0:0:0:0:
326,330,137700,2,0,L|400:319,2,60,2|0|8,3:2|0:0|0:0,0:0:0:0:
272,236,138609,5,2,3:2:0:0:
231,210,138837,1,0,0:0:0:0:
231,210,139064,2,0,L|223:141,1,60,8|0,0:0|0:0,0:0:0:0:
217,97,139518,2,0,P|284:106|343:79,1,120,2|8,3:2|0:0,0:0:0:0:
385,77,140200,2,0,P|380:135|414:209,1,120,2|0,0:0|0:0,0:0:0:0:
376,240,140882,2,0,L|318:267,1,60,8|0,0:0|0:0,0:0:0:0:
268,273,141337,2,0,L|180:284,2,60,2|0|8,3:2|0:0|0:0,0:0:0:0:
335,188,142246,6,0,L|398:178,2,60,2|0|8,3:2|0:0|0:0,0:0:0:0:
292,165,142928,1,0,0:0:0:0:
292,165,143155,2,0,L|229:175,2,60,2|0|8,3:2|0:0|0:0,0:0:0:0:
322,120,143837,1,2,0:0:0:0:
256,192,144064,12,4,145882,0:0:0:0:
256,192,160428,5,4,3:2:0:0:
256,192,160655,2,0,L|256:91,2,90,0|0|0,0:0|0:0|0:0,0:0:0:0:
279,241,161564,2,0,L|341:285,1,60,0|8,0:0|0:0,0:0:0:0:
372,307,162018,2,0,P|417:281|434:214,1,120,0|0,3:2|0:0,0:0:0:0:
436,114,162928,1,0,0:0:0:0:
436,114,163155,2,0,P|473:125|518:119,2,60,0|0|8,0:0|0:0|0:0,0:0:0:0:
386,93,163837,1,0,0:0:0:0:
339,120,164064,6,0,P|302:127|262:112,1,60,0|0,3:2|0:0,0:0:0:0:
228,112,164518,2,0,L|211:179,1,60,8|0,0:0|0:0,0:0:0:0:
179,212,164973,1,0,3:2:0:0:
85,261,165428,1,8,0:0:0:0:
85,261,165655,2,0,P|99:308|93:364,2,90,0|0|8,3:2|0:0|0:0,0:0:0:0:
39,232,166564,1,0,0:0:0:0:
59,182,166791,2,0,P|103:145|103:87,1,120,0|8,3:2|0:0,0:0:0:0:
209,63,167700,6,0,P|217:30|246:-12,2,60,4|0|8,3:2|0:0|0:0,0:0:0:0:
242,106,168382,1,0,0:0:0:0:
221,156,168609,2,0,P|229:189|258:231,2,60,0|0|8,3:2|0:0|0:0,0:0:0:0:
242,106,169291,2,0,B|285:136|324:95|366:129,1,120,0|0,3:2|0:0,0:0:0:0:
466,117,170200,1,0,0:0:0:0:
481,169,170428,2,0,P|493:252|466:288,1,120,0|8,3:2|0:0,0:0:0:0:
371,308,171337,6,0,P|333:301|299:275,1,60,4|0,3:2|0:0,0:0:0:0:
268,264,171791,1,8,0:0:0:0:
220,288,172018,1,0,0:0:0:0:
167,278,172246,2,0,P|157:253|134:227,2,60,4|0|8,3:2|0:0|0:0,0:0:0:0:
133,320,172928,2,0,P|70:339|27:326,2,90,4|4|12,3:2|3:2|3:2,0:0:0:0:
198,234,174064,2,0,P|218:184|169:117,1,120,0|8,3:0|3:0,0:0:0:0:
108,57,174973,6,0,P|121:28|122:-16,2,60,6|0|8,3:2|0:0|0:0,0:0:0:0:
70,96,175655,1,0,0:0:0:0:
97,143,175882,2,0,P|123:199|105:262,1,120,2|8,3:2|0:0,0:0:0:0:
94,305,176564,2,0,P|159:295|232:312,1,120,2|0,0:0|0:0,0:0:0:0:
257,333,177246,2,0,L|322:339,1,60,8|0,0:0|0:0,0:0:0:0:
358,304,177700,2,0,L|436:316,2,60,2|0|8,3:2|0:0|0:0,0:0:0:0:
269,242,178609,6,0,L|190:238,2,60,2|0|8,3:2|0:0|0:0,0:0:0:0:
310,278,179291,1,0,0:0:0:0:
310,278,179518,2,0,L|438:276,1,120,2|8,3:2|0:0,0:0:0:0:
483,264,180200,2,0,B|465:199|465:199|485:131,1,120,2|0,0:0|0:0,0:0:0:0:
506,101,180882,1,8,0:0:0:0:
401,74,181337,2,0,L|429:3,2,60,2|0|8,3:2|0:0|0:0,0:0:0:0:
308,129,182246,6,0,P|278:132|240:130,1,60,2|0,3:2|0:0,0:0:0:0:
195,121,182700,1,8,0:0:0:0:
154,156,182928,1,0,0:0:0:0:
165,209,183155,2,0,P|175:264|139:322,1,120,2|8,3:2|0:0,0:0:0:0:
91,324,183837,2,0,P|50:286|45:218,1,120,2|0,0:0|0:0,0:0:0:0:
51,172,184518,2,0,L|83:113,1,60,8|0,0:0|0:0,0:0:0:0:
63,68,184973,2,0,L|-16:54,2,60,2|0|8,3:2|0:0|0:0,0:0:0:0:
159,117,185882,6,0,L|93:148,2,60,2|0|8,3:2|0:0|0:0,0:0:0:0:
210,99,186564,1,0,0:0:0:0:
263,103,186791,1,2,3:2:0:0:
364,58,187246,1,8,0:0:0:0:
364,58,187473,2,0,B|412:71|467:46,2,90,2|2|10,0:0|0:0|0:0,0:0:0:0:
313,40,188382,1,2,0:0:0:0:
271,74,188609,2,0,P|266:129|306:179,1,120,0|8,3:0|3:2,0:0:0:0:
305,286,189518,6,0,L|366:321,2,60,4|2|8,0:0|0:0|0:0,0:0:0:0:
256,309,190200,1,2,0:0:0:0:
207,286,190428,2,0,L|146:321,2,60,0|0|8,0:0|0:0|0:0,0:0:0:0:
168,185,191337,2,0,P|196:176|219:157,1,60,0|2,0:0|0:0,0:0:0:0:
256,117,191791,1,8,0:0:0:0:
292,157,192018,1,2,0:0:0:0:
292,157,192246,2,0,P|315:176|344:185,2,60,0|0|8,0:0|0:0|0:0,0:0:0:0:
212,83,193155,6,0,P|189:102|160:111,1,60,0|2,0:0|0:0,0:0:0:0:
108,121,193609,1,8,0:0:0:0:
65,88,193837,1,2,0:0:0:0:
23,122,194064,2,0,P|27:171|7:202,1,60,0|0,0:0|0:0,0:0:0:0:
3,230,194518,1,8,0:0:0:0:
38,271,194746,1,2,0:0:0:0:
141,240,195200,1,2,0:0:0:0:
220,322,195655,1,2,0:0:0:0:
220,322,195882,2,0,L|298:339,1,60,0|2,0:0|0:0,0:0:0:0:
331,348,196337,1,8,0:0:0:0:
432,310,196791,6,0,P|444:344|444:370,2,60,0|2|8,0:0|0:0|0:0,0:0:0:0:
411,266,197473,1,2,0:0:0:0:
411,266,197700,2,0,P|400:226|399:186,1,60,0|0,0:0|0:0,0:0:0:0:
412,155,198155,1,8,0:0:0:0:
326,90,198609,2,0,P|277:90|251:78,1,60,0|2,0:0|0:0,0:0:0:0:
220,60,199064,1,8,0:0:0:0:
172,79,199291,1,2,0:0:0:0:
172,79,199518,2,0,P|187:115|186:158,2,60,0|0|8,0:0|0:0|0:0,0:0:0:0:
267,27,200428,5,0,0:0:0:0:
306,72,200655,1,2,0:0:0:0:
306,72,200882,2,0,L|382:71,1,60,8|2,0:0|0:0,0:0:0:0:
409,104,201337,2,0,P|414:133|427:160,1,60,0|0,0:0|0:0,0:0:0:0:
465,207,201791,1,8,0:0:0:0:
465,207,202018,1,2,0:0:0:0:
380,274,202473,1,2,0:0:0:0:
283,239,202928,1,2,0:0:0:0:
283,239,203155,2,0,P|283:267|264:305,2,60,0|0|8,3:0|3:0|3:2,0:0:0:0:
256,192,203837,1,0,0:0:0:0:
