osu file format v14

[General]
AudioFilename: Sakura Uta (Arranged by KaNa).mp3
AudioLeadIn: 0
PreviewTime: 58609
Countdown: 0
SampleSet: Soft
StackLeniency: 0.7
Mode: 0
LetterboxInBreaks: 0
WidescreenStoryboard: 0

[Editor]
DistanceSpacing: 1.3
BeatDivisor: 4
GridSize: 4
TimelineZoom: 1

[Metadata]
Title:Sakura Uta
TitleUnicode:サクラウタ
Artist:Silver Forest feat. Aki
ArtistUnicode:Silver Forest feat. アキ
Creator:RVMathew
Version:Hard
Source:東方神霊廟 ~ Ten Desires.
Tags:Sweet Little Lily Touhou Project Shinreibyou Toho Track 07 ZUN Reimu Hakurei 死霊の夜桜 Night Sakura of Dead Spirits Kana Ijuin Stage 1 theme
BeatmapID:1361721
BeatmapSetID:587754

[Difficulty]
HPDrainRate:5
CircleSize:4
OverallDifficulty:5
ApproachRate:7
SliderMultiplier:1.2
SliderTickRate:1

[Events]
//Background and Video events
0,0,"hakurei-reimu-spring-1920x1080.jpg",0,0
//Break Periods
2,91537,93618
2,146082,159528
//Storyboard Layer 0 (Background)
//Storyboard Layer 1 (Fail)
//Storyboard Layer 2 (Pass)
//Storyboard Layer 3 (Foreground)
//Storyboard Sound Samples

[TimingPoints]
428,454.5454545455,4,2,1,43,1,0
428,-125,4,2,1,43,0,0
14973,-100,4,2,2,69,0,0
29518,-99.9999999999999,4,2,1,69,0,0
58609,-100,4,2,2,75,0,1
72246,-100,4,2,2,75,0,0
73155,-90.9090909090909,4,2,2,75,0,1
87700,-100,4,2,1,69,0,0
89291,-100,4,2,1,60,0,0
94973,-100,4,2,1,69,0,0
116791,-100,4,2,2,75,0,1
130428,-100,4,2,2,75,0,0
131337,-90.9090909090909,4,2,2,75,0,1
145882,-142.857142857143,4,2,1,69,0,0
160428,-100,4,2,1,69,0,0
174973,-83.3333333333333,4,2,2,75,0,1
188609,-83.3333333333333,4,2,2,59,0,0
189518,-100,4,2,1,59,0,0

[Colours]
Combo1 : 255,183,197
Combo2 : 255,62,197
Combo3 : 215,0,5

[HitObjects]
201,69,14518,5,0,1:0:0:0:
350,117,14973,6,0,L|420:74,2,60,4|0|8,0:0|0:0|3:2,0:0:0:0:
284,159,15655,1,0,0:0:0:0:
334,219,15882,2,0,P|347:268|317:317,2,90,2|2|2,3:2|1:2|1:2,0:0:0:0:
284,159,16791,6,0,L|201:173,1,60,0|0,3:2|0:0,0:0:0:0:
185,236,17246,2,0,L|102:250,1,60,8|0,3:2|0:0,0:0:0:0:
66,196,17700,2,0,P|68:145|29:100,2,90,2|2|2,3:2|1:2|1:2,0:0:0:0:
29,265,18609,6,0,P|34:300|64:338,1,60,0|0,3:2|0:0,0:0:0:0:
119,349,19064,2,0,L|202:337,1,60,8|0,3:2|0:0,0:0:0:0:
228,280,19518,2,0,L|321:266,2,90,2|2|2,3:2|1:2|1:2,0:0:0:0:
164,234,20428,6,0,P|151:206|147:177,1,60,0|0,3:2|0:0,0:0:0:0:
198,118,20883,2,0,L|256:104,1,60,8|0,3:2|0:0,0:0:0:0:
216,37,21337,2,0,L|128:57,2,90,2|2|2,3:2|1:2|1:2,0:0:0:0:
293,22,22246,5,0,3:2:0:0:
353,71,22474,1,0,0:0:0:0:
353,71,22701,2,0,P|348:112|368:152,1,60,8|0,3:2|0:0,0:0:0:0:
378,203,23155,2,0,P|418:188|490:200,2,90,2|2|2,3:2|1:2|1:2,0:0:0:0:
306,234,24064,6,0,L|222:205,1,60,0|0,3:2|0:0,0:0:0:0:
179,248,24518,1,8,3:2:0:0:
114,204,24746,1,0,0:0:0:0:
114,204,24973,2,0,P|127:158|96:104,2,90,2|2|2,3:2|1:2|1:2,0:0:0:0:
65,265,25882,6,0,P|54:301|69:344,1,60,0|0,3:2|0:0,0:0:0:0:
123,364,26337,1,8,3:2:0:0:
197,339,26564,1,0,0:0:0:0:
271,364,26791,2,0,P|310:368|378:334,2,90,2|2|2,3:2|1:2|1:2,0:0:0:0:
197,339,27700,5,0,3:2:0:0:
168,266,27928,1,4,0:0:0:0:
204,197,28155,1,8,3:2:0:0:
280,181,28382,1,4,0:0:0:0:
344,225,28609,1,8,0:3:0:0:
392,163,28837,2,0,L|417:125,2,30,4|0|8,0:3|0:0|0:0,0:0:0:0:
344,225,29291,1,4,0:3:0:0:
270,249,29518,6,0,P|201:240|130:271,1,120,4|8,1:0|0:0,0:0:0:0:
78,274,30200,2,0,P|45:224|61:158,1,120,0|2,1:2|0:0,0:0:0:0:
96,101,30882,1,8,0:0:0:0:
171,121,31109,6,0,L|309:103,1,120,0|0,3:2|0:0,0:0:0:0:
359,141,31791,2,0,L|369:204,1,60,10|0,0:0|0:0,0:0:0:0:
439,167,32246,2,0,L|449:230,1,60,0|2,3:2|0:0,0:0:0:0:
384,270,32700,2,0,P|381:301|393:343,1,60,8|0,0:0|0:0,0:0:0:0:
311,349,33155,6,0,L|178:358,1,120,0|8,3:1|0:0,0:0:0:0:
116,335,33837,2,0,P|85:293|103:220,1,120,0|2,1:2|0:0,0:0:0:0:
153,177,34518,2,0,P|167:145|161:100,1,60,8|0,0:0|3:2,0:0:0:0:
117,60,34973,6,0,L|63:22,2,60,0|0|10,0:0|0:0|0:0,0:0:0:0:
167,120,35655,1,0,0:0:0:0:
194,46,35882,1,0,3:2:0:0:
117,60,36109,1,2,0:2:0:0:
167,120,36337,1,8,0:0:0:0:
106,168,36564,1,0,0:2:0:0:
106,168,36791,6,0,P|83:231|97:291,1,120,0|8,3:2|1:2,0:0:0:0:
154,330,37473,2,0,B|211:346|211:346|285:312,1,120,0|2,1:2|0:0,0:0:0:0:
335,283,38155,1,8,0:0:0:0:
411,300,38382,6,0,P|438:252|414:173,1,120,0|0,3:2|0:0,0:0:0:0:
364,144,39064,2,0,L|300:125,1,60,10|0,0:0|0:0,0:0:0:0:
229,136,39518,1,0,3:2:0:0:
269,203,39746,1,2,0:0:0:0:
269,203,39973,2,0,L|326:220,1,60,8|0,0:0|0:0,0:0:0:0:
324,298,40428,6,0,B|274:329|274:329|212:308,1,120,0|8,3:2|0:0,0:0:0:0:
151,266,41109,2,0,P|165:228|144:146,1,120,0|2,1:2|0:0,0:0:0:0:
108,86,41791,1,8,0:0:0:0:
161,29,42018,6,0,P|182:56|180:105,1,60,0|0,1:2|0:0,0:0:0:0:
225,149,42473,2,0,B|255:156|255:156|283:149,1,60,0|8,1:2|0:0,0:0:0:0:
358,125,42928,1,2,0:0:0:0:
369,202,43155,2,0,P|362:234|338:269,1,60,4|0,1:2|0:0,0:0:0:0:
291,309,43609,1,8,0:0:0:0:
364,337,43837,1,0,3:0:0:0:
291,309,44064,6,0,P|233:303|164:320,1,120,4|8,1:0|3:2,0:0:0:0:
98,338,44746,1,2,1:2:0:0:
54,274,44973,2,0,P|41:248|31:196,1,60,0|2,3:2|0:0,0:0:0:0:
55,143,45428,1,8,3:2:0:0:
129,168,45655,1,0,1:2:0:0:
201,139,45882,6,0,P|213:108|205:57,1,60,0|0,3:2|0:0,0:0:0:0:
149,37,46337,2,0,P|137:68|145:119,1,60,8|2,3:2|0:0,0:0:0:0:
201,139,46791,2,0,P|233:142|267:164,1,60,0|2,3:2|0:0,0:0:0:0:
236,230,47246,2,0,P|204:227|170:205,1,60,8|0,3:2|0:0,0:0:0:0:
108,183,47700,6,0,P|73:224|91:299,1,120,0|8,3:2|3:2,0:0:0:0:
109,359,48382,1,2,1:2:0:0:
109,359,48609,2,0,P|71:355|23:369,2,60,0|2|8,3:2|0:0|3:2,0:0:0:0:
187,368,49291,1,0,0:0:0:0:
254,328,49518,6,0,L|282:262,1,60,0|0,3:2|0:0,0:0:0:0:
199,267,49973,2,0,L|227:201,1,60,8|2,3:2|0:0,0:0:0:0:
287,168,50428,1,0,3:2:0:0:
244,103,50655,1,2,0:2:0:0:
317,76,50882,2,0,B|348:75|348:75|376:63,1,60,8|0,3:2|0:2,0:0:0:0:
448,91,51337,6,0,P|474:151|446:219,1,120,0|8,3:2|3:2,0:0:0:0:
413,263,52018,1,2,1:2:0:0:
452,331,52246,2,0,L|540:331,2,60,0|2|8,3:2|0:0|3:2,0:0:0:0:
413,263,52928,1,0,1:2:0:0:
413,263,53155,6,0,L|335:263,1,60,0|0,3:2|0:0,0:0:0:0:
321,192,53609,2,0,L|253:192,1,60,8|2,3:2|0:0,0:0:0:0:
200,241,54064,1,0,3:2:0:0:
160,174,54291,1,2,1:2:0:0:
160,174,54518,2,0,P|152:142|160:105,1,60,8|0,3:2|0:0,0:0:0:0:
220,71,54973,6,0,P|277:84|339:63,1,120,0|8,3:2|3:2,0:0:0:0:
398,20,55655,1,2,1:2:0:0:
438,87,55882,2,0,L|521:87,2,60,0|2|8,3:2|0:0|3:2,0:0:0:0:
389,148,56564,6,0,P|414:199|385:260,1,120,0|0,1:2|1:2,0:0:0:0:
327,299,57246,1,8,0:0:0:0:
255,269,57473,1,0,3:0:0:0:
208,331,57700,1,0,3:0:0:0:
133,309,57928,1,0,3:0:0:0:
134,231,58155,1,8,3:2:0:0:
208,207,58382,1,0,3:0:0:0:
255,269,58609,6,0,L|327:286,1,60,6|0,3:2|0:0,0:0:0:0:
360,220,59064,2,0,L|301:206,1,60,8|0,0:0|0:0,0:0:0:0:
252,146,59518,2,0,P|246:116|256:79,1,60,2|0,3:2|0:0,0:0:0:0:
273,12,59973,1,8,0:0:0:0:
251,87,60200,6,0,L|191:87,1,60,2|0,0:0|3:2,0:0:0:0:
122,50,60655,1,0,0:0:0:0:
188,9,60882,1,8,0:0:0:0:
191,87,61109,1,0,0:0:0:0:
136,143,61337,2,0,B|146:174|146:174|138:211,1,60,2|0,3:2|0:0,0:0:0:0:
131,278,61791,2,0,P|162:274|197:278,1,60,8|0,0:0|0:0,0:0:0:0:
265,252,62246,6,0,P|269:220|255:184,1,60,2|0,3:2|0:0,0:0:0:0:
187,169,62700,1,8,0:0:0:0:
154,98,62928,1,0,0:0:0:0:
82,128,63155,2,0,P|47:129|12:116,2,60,2|0|8,3:2|0:0|0:0,0:0:0:0:
154,98,63837,6,0,L|181:155,1,60,2|0,0:0|3:2,0:0:0:0:
214,222,64291,1,0,0:0:0:0:
246,293,64518,2,0,P|280:291|317:299,1,60,8|0,0:0|0:0,0:0:0:0:
366,345,64973,1,2,3:2:0:0:
433,305,65200,2,0,P|460:293|490:291,2,60,0|8|0,0:0|0:0|0:0,0:0:0:0:
366,345,65882,6,0,L|340:269,1,60,2|0,3:2|0:0,0:0:0:0:
321,214,66337,1,8,0:0:0:0:
248,186,66564,1,0,0:0:0:0:
248,186,66791,2,0,L|222:110,1,60,2|0,3:2|0:0,0:0:0:0:
203,55,67246,1,8,0:0:0:0:
279,71,67473,6,0,L|345:90,1,60,2|0,0:0|3:2,0:0:0:0:
412,108,67928,1,0,0:0:0:0:
392,33,68154,1,8,0:0:0:0:
336,88,68382,1,0,0:0:0:0:
287,148,68609,2,0,P|284:183|298:222,1,60,2|0,3:2|0:0,0:0:0:0:
339,268,69064,1,8,0:0:0:0:
367,195,69291,1,0,0:0:0:0:
290,206,69518,6,0,P|258:213|218:195,1,60,2|0,3:2|0:0,0:0:0:0:
157,184,69973,2,0,L|129:256,1,60,8|0,0:0|0:0,0:0:0:0:
76,189,70428,2,0,L|97:133,1,60,2|0,3:2|0:0,0:0:0:0:
165,94,70882,1,8,0:0:0:0:
165,94,71109,6,0,P|173:50|136:0,2,90,2|2|10,0:0|0:0|0:0,0:0:0:0:
97,133,72018,1,2,3:0:0:0:
115,209,72246,2,0,L|126:251,3,30,0|0|0|0,3:0|3:0|3:0|3:0,0:0:0:0:
130,261,72700,2,0,P|169:263|209:284,1,60,8|0,3:2|0:0,0:0:0:0:
256,323,73155,5,6,3:2:0:0:
323,270,73382,1,0,0:0:0:0:
395,317,73609,2,0,B|471:317,2,66.0000020141602,8|0|2,0:0|0:0|3:2,0:0:0:0:
323,270,74291,1,0,0:0:0:0:
364,195,74518,1,8,0:0:0:0:
290,150,74746,6,0,P|278:115|286:78,1,66.0000020141602,2|0,0:0|3:2,0:0:0:0:
338,22,75200,1,0,0:0:0:0:
416,59,75428,2,0,P|427:94|418:136,1,66.0000020141602,8|0,0:0|0:0,0:0:0:0:
397,204,75882,2,0,P|430:192|462:197,2,66.0000020141602,2|0|8,3:2|0:0|0:0,0:0:0:0:
316,234,76564,1,0,0:0:0:0:
232,216,76791,6,0,P|195:208|163:210,1,66.0000020141602,2|0,3:2|0:0,0:0:0:0:
85,236,77246,1,8,0:0:0:0:
25,175,77473,1,0,0:0:0:0:
104,142,77700,2,0,L|122:66,1,66.0000020141602,2|0,3:2|0:0,0:0:0:0:
181,18,78155,1,8,0:0:0:0:
240,80,78382,6,0,L|309:80,1,66.0000020141602,2|0,0:0|3:2,0:0:0:0:
371,24,78837,1,0,0:0:0:0:
424,91,79064,2,0,P|436:127|422:168,1,66.0000020141602,8|0,0:0|0:0,0:0:0:0:
382,224,79518,1,2,3:2:0:0:
313,172,79746,1,0,0:0:0:0:
296,256,79973,2,0,P|290:293|307:336,1,66.0000020141602,8|0,0:0|0:0,0:0:0:0:
374,359,80428,6,0,P|405:363|454:351,1,66.0000020141602,2|0,3:2|0:0,0:0:0:0:
512,312,80882,1,8,0:0:0:0:
437,271,81109,1,0,0:0:0:0:
353,290,81337,2,0,P|322:286|273:298,1,66.0000020141602,2|0,3:2|0:0,0:0:0:0:
215,337,81791,1,8,0:0:0:0:
130,324,82018,6,0,P|116:293|139:248,1,66.0000020141602,2|0,0:0|3:2,0:0:0:0:
198,220,82473,1,0,0:0:0:0:
177,137,82700,1,8,0:0:0:0:
240,78,82928,1,0,0:0:0:0:
240,78,83155,2,0,P|253:51|252:16,2,66.0000020141602,2|0|8,3:2|0:0|0:0,0:0:0:0:
177,137,83837,1,0,0:0:0:0:
101,176,84064,6,0,L|37:163,1,66.0000020141602,2|0,3:2|0:0,0:0:0:0:
45,248,84518,2,0,L|116:261,1,66.0000020141602,8|0,0:0|0:0,0:0:0:0:
195,271,84973,2,0,L|205:335,1,66.0000020141602,2|0,3:2|0:0,0:0:0:0:
294,352,85428,1,8,0:0:0:0:
294,352,85655,6,0,L|279:255,2,99.0000030212403,2|2|10,0:0|0:0|0:0,0:0:0:0:
364,302,86564,1,2,0:0:0:0:
423,240,86791,1,0,0:0:0:0:
445,323,87018,2,0,L|456:364,2,33.0000010070801,4|0|8,0:3|0:0|0:3,0:0:0:0:
423,240,87473,1,0,0:0:0:0:
400,159,87700,5,4,0:0:0:0:
256,192,87928,12,0,91337,0:0:0:0:
173,300,94518,5,0,0:0:0:0:
215,366,94746,1,0,0:0:0:0:
256,300,94973,6,0,P|283:272|321:259,1,60,4|0,3:2|0:0,0:0:0:0:
376,239,95428,2,0,L|395:164,1,60,8|0,0:0|0:0,0:0:0:0:
384,103,95882,2,0,P|439:119|479:109,2,90,0|0|0,3:2|0:0|3:2,0:0:0:0:
250,32,97018,5,0,0:0:0:0:
250,32,97246,2,0,P|243:66|254:109,1,60,8|0,0:0|0:0,0:0:0:0:
267,166,97700,1,0,3:2:0:0:
197,196,97928,1,0,0:0:0:0:
197,196,98155,2,0,P|164:207|132:203,1,60,8|0,0:0|0:0,0:0:0:0:
92,143,98609,6,0,P|104:111|107:79,2,60,0|0|8,3:2|0:0|0:0,0:0:0:0:
42,203,99291,1,0,0:0:0:0:
47,281,99518,2,0,P|102:294|146:323,1,90,0|0,3:2|0:0,0:0:0:0:
239,355,100200,6,0,L|347:331,1,90,0|0,3:2|0:0,0:0:0:0:
439,300,100882,1,8,0:0:0:0:
386,250,101109,1,0,0:0:0:0:
386,250,101337,2,0,P|382:220|356:186,1,60,0|0,3:2|0:0,0:0:0:0:
289,200,101791,2,0,P|271:165|275:118,1,60,8|0,0:0|0:0,0:0:0:0:
292,70,102246,6,0,P|343:98|401:87,1,120,4|8,1:2|3:2,0:0:0:0:
473,55,102928,1,2,1:2:0:0:
473,55,103155,2,0,P|478:22|495:-2,2,60,0|2|8,3:2|0:0|3:2,0:0:0:0:
465,133,103837,1,0,0:0:0:0:
419,196,104064,6,0,P|386:195|337:212,1,60,0|0,3:2|0:0,0:0:0:0:
332,274,104518,2,0,P|318:310|290:336,1,60,8|0,3:2|0:0,0:0:0:0:
227,311,104973,2,0,P|172:288|114:298,1,120,0|8,3:2|3:2,0:0:0:0:
38,316,105655,1,2,0:0:0:0:
58,241,105882,6,0,P|75:195|60:122,1,120,0|8,3:2|3:2,0:0:0:0:
36,53,106564,1,2,1:2:0:0:
112,35,106791,2,0,L|194:45,2,60,0|2|8,3:2|0:0|3:2,0:0:0:0:
36,53,107473,1,0,0:0:0:0:
61,127,107700,6,0,L|120:134,1,60,0|0,3:2|0:0,0:0:0:0:
179,186,108155,2,0,P|183:217|202:255,1,60,8|0,3:2|0:0,0:0:0:0:
261,283,108609,2,0,L|343:283,1,60,0|2,3:2|0:0,0:0:0:0:
309,361,109064,2,0,L|249:361,1,60,8|2,3:2|0:2,0:0:0:0:
184,317,109518,6,0,P|146:272|159:215,1,120,0|8,3:2|3:2,0:0:0:0:
209,155,110200,1,2,1:2:0:0:
254,91,110428,2,0,P|255:54|238:27,2,60,0|2|8,0:0|0:0|3:2,0:0:0:0:
209,155,111109,1,0,1:2:0:0:
258,216,111337,6,0,P|298:220|334:233,1,60,0|0,3:2|0:0,0:0:0:0:
392,246,111791,2,0,P|427:195|415:121,1,120,8|0,3:2|3:2,0:0:0:0:
398,65,112473,1,2,1:2:0:0:
398,65,112700,2,0,L|320:74,1,60,8|0,3:2|0:0,0:0:0:0:
260,76,113155,6,0,P|201:77|125:59,1,120,0|8,3:2|3:2,0:0:0:0:
68,38,113837,1,2,1:2:0:0:
43,112,114064,2,0,P|51:149|45:191,1,60,0|2,3:2|0:0,0:0:0:0:
20,242,114518,1,8,3:2:0:0:
83,288,114746,6,0,P|140:281|206:318,1,120,0|0,1:2|1:2,0:0:0:0:
261,349,115428,2,0,L|325:334,1,60,8|0,3:2|0:0,0:0:0:0:
379,285,115882,2,0,L|386:241,1,30,8|8,3:3|3:3,0:0:0:0:
321,209,116223,2,0,L|328:165,1,30,8|8,3:3|3:3,0:0:0:0:
378,121,116564,1,0,0:0:0:0:
322,67,116791,6,0,P|315:27|327:-10,2,60,6|0|8,3:2|0:0|0:0,0:0:0:0:
378,121,117473,1,0,0:0:0:0:
432,177,117700,2,0,P|439:217|427:254,1,60,2|0,3:2|0:0,0:0:0:0:
397,304,118155,1,8,0:0:0:0:
331,345,118382,6,0,L|271:338,1,60,2|0,0:0|3:2,0:0:0:0:
195,322,118836,1,0,0:0:0:0:
147,260,119064,1,8,0:0:0:0:
74,288,119291,1,0,0:0:0:0:
42,217,119518,2,0,L|12:146,2,60,2|0|8,3:2|0:0|0:0,0:0:0:0:
74,288,120200,1,0,0:0:0:0:
145,256,120428,6,0,L|115:185,1,60,2|0,3:2|0:0,0:0:0:0:
155,130,120882,1,8,0:0:0:0:
227,101,121109,1,0,0:0:0:0:
227,101,121337,2,0,L|244:35,2,60,2|0|8,3:2|0:0|0:0,0:0:0:0:
195,172,122018,6,0,P|205:199|199:230,1,60,2|0,0:0|3:2,0:0:0:0:
171,302,122473,1,0,0:0:0:0:
241,336,122700,1,8,0:0:0:0:
308,296,122928,1,0,0:0:0:0:
356,357,123155,2,0,L|442:357,1,60,2|0,3:2|0:0,0:0:0:0:
448,286,123609,2,0,L|369:286,1,60,8|0,0:0|0:0,0:0:0:0:
347,219,124064,6,0,P|358:191|353:147,1,60,2|0,3:2|0:0,0:0:0:0:
291,119,124518,1,8,0:0:0:0:
361,84,124746,1,0,0:0:0:0:
358,162,124973,2,0,L|441:189,1,60,2|0,3:2|0:0,0:0:0:0:
477,228,125428,1,8,0:0:0:0:
445,299,125655,6,0,P|415:294|385:295,1,60,2|0,0:0|3:2,0:0:0:0:
311,318,126109,1,0,0:0:0:0:
241,353,126337,1,8,0:0:0:0:
182,302,126564,1,0,0:0:0:0:
218,233,126791,1,2,3:2:0:0:
295,246,127018,1,0,0:0:0:0:
353,193,127246,2,0,P|374:156|374:120,1,60,8|0,0:0|0:0,0:0:0:0:
335,73,127700,6,0,L|276:58,1,60,2|0,3:2|0:0,0:0:0:0:
271,136,128155,2,0,L|212:121,1,60,8|0,0:0|0:0,0:0:0:0:
146,161,128609,2,0,P|144:200|123:237,1,60,2|0,3:2|0:0,0:0:0:0:
107,292,129064,1,8,0:0:0:0:
107,292,129291,6,0,P|156:301|204:335,2,90,2|2|10,0:0|0:0|0:0,0:0:0:0:
30,277,130200,1,2,3:0:0:0:
15,200,130428,2,0,L|43:159,3,30,0|0|0|0,3:0|3:0|3:0|3:0,0:0:0:0:
45,155,130882,1,8,3:2:0:0:
20,81,131109,1,0,0:0:0:0:
85,37,131337,5,6,3:2:0:0:
155,86,131564,1,0,0:0:0:0:
238,64,131791,2,0,L|314:46,1,66.0000020141602,8|0,0:0|0:0,0:0:0:0:
386,29,132246,1,2,3:2:0:0:
361,111,132473,1,0,0:0:0:0:
302,49,132700,1,8,0:0:0:0:
361,111,132928,6,0,L|366:184,1,66.0000020141602,2|0,0:0|3:2,0:0:0:0:
421,242,133382,1,0,0:0:0:0:
363,305,133609,1,8,0:0:0:0:
435,361,133837,1,0,0:0:0:0:
435,361,134064,2,0,L|516:361,1,66.0000020141602,2|0,3:2|0:0,0:0:0:0:
475,279,134518,2,0,L|381:279,1,66.0000020141602,8|0,0:0|0:0,0:0:0:0:
324,293,134973,6,0,P|314:265|320:217,1,66.0000020141602,2|0,3:2|0:0,0:0:0:0:
339,146,135428,1,8,0:0:0:0:
260,112,135655,1,0,0:0:0:0:
176,130,135882,2,0,P|136:122|109:100,2,66.0000020141602,2|0|8,3:2|0:0|0:0,0:0:0:0:
260,112,136564,6,0,P|264:144|256:176,1,66.0000020141602,2|0,0:0|3:2,0:0:0:0:
194,235,137018,1,0,0:0:0:0:
250,300,137246,1,8,0:0:0:0:
198,368,137473,1,0,0:0:0:0:
250,300,137700,2,0,L|336:300,1,66.0000020141602,2|0,3:2|0:0,0:0:0:0:
400,281,138155,1,8,0:0:0:0:
378,198,138382,1,0,0:0:0:0:
294,216,138609,6,0,L|227:216,1,66.0000020141602,2|0,3:2|0:0,0:0:0:0:
205,133,139064,2,0,L|138:133,1,66.0000020141602,8|0,0:0|0:0,0:0:0:0:
59,102,139518,2,0,P|51:69|59:35,1,66.0000020141602,2|0,3:2|0:0,0:0:0:0:
136,2,139973,1,8,0:0:0:0:
209,46,140200,6,0,P|239:53|274:50,1,66.0000020141602,2|0,0:0|3:2,0:0:0:0:
358,34,140655,1,0,0:0:0:0:
437,1,140882,1,8,0:0:0:0:
486,71,141109,1,0,0:0:0:0:
408,107,141337,2,0,P|398:139|413:187,1,66.0000020141602,2|0,3:2|0:0,0:0:0:0:
464,231,141791,2,0,P|466:260|454:300,1,66.0000020141602,8|0,0:0|0:0,0:0:0:0:
410,368,142246,6,0,P|442:367|484:379,2,66.0000020141602,2|0|8,3:2|0:0|0:0,0:0:0:0:
325,353,142928,1,0,0:0:0:0:
303,270,143155,2,0,P|313:230|310:189,2,66.0000020141602,2|0|8,3:2|0:0|0:0,0:0:0:0:
234,321,143837,1,2,0:0:0:0:
256,192,144064,12,4,145882,0:0:0:0:
256,192,160428,5,4,3:2:0:0:
256,192,160655,2,0,L|256:91,2,90,0|0|0,0:0|0:0|0:0,0:0:0:0:
279,267,161564,2,0,L|341:311,1,60,0|8,0:0|0:0,0:0:0:0:
395,341,162018,6,0,P|440:315|457:248,1,120,0|0,3:2|0:0,0:0:0:0:
420,184,162700,1,8,0:0:0:0:
449,111,162928,1,0,0:0:0:0:
449,111,163155,2,0,P|486:122|531:116,2,60,0|0|8,0:0|0:0|0:0,0:0:0:0:
379,76,163837,1,0,0:0:0:0:
312,116,164064,6,0,P|275:123|235:108,1,60,0|0,3:2|0:0,0:0:0:0:
183,85,164518,1,8,0:0:0:0:
146,154,164746,1,0,0:0:0:0:
213,194,164973,2,0,P|227:230|224:260,1,60,0|0,3:2|0:0,0:0:0:0:
188,319,165428,1,8,0:0:0:0:
188,319,165655,6,0,P|233:304|291:311,2,90,0|0|8,3:2|0:0|0:0,0:0:0:0:
115,348,166564,1,0,0:0:0:0:
59,294,166791,2,0,P|44:267|44:238,1,60,0|0,3:2|0:0,0:0:0:0:
104,188,167246,2,0,P|103:158|89:132,1,60,8|0,0:0|0:0,0:0:0:0:
60,60,167700,6,0,P|25:63|-15:54,2,60,4|0|8,3:2|0:0|0:0,0:0:0:0:
131,28,168382,1,0,0:0:0:0:
155,102,168609,2,0,P|163:135|192:177,1,60,0|0,3:2|0:0,0:0:0:0:
220,222,169064,1,8,0:0:0:0:
220,222,169291,6,0,B|269:196|295:243|346:211,1,120,0|0,3:2|0:0,0:0:0:0:
411,191,169973,1,8,0:0:0:0:
409,113,170200,1,0,0:0:0:0:
336,84,170428,1,0,3:2:0:0:
295,150,170655,1,0,0:0:0:0:
336,216,170882,2,0,P|348:245|328:294,1,60,8|0,0:0|0:0,0:0:0:0:
284,323,171337,6,0,P|257:310|221:308,1,60,4|0,3:2|0:0,0:0:0:0:
155,333,171791,1,8,0:0:0:0:
92,287,172018,1,0,0:0:0:0:
92,287,172246,2,0,P|82:312|59:338,2,60,4|0|8,3:2|0:0|0:0,0:0:0:0:
78,210,172928,5,4,3:2:0:0:
143,113,173268,1,4,3:2:0:0:
257,138,173609,1,12,3:2:0:0:
314,84,173837,1,0,3:0:0:0:
387,112,174064,2,0,L|414:147,3,30,0|0|0|0,3:0|3:0|3:0|3:0,0:0:0:0:
394,157,174518,2,0,L|402:203,2,30,8|0|4,3:0|3:0|3:0,0:0:0:0:
323,207,174973,6,0,L|336:293,2,71.9999978027344,6|0|8,3:2|0:0|0:0,0:0:0:0:
256,152,175655,1,0,0:0:0:0:
183,198,175882,2,0,P|146:197|100:169,1,71.9999978027344,2|0,3:2|0:0,0:0:0:0:
111,96,176337,1,8,0:0:0:0:
177,40,176564,1,2,0:0:0:0:
256,72,176791,6,0,B|256:-15,2,71.9999978027344,0|0|8,3:2|0:0|0:0,0:0:0:0:
333,111,177473,1,0,0:0:0:0:
333,111,177700,2,0,P|365:96|401:95,1,71.9999978027344,2|0,3:2|0:0,0:0:0:0:
487,107,178155,1,8,0:0:0:0:
467,191,178382,1,0,0:0:0:0:
467,191,178609,6,0,P|451:223|457:264,1,71.9999978027344,2|0,3:2|0:0,0:0:0:0:
494,335,179064,1,8,0:0:0:0:
412,331,179291,1,0,0:0:0:0:
412,331,179518,2,0,L|333:331,1,71.9999978027344,2|0,3:2|0:0,0:0:0:0:
253,330,179973,1,8,0:0:0:0:
193,268,180200,1,2,0:0:0:0:
165,186,180428,5,0,3:2:0:0:
218,118,180655,1,0,0:0:0:0:
303,132,180882,2,0,P|323:163|326:201,1,71.9999978027344,8|0,0:0|0:0,0:0:0:0:
272,265,181337,2,0,L|193:284,2,71.9999978027344,2|0|8,3:2|0:0|0:0,0:0:0:0:
351,299,182018,1,0,0:0:0:0:
421,248,182246,6,0,P|433:218|431:172,1,71.9999978027344,2|0,3:2|0:0,0:0:0:0:
409,95,182700,1,8,0:0:0:0:
340,43,182928,1,0,0:0:0:0:
261,77,183155,2,0,L|162:77,1,71.9999978027344,2|0,3:2|0:0,0:0:0:0:
105,58,183609,1,8,0:0:0:0:
125,142,183837,1,2,0:0:0:0:
53,190,184064,5,0,3:2:0:0:
125,242,184291,1,0,0:0:0:0:
105,326,184518,2,0,P|137:312|177:312,1,71.9999978027344,8|0,0:0|0:0,0:0:0:0:
257,336,184973,2,0,P|279:308|286:273,1,71.9999978027344,2|0,3:2|0:0,0:0:0:0:
257,192,185427,1,8,0:0:0:0:
318,130,185655,1,0,0:0:0:0:
401,153,185882,6,0,L|482:153,1,71.9999978027344,2|0,3:2|0:0,0:0:0:0:
447,70,186337,2,0,L|374:70,1,71.9999978027344,8|0,0:0|0:0,0:0:0:0:
293,97,186791,2,0,P|302:66|284:24,2,71.9999978027344,2|0|8,3:2|0:0|0:0,0:0:0:0:
242,167,187473,6,0,P|182:160|134:190,2,107.999996704102,2|2|10,0:0|0:0|0:0,0:0:0:0:
306,225,188382,1,2,0:0:0:0:
386,192,188609,2,0,L|400:153,3,35.9999989013672,0|0|0|0,3:0|3:0|3:0|3:0,0:0:0:0:
421,176,189064,2,0,L|444:143,2,35.9999989013672,8|0|0,3:2|3:2|3:2,0:0:0:0:
426,254,189518,6,0,P|437:285|438:324,1,60,4|2,0:0|0:0,0:0:0:0:
376,357,189973,1,8,0:0:0:0:
301,335,190200,1,2,0:0:0:0:
225,353,190428,2,0,P|189:342|146:337,1,60,0|0,0:0|0:0,0:0:0:0:
93,314,190882,1,8,0:0:0:0:
119,160,191337,6,0,L|190:159,1,60,0|2,0:0|0:0,0:0:0:0:
256,172,191791,1,8,0:0:0:0:
313,119,192018,1,2,0:0:0:0:
256,65,192246,2,0,P|237:42|228:13,2,60,0|0|8,0:0|0:0|0:0,0:0:0:0:
374,167,193155,6,0,P|393:144|402:115,2,60,0|2|8,0:0|0:0|0:0,0:0:0:0:
319,223,193837,1,2,0:0:0:0:
339,298,194064,2,0,P|361:311|418:313,1,60,0|0,0:0|0:0,0:0:0:0:
470,298,194518,1,8,0:0:0:0:
477,220,194746,6,0,L|455:156,1,60,2|0,0:0|0:0,0:0:0:0:
389,200,195200,2,0,L|367:136,1,60,2|8,0:0|0:0,0:0:0:0:
344,69,195655,1,2,0:0:0:0:
275,105,195882,2,0,L|187:95,1,60,0|2,0:0|0:0,0:0:0:0:
149,57,196337,2,0,L|61:47,1,60,8|2,0:0|0:0,0:0:0:0:
12,60,196791,6,0,P|0:26|0:0,2,60,0|2|8,0:0|0:0|0:0,0:0:0:0:
42,132,197473,1,2,0:0:0:0:
112,98,197700,2,0,L|192:110,1,60,0|0,0:0|0:0,0:0:0:0:
229,160,198155,1,8,0:0:0:0:
229,316,198609,6,0,L|303:316,1,60,0|2,0:0|0:0,0:0:0:0:
367,325,199064,1,8,0:0:0:0:
419,267,199291,1,2,0:0:0:0:
393,193,199518,2,0,P|378:157|379:114,2,60,0|0|8,0:0|0:0|0:0,0:0:0:0:
453,337,200428,5,0,0:0:0:0:
503,277,200655,1,2,0:0:0:0:
453,217,200882,2,0,L|434:154,1,60,8|2,0:0|0:0,0:0:0:0:
374,208,201337,2,0,L|391:265,1,60,0|0,0:0|0:0,0:0:0:0:
347,330,201791,1,8,0:0:0:0:
271,348,202018,6,0,L|203:338,1,60,2|0,0:0|0:0,0:0:0:0:
166,276,202473,2,0,L|151:210,1,60,2|8,0:0|0:0,0:0:0:0:
154,139,202928,1,2,0:0:0:0:
202,78,203155,2,0,L|246:88,3,30,0|0|0|0,3:0|3:0|3:0|3:0,0:0:0:0:
255,89,203609,1,8,3:2:0:0:
270,166,203837,2,0,L|256:192,1,30
