osu file format v14

[General]
AudioFilename: Sakura Uta (Arranged by KaNa).mp3
AudioLeadIn: 0
PreviewTime: 58609
Countdown: 0
SampleSet: Soft
StackLeniency: 0.7
Mode: 0
LetterboxInBreaks: 0
WidescreenStoryboard: 1

[Editor]
Bookmarks: 30200,60882,68155,75314,82700,85200,102132,104518,107473,119064,126337,133723,140882,177246,184632,187018
DistanceSpacing: 1
BeatDivisor: 2
GridSize: 4
TimelineZoom: 0.9

[Metadata]
Title:Sakura Uta
TitleUnicode:サクラウタ
Artist:Silver Forest feat. Aki
ArtistUnicode:Silver Forest feat. アキ
Creator:RVMathew
Version:Easy
Source:東方神霊廟 ~ Ten Desires.
Tags:Sweet Little Lily Touhou Project Shinreibyou Toho Track 07 ZUN Reimu Hakurei 死霊の夜桜 Night Sakura of Dead Spirits Kana Ijuin Stage 1 theme
BeatmapID:1429416
BeatmapSetID:587754

[Difficulty]
HPDrainRate:3
CircleSize:3
OverallDifficulty:2
ApproachRate:3
SliderMultiplier:0.8
SliderTickRate:1

[Events]
//Background and Video events
0,0,"hakurei-reimu-spring-1920x1080.jpg",0,0
//Break Periods
2,91537,93533
2,146082,158988
//Storyboard Layer 0 (Background)
//Storyboard Layer 1 (Fail)
//Storyboard Layer 2 (Pass)
//Storyboard Layer 3 (Foreground)
//Storyboard Sound Samples

[TimingPoints]
428,454.5454545455,4,2,1,43,1,0
428,-125,4,2,1,43,0,0
14973,-100,4,2,2,69,0,0
29518,-99.9999999999999,4,2,1,69,0,0
58609,-100,4,2,2,75,0,1
72246,-100,4,2,2,75,0,0
73155,-100,4,2,2,75,0,1
87700,-100,4,2,1,69,0,0
89291,-100,4,2,1,60,0,0
94973,-100,4,2,1,69,0,0
116791,-100,4,2,2,75,0,1
130428,-100,4,2,2,75,0,0
131337,-100,4,2,2,75,0,1
145882,-142.857142857143,4,2,1,69,0,0
160428,-100,4,2,1,69,0,0
174973,-100,4,2,2,75,0,1
188609,-100,4,2,2,59,0,0
189518,-100,4,2,1,59,0,0

[Colours]
Combo1 : 255,183,197
Combo2 : 255,62,197
Combo3 : 215,0,5

[HitObjects]
256,327,14518,5,0,1:0:0:0:
256,327,14973,6,0,P|319:282|313:202,1,160,4|2,0:0|3:2,0:0:0:0:
284,132,16337,1,0,0:0:0:0:
214,171,16791,2,0,P|141:149|132:51,1,160,0|2,3:2|3:2,0:0:0:0:
200,92,18155,1,0,0:0:0:0:
214,171,18609,6,0,B|285:209|285:209|354:171,1,160,0|2,3:2|3:2,0:0:0:0:
423,129,19973,1,0,0:0:0:0:
473,192,20428,2,0,P|490:270|443:346,1,160,0|2,3:2|3:2,0:0:0:0:
381,303,21792,1,0,0:0:0:0:
310,340,22246,6,0,L|131:340,1,160,0|2,3:2|3:2,0:0:0:0:
86,292,23609,1,0,0:0:0:0:
137,230,24064,2,0,P|150:154|77:101,1,160,0|2,3:2|3:2,0:0:0:0:
74,181,25428,1,0,0:0:0:0:
137,230,25882,6,0,L|319:164,1,160,0|2,3:2|3:2,0:0:0:0:
362,146,27246,1,0,0:0:0:0:
424,196,27700,2,0,L|411:305,1,80,0|8,3:2|3:2,0:0:0:0:
342,308,28609,1,8,0:3:0:0:
415,276,29064,1,8,0:0:0:0:
351,228,29518,6,0,L|217:228,1,120,4|0,1:0|1:2,0:0:0:0:
159,192,30655,1,2,0:0:0:0:
203,124,31109,2,0,P|240:169|232:226,1,120,0|10,3:2|0:0,0:0:0:0:
257,303,32246,2,0,L|358:316,1,80,0|8,3:2|0:0,0:0:0:0:
393,257,33155,6,0,P|406:200|360:134,2,120,0|0|8,3:1|1:2|0:0,0:0:0:0:
336,313,34973,2,0,B|283:329|227:297|176:313,1,160,0|0,0:0|3:2,0:0:0:0:
103,343,36337,1,8,0:0:0:0:
50,282,36791,6,0,P|24:230|48:155,1,120,0|0,3:2|1:2,0:0:0:0:
77,103,37928,1,2,0:0:0:0:
133,160,38382,2,0,P|159:212|135:287,1,120,0|10,3:2|0:0,0:0:0:0:
179,343,39518,2,0,L|274:343,1,80,0|8,3:2|0:0,0:0:0:0:
327,301,40428,6,0,P|339:242|288:184,1,120,0|0,3:2|1:2,0:0:0:0:
241,150,41564,1,2,0:0:0:0:
263,73,42018,1,0,1:2:0:0:
330,117,42473,2,0,L|473:117,1,120,0|4,1:2|1:2,0:0:0:0:
505,59,43609,1,8,0:0:0:0:
450,117,44064,6,0,P|422:173|449:249,1,120,4|2,1:0|1:2,0:0:0:0:
459,303,45200,1,2,0:0:0:0:
346,344,45882,2,0,B|240:344,1,80,0|8,3:2|3:2,0:0:0:0:
245,266,46791,2,0,B|325:266,1,80,0|8,3:2|3:2,0:0:0:0:
384,212,47700,6,0,P|386:147|348:100,2,120,0|2|8,3:2|1:2|3:2,0:0:0:0:
358,288,49518,1,0,3:2:0:0:
330,363,49973,1,8,3:2:0:0:
260,324,50428,2,0,L|160:324,1,80,0|8,3:2|3:2,0:0:0:0:
104,298,51337,6,0,P|75:248|99:167,1,120,0|2,3:2|1:2,0:0:0:0:
117,116,52473,1,2,0:0:0:0:
152,44,52928,2,0,L|281:69,1,120,0|8,1:2|3:2,0:0:0:0:
304,139,54064,2,0,P|317:178|294:235,1,80,0|8,3:2|3:2,0:0:0:0:
253,273,54973,6,0,P|309:260|379:293,1,120,0|2,3:2|1:2,0:0:0:0:
421,339,56109,1,2,0:0:0:0:
500,328,56564,1,0,1:2:0:0:
452,264,57018,2,0,P|416:206|441:133,1,120,0|0,1:2|3:0,0:0:0:0:
459,89,58155,1,8,3:2:0:0:
459,89,58609,6,0,P|472:50|468:9,2,80,6|8|2,3:2|0:0|3:2,0:0:0:0:
426,162,59973,1,8,0:0:0:0:
463,233,60428,2,0,L|521:228,2,40,0|2|8,3:2|0:0|0:0,0:0:0:0:
396,277,61337,1,2,3:2:0:0:
329,233,61791,1,8,0:0:0:0:
262,277,62246,6,0,L|149:295,2,80,2|8|2,3:2|0:0|3:2,0:0:0:0:
329,233,63609,1,8,0:0:0:0:
279,170,64064,2,0,L|266:86,1,80,0|8,3:2|0:0,0:0:0:0:
346,80,64973,2,0,L|358:159,1,80,2|8,3:2|0:0,0:0:0:0:
412,218,65882,6,0,L|474:228,2,40,2|0|8,3:2|0:0|0:0,0:0:0:0:
358,159,66791,1,2,3:2:0:0:
282,185,67246,2,0,P|232:182|187:197,1,80,8|0,0:0|3:2,0:0:0:0:
133,228,68155,1,8,0:0:0:0:
73,175,68609,2,0,P|61:133|74:91,1,80,2|8,3:2|0:0,0:0:0:0:
96,23,69518,6,0,L|4:9,2,80,2|8|2,3:2|0:0|3:2,0:0:0:0:
175,34,70882,1,8,0:0:0:0:
214,104,71337,2,0,P|225:152|206:199,1,80,0|10,0:0|0:0,0:0:0:0:
183,253,72246,1,0,3:0:0:0:
241,316,72700,1,8,3:2:0:0:
241,316,73155,6,0,L|332:310,2,80,6|8|2,3:2|0:0|3:2,0:0:0:0:
163,297,74518,1,8,0:0:0:0:
163,217,74973,2,0,L|126:202,2,40,0|0|8,3:2|0:0|0:0,0:0:0:0:
240,240,75882,1,2,3:2:0:0:
268,165,76337,1,8,0:0:0:0:
197,126,76791,6,0,P|187:87|197:48,1,80,2|8,3:2|0:0,0:0:0:0:
268,87,77700,2,0,P|277:125|267:164,1,80,2|8,3:2|0:0,0:0:0:0:
227,233,78609,1,0,3:2:0:0:
275,297,79064,1,8,0:0:0:0:
211,345,79518,2,0,L|118:345,1,80,2|8,3:2|0:0,0:0:0:0:
55,318,80428,6,0,L|21:374,2,40,2|0|8,3:2|0:0|0:0,0:0:0:0:
117,267,81337,2,0,P|122:226|86:171,1,80,2|8,3:2|0:0,0:0:0:0:
59,127,82246,1,0,3:2:0:0:
92,54,82700,1,8,0:0:0:0:
167,83,83155,2,0,L|269:75,1,80,2|8,3:2|0:0,0:0:0:0:
320,109,84064,6,0,L|350:195,1,80,2|8,3:2|0:0,0:0:0:0:
269,206,84973,2,0,L|299:292,1,80,2|8,3:2|0:0,0:0:0:0:
321,357,85882,1,0,0:0:0:0:
375,298,86337,1,10,0:0:0:0:
415,229,86791,2,0,L|419:127,1,80,0|8,0:0|0:3,0:0:0:0:
404,70,87700,5,4,0:0:0:0:
256,192,87928,12,0,91337,0:0:0:0:
269,77,94973,6,0,P|310:144|284:220,1,160,4|0,3:2|3:2,0:0:0:0:
215,313,96564,2,0,L|83:313,1,120,0|8,3:2|0:0,0:0:0:0:
84,234,97700,2,0,L|195:234,1,80,0|8,3:2|0:0,0:0:0:0:
203,164,98609,6,0,L|218:124,2,40,0|0|8,3:2|0:0|0:0,0:0:0:0:
164,234,99518,1,0,3:2:0:0:
205,303,99973,2,0,L|365:303,1,160,0|8,0:0|0:0,0:0:0:0:
418,243,101337,2,0,P|427:205|418:158,1,80,0|8,3:2|0:0,0:0:0:0:
361,112,102246,6,0,L|229:112,1,120,0|2,1:2|1:2,0:0:0:0:
171,72,103382,1,2,0:0:0:0:
122,135,103837,2,0,P|146:188|122:241,1,120,0|8,0:0|3:2,0:0:0:0:
70,302,104973,2,0,P|62:337|85:382,1,80,0|8,3:2|3:2,0:0:0:0:
156,356,105882,6,0,P|243:350|276:365,2,120,0|2|8,3:2|1:2|3:2,0:0:0:0:
77,370,107700,2,0,L|58:288,1,80,0|8,3:2|3:2,0:0:0:0:
138,281,108609,2,0,L|119:203,1,80,0|8,3:2|3:2,0:0:0:0:
154,131,109518,6,0,B|212:153|212:153|265:131,1,120,0|2,3:2|1:2,0:0:0:0:
303,203,110655,1,2,0:0:0:0:
240,253,111109,2,0,P|231:310|264:359,1,120,0|8,1:2|3:2,0:0:0:0:
333,318,112246,1,0,3:2:0:0:
402,359,112700,1,8,3:2:0:0:
464,308,113155,6,0,P|485:253|454:203,1,120,0|2,3:2|1:2,0:0:0:0:
382,172,114291,1,2,0:0:0:0:
311,209,114746,2,0,L|187:208,1,120,0|8,1:2|3:2,0:0:0:0:
115,184,115882,1,8,3:3:0:0:
171,127,116337,1,8,3:3:0:0:
171,127,116791,6,0,P|186:92|183:41,2,80,6|8|2,3:2|0:0|3:2,0:0:0:0:
115,184,118155,1,8,0:0:0:0:
165,247,118610,2,0,L|214:243,2,40,0|0|8,3:2|0:0|0:0,0:0:0:0:
109,304,119519,1,2,3:2:0:0:
176,347,119973,1,8,0:0:0:0:
217,278,120428,6,0,L|201:178,2,80,2|8|2,3:2|0:0|3:2,0:0:0:0:
276,332,121791,1,8,0:0:0:0:
337,280,122246,2,0,L|434:280,1,80,0|8,3:2|0:0,0:0:0:0:
467,217,123155,2,0,P|472:173|449:138,1,80,2|8,3:2|0:0,0:0:0:0:
408,77,124064,6,0,L|422:18,2,40,2|0|8,3:2|0:0|0:0,0:0:0:0:
344,126,124973,1,2,3:2:0:0:
268,100,125428,2,0,L|170:100,1,80,8|0,0:0|3:2,0:0:0:0:
119,59,126337,1,8,0:0:0:0:
60,113,126791,2,0,P|46:147|60:211,1,80,2|8,3:2|0:0,0:0:0:0:
79,264,127700,6,0,P|39:251|-25:267,2,80,2|8|2,3:2|0:0|3:2,0:0:0:0:
133,323,129064,1,8,0:0:0:0:
208,296,129519,2,0,L|322:285,1,80,0|10,0:0|0:0,0:0:0:0:
361,257,130428,1,0,3:0:0:0:
388,182,130882,1,8,3:2:0:0:
388,182,131337,6,0,L|491:182,2,80,6|8|2,3:2|0:0|3:2,0:0:0:0:
341,117,132700,1,8,0:0:0:0:
387,52,133155,2,0,L|397:8,2,40,0|0|8,3:2|0:0|0:0,0:0:0:0:
341,117,134064,1,2,3:2:0:0:
388,182,134519,1,8,0:0:0:0:
333,240,134973,6,0,L|244:240,1,80,2|8,3:2|0:0,0:0:0:0:
179,209,135882,2,0,P|165:166|183:115,1,80,2|8,3:2|0:0,0:0:0:0:
203,59,136791,1,0,3:2:0:0:
251,123,137246,1,8,0:0:0:0:
172,134,137700,2,0,L|84:123,1,80,2|8,3:2|0:0,0:0:0:0:
77,45,138610,6,0,L|65:-26,2,40,2|0|8,3:2|0:0|0:0,0:0:0:0:
92,124,139519,2,0,P|94:171|70:212,1,80,2|8,3:2|0:0,0:0:0:0:
32,264,140428,1,0,3:2:0:0:
96,312,140882,1,8,0:0:0:0:
169,279,141337,2,0,L|277:279,1,80,2|8,3:2|0:0,0:0:0:0:
312,229,142246,6,0,P|319:186|294:143,1,80,2|8,3:2|0:0,0:0:0:0:
246,100,143155,2,0,P|231:63|239:24,1,80,2|8,3:2|0:0,0:0:0:0:
256,192,144064,12,4,145882,0:0:0:0:
172,96,160428,6,0,P|172:188|72:243,1,200,4|0,3:2|0:0,0:0:0:0:
20,203,162018,2,0,P|20:111|120:56,1,200,0|0,3:2|0:0,0:0:0:0:
172,96,163609,1,8,0:0:0:0:
247,68,164064,6,0,P|263:27|254:-13,2,80,0|8|0,3:2|0:0|3:2,0:0:0:0:
173,162,165655,2,0,P|142:213|153:285,1,120,0|8,3:2|0:0,0:0:0:0:
211,318,166791,2,0,L|307:328,1,80,0|8,3:2|0:0,0:0:0:0:
364,294,167700,5,4,3:2:0:0:
314,231,168155,1,8,0:0:0:0:
372,176,168609,2,0,P|379:113|333:71,2,120,0|0|8,3:2|3:2|0:0,0:0:0:0:
314,231,170428,2,0,L|220:231,1,80,0|8,3:2|0:0,0:0:0:0:
156,212,171337,6,0,L|134:133,1,80,4|8,3:2|0:0,0:0:0:0:
190,77,172246,2,0,P|243:87|317:62,2,120,4|4|12,3:2|3:2|3:2,0:0:0:0:
113,56,174064,1,0,3:0:0:0:
45,98,174518,1,8,3:0:0:0:
45,98,174973,6,0,P|32:59|46:13,2,80,6|8|2,3:2|0:0|3:2,0:0:0:0:
72,173,176337,1,8,0:0:0:0:
11,225,176792,2,0,L|-36:260,2,40,0|0|8,3:2|0:0|0:0,0:0:0:0:
72,173,177701,1,2,3:2:0:0:
145,205,178155,1,8,0:0:0:0:
187,137,178610,6,0,P|178:104|186:55,2,80,2|8|0,3:2|0:0|0:0,0:0:0:0:
248,188,179973,1,8,0:0:0:0:
314,143,180428,2,0,L|394:143,1,80,0|8,3:2|0:0,0:0:0:0:
401,223,181337,2,0,L|321:223,1,80,2|8,3:2|0:0,0:0:0:0:
253,265,182246,6,0,L|269:329,2,40,2|0|8,3:2|0:0|0:0,0:0:0:0:
185,222,183155,1,2,3:2:0:0:
115,183,183610,2,0,L|96:105,1,80,8|0,0:0|3:2,0:0:0:0:
135,35,184519,1,8,0:0:0:0:
190,93,184973,2,0,L|290:93,1,80,2|8,3:2|0:0,0:0:0:0:
348,76,185882,6,0,L|386:0,2,80,2|8|2,3:2|0:0|3:2,0:0:0:0:
327,153,187246,1,8,0:0:0:0:
367,222,187701,2,0,L|483:222,1,80,0|10,0:0|0:0,0:0:0:0:
495,158,188610,1,0,3:0:0:0:
433,107,189064,1,8,3:2:0:0:
363,145,189518,6,0,L|274:145,2,80,4|8|0,0:0|0:0|0:0,0:0:0:0:
433,107,190882,1,8,0:0:0:0:
473,176,191337,2,0,P|483:214|472:255,1,80,0|8,0:0|0:0,0:0:0:0:
420,312,192246,2,0,L|324:311,1,80,0|8,0:0|0:0,0:0:0:0:
321,233,193155,6,0,L|407:233,2,80,0|8|0,0:0|0:0|0:0,0:0:0:0:
264,176,194518,2,0,L|245:141,1,40,8|2,0:0|0:0,0:0:0:0:
170,111,195200,2,0,L|98:111,1,40,2|8,0:0|0:0,0:0:0:0:
59,73,195882,1,0,0:0:0:0:
127,31,196337,1,8,0:0:0:0:
130,111,196791,6,0,P|137:149|133:189,1,80,0|8,0:0|0:0,0:0:0:0:
92,259,197700,1,0,0:0:0:0:
46,325,198155,1,8,0:0:0:0:
125,334,198609,2,0,L|228:334,1,80,0|8,0:0|0:0,0:0:0:0:
282,312,199518,2,0,L|381:312,1,80,0|8,0:0|0:0,0:0:0:0:
438,287,200428,6,0,P|453:250|448:183,1,80,0|8,0:0|0:0,0:0:0:0:
440,132,201337,1,0,0:0:0:0:
389,70,201791,2,0,L|343:70,1,40,8|2,0:0|0:0,0:0:0:0:
269,74,202473,2,0,L|249:121,1,40,2|8,0:0|0:0,0:0:0:0:
186,154,203155,1,0,3:0:0:0:
256,192,203609,1,8,3:2:0:0:
