osu file format v9

[General]
AudioFilename: we will turn on you.mp3
AudioLeadIn: 0
PreviewTime: 87954
Countdown: 1
SampleSet: Normal
StackLeniency: 0.7
Mode: 0
LetterboxInBreaks: 1

[Editor]
DistanceSpacing: 0.5
BeatDivisor: 4
GridSize: 8

[Metadata]
Title:we will turn on you
Artist:Silver Forest
Creator:RinNa
Version:Hard
Source:Touhou
Tags:

[Difficulty]
HPDrainRate:6
CircleSize:4
OverallDifficulty:7
ApproachRate:7
SliderMultiplier:1.6
SliderTickRate:1

[Events]
//Background and Video events
0,0,"white lotus.jpg"
//Break Periods
2,16279,17888
2,33154,45804
2,105342,115179
2,176488,189138
//Storyboard Layer 0 (Background)
//Storyboard Layer 1 (Fail)
//Storyboard Layer 2 (Pass)
//Storyboard Layer 3 (Foreground)
//Storyboard Sound Samples
//Background Colour Transformations
3,100,163,162,255

[TimingPoints]
38,416.666666666667,4,1,0,100,1,0
6496,-200,4,1,0,100,0,0
20038,-100,4,1,0,100,0,0
46704,-200,4,1,0,100,0,0
60038,-100,4,1,0,100,0,0
101704,-200,4,1,0,100,0,0
102538,-100,4,1,0,100,0,0
118371,-200,4,1,0,100,0,0
137538,-100,4,1,0,100,0,0

[HitObjects]
376,104,6496,1,0
376,104,6600,1,0
376,104,6704,2,0,B|440:144|448:200,1,120
408,264,7538,1,0
344,312,7746,2,0,B|280:344|256:336,1,80
192,320,8371,1,0
192,320,8579,2,0,B|152:344|96:336|80:312,1,120
48,200,9413,5,0
48,200,9517,1,0
88,104,9725,1,0
88,104,9829,1,0
176,56,10038,2,0,B|232:24|320:40|336:64,1,160
329,57,11079,2,0,B|392:112|376:176,1,120
378,161,12121,1,0
176,216,12538,5,0
176,216,12642,1,0
176,216,12746,1,0
360,64,13371,1,0
432,208,13788,1,0
256,192,14204,1,0
240,200,14308,1,0
224,208,14413,1,0
168,56,15038,5,0
352,72,15454,1,0
248,208,15871,1,0
248,224,15975,1,0
248,240,16079,1,0
256,192,18788,12,0,19621
376,88,20038,5,0
400,120,20142,1,0
416,160,20246,2,0,B|448:248|424:336,2,160
336,104,21288,1,0
320,104,21392,1,0
304,104,21496,1,0
288,104,21600,1,0
272,104,21704,1,0
112,120,21913,6,0,B|72:176|72:232|128:280,1,160
184,120,22538,2,0,B|216:168|216:224|168:272,1,160
96,312,23163,1,0
96,312,23371,1,0
64,224,23579,1,0
64,224,23788,1,0
64,128,23996,1,0
64,128,24204,1,0
136,64,24413,2,0,B|208:24|280:24|368:96,1,240
424,160,25246,5,0
424,160,25454,1,0
416,256,25663,1,0
416,256,25871,1,0
416,256,26079,2,0,B|392:328|344:352|272:336,1,160
312,192,26704,5,0
312,192,26808,1,0
240,128,27017,1,0
240,128,27121,1,0
144,152,27329,1,0
112,240,27538,1,0
176,312,27746,2,0,B|216:336|264:304,2,80
112,240,28371,5,0
104,224,28475,1,0
96,208,28579,1,0
184,176,28788,1,0
176,160,28892,1,0
168,144,28996,1,0
256,120,29204,1,0
248,104,29308,1,0
240,88,29413,1,0
312,56,29621,1,0
312,56,29829,1,0
312,56,30038,2,0,B|384:48|432:72|424:144,2,160
240,120,31079,5,0
224,136,31183,1,0
208,152,31288,1,0
192,168,31392,1,0
176,184,31496,1,0
160,200,31600,1,0
144,216,31704,1,0
128,232,31808,1,0
112,248,31913,1,0
96,264,32017,1,0
80,280,32121,1,0
384,88,32538,5,0
384,88,32746,1,0
384,88,32850,1,0
384,88,32954,1,0
368,96,46704,5,0
368,96,46913,1,0
336,200,47121,1,0
336,200,47329,1,0
216,256,47538,1,0
216,256,47746,2,0,B|184:216|184:192|192:168,1,80
280,168,48371,1,0
280,168,48475,1,0
280,168,48579,1,0
248,240,48788,1,0
192,296,48996,1,0
120,328,49204,2,0,B|80:328|56:288,2,80
200,328,50246,5,0
264,280,50454,1,0
312,216,50663,1,0
352,144,50871,1,0
392,72,51079,2,0,B|456:112|456:184,1,120
424,248,51913,1,0
416,288,52017,1,0
312,216,52225,1,0
272,224,52329,1,0
320,304,52538,6,0,B|288:336|232:336,2,80
320,304,53579,1,0
376,208,53788,2,0,B|384:160|368:120,1,80
256,192,54413,12,0,55038
168,120,55454,5,0
144,176,55663,1,0
128,232,55871,1,0
216,312,56079,2,0,B|248:272,2,40
336,336,56704,2,0,B|392:264|384:168,2,160
224,312,58579,1,0
176,280,58788,1,0
128,248,58996,1,0
152,96,59204,5,0
152,96,59308,1,0
256,136,59517,1,0
256,136,59621,1,0
328,272,59829,1,0
216,320,60038,2,0,B|128:288|128:192,2,160
296,320,61079,1,0
296,320,61288,1,0
360,248,61496,1,0
360,248,61600,1,0
360,248,61704,2,0,B|384:176|368:96|272:48,1,240
192,40,62538,1,0
192,40,62746,1,0
136,112,62954,6,0,B|104:160|104:216|152:256,1,160
151,255,63579,2,0,B|208:296|288:296|328:248,1,160
302,269,64204,2,0,B|376:208|376:136|376:96,1,160
374,131,64829,2,0,B|376:64,4,40
264,64,65454,5,0
264,64,65558,1,0
112,160,65871,2,0,B|72:256|80:336|200:336,1,240
304,336,66704,1,0
184,336,66913,1,0
304,336,67121,2,0,B|384:272|384:192|304:128,1,240
216,64,67954,1,0
216,64,68058,1,0
216,64,68163,2,0,B|160:56|120:88|128:168,2,160
328,72,69204,5,0
392,216,69413,1,0
272,320,69621,1,0
176,280,69829,2,0,B|136:232|136:184,4,80
240,280,70871,2,0,B|272:248|280:192,4,80
80,288,71913,5,0
64,248,72017,1,0
56,208,72121,1,0
72,112,72329,1,0
88,80,72433,1,0
120,48,72538,1,0
224,56,72746,1,0
320,80,72954,1,0
344,112,73058,1,0
368,144,73163,1,0
376,184,73267,1,0
384,224,73371,1,0
288,328,73579,5,0
384,224,73996,1,0
240,192,74413,1,0
384,224,74621,1,0
384,224,74829,1,0
400,112,75038,5,0
400,112,75142,1,0
400,112,75246,2,0,B|320:48|240:48,1,160
288,160,75871,1,0
360,224,76079,1,0
304,304,76288,1,0
208,320,76496,1,0
168,320,76600,1,0
128,304,76704,2,0,B|56:256|56:192|96:144,1,160
104,136,77225,1,0
136,112,77329,2,0,B|200:72|256:72|320:72,1,160
328,72,77850,1,0
368,80,77954,2,0,B|424:120|424:168,1,80
419,140,78371,2,0,B|448:192|440:216|384:192,4,80
288,128,79413,5,0
288,128,79517,1,0
168,184,79725,1,0
168,184,79829,1,0
104,272,80038,2,0,B|160:336|272:344|336:256,2,240
72,200,81496,1,0
72,200,81600,1,0
72,200,81704,2,0,B|40:136|40:96|128:72,1,160
192,80,82329,5,0
208,80,82433,1,0
224,80,82538,1,0
240,80,82642,1,0
256,80,82746,1,0
360,96,82954,1,0
360,96,83163,1,0
360,96,83371,2,0,B|416:144|400:272,2,160
264,56,84413,5,0
104,88,84621,1,0
264,56,84829,1,0
240,216,85038,1,0
264,56,85246,1,0
392,152,85454,1,0
264,56,85663,1,0
264,56,85871,2,0,B|336:80|336:136|304:168,2,120
168,112,86704,1,0
152,128,86808,1,0
136,144,86913,1,0
120,160,87017,1,0
104,176,87121,1,0
88,192,87225,1,0
72,208,87329,2,0,B|24:256,4,40
128,312,87954,5,0
128,312,88058,1,0
128,312,88163,1,0
232,312,88371,1,0
352,312,88579,1,0
232,312,88788,1,0
352,312,88996,1,0
416,208,89204,1,0
416,208,89308,1,0
416,208,89413,1,0
352,120,89621,1,0
264,56,89829,2,0,B|216:16|168:40|160:80|160:144,1,160
272,184,90454,1,0
88,224,90663,1,0
224,256,90871,1,0
240,256,90975,1,0
256,256,91079,1,0
272,256,91183,1,0
288,256,91288,1,0
384,200,91496,6,0,B|408:152|376:96,1,80
388,122,91913,2,0,B|360:64|304:56,1,80
334,65,92329,2,0,B|272:40|224:48,1,80
160,72,92746,1,0
160,72,92850,1,0
88,152,93058,1,0
88,152,93163,1,0
80,248,93371,2,0,B|144:288|192:280|192:192,2,160
88,152,94413,5,0
104,136,94517,1,0
120,120,94621,1,0
160,192,94829,1,0
200,120,95038,1,0
216,136,95142,1,0
232,152,95246,1,0
272,80,95454,1,0
312,152,95663,1,0
328,136,95767,1,0
344,120,95871,1,0
360,104,95975,1,0
376,88,96079,1,0
464,136,96288,5,0
464,136,96392,1,0
464,136,96496,2,0,B|464:256|376:296,1,160
376,304,97017,1,0
336,328,97121,2,0,B|256:344|184:320|184:184,1,240
272,224,97954,1,0
272,224,98058,1,0
384,144,98267,6,0,B|384:88|304:64,1,120
288,160,98788,1,0
376,248,98996,2,0,B|352:320|256:328|216:288,2,160
376,128,100038,1,0
304,80,100246,1,0
288,88,100350,1,0
272,96,100454,1,0
256,104,100558,1,0
240,112,100663,1,0
112,168,100871,5,0
112,168,100975,1,0
104,280,101183,1,0
104,280,101288,1,0
224,320,101496,1,0
224,320,101704,2,0,B|312:320,2,80
256,192,102746,12,0,104204
112,128,104413,5,0
128,144,104517,1,0
144,160,104621,1,0
248,144,104829,2,0,B|296:136,1,40
272,240,105038,2,0,B|296:280,1,40
256,192,116079,12,0,117954
432,168,118371,6,0,B|432:224|392:248,1,80
403,239,118996,2,0,B|352:272|312:272,1,80
329,270,119621,2,0,B|264:272|240:256,1,80
160,200,120246,1,0
160,200,120350,1,0
144,104,120558,1,0
144,104,120663,1,0
232,48,120871,1,0
232,48,120975,1,0
232,48,121079,2,0,B|304:56|344:112,4,120
136,104,123788,5,0
88,184,123996,2,0,B|64:232|80:264,1,80
152,320,124621,1,0
248,320,124829,2,0,B|304:320|336:296,2,80
325,302,125871,1,0
320,152,126079,1,0
208,56,126288,1,0
80,120,126496,5,0
80,128,126600,1,0
80,136,126704,1,0
80,144,126808,1,0
80,152,126913,1,0
120,272,127121,1,0
120,272,127225,1,0
424,320,127538,1,0
160,56,127954,1,0
304,56,128163,1,0
312,64,128267,1,0
320,72,128371,2,0,B|376:168|352:272|320:312,1,240
240,320,129829,1,0
240,320,129933,1,0
240,320,130038,2,0,B|208:352,1,40
136,296,130454,5,0
144,288,130558,1,0
152,280,130663,1,0
160,272,130767,1,0
168,264,130871,1,0
176,256,130975,1,0
184,248,131079,1,0
256,184,131288,1,0
256,184,131392,1,0
312,80,131704,6,0,B|384:64|440:112|424:160,1,160
408,192,132642,1,0
392,224,132746,2,0,B|352:288|264:288|216:216,1,200
96,240,134204,5,0
352,312,134621,1,0
264,32,134829,1,0
408,128,135038,2,0,B|408:192|352:232|256:240|208:208|168:160|160:128,1,320
164,139,136913,1,0
208,72,137121,1,0
208,72,137225,1,0
360,72,137538,5,0
384,104,137642,1,0
400,136,137746,2,0,B|432:224|408:288|296:328,1,240
224,328,138579,2,0,B|200:248,1,80
296,272,138996,2,0,B|312:184,1,80
224,224,139413,2,0,B|192:136,1,80
224,64,139829,1,0
320,48,140038,2,0,B|392:48|400:136|328:160,1,160
112,48,140663,2,0,B|80:80,2,40
152,40,140975,1,0
192,40,141079,2,0,B|256:48|312:96|304:240,1,240
224,296,141913,5,0
224,296,142017,1,0
224,296,142121,1,0
128,240,142329,1,0
128,240,142433,1,0
128,240,142538,1,0
104,128,142746,1,0
104,128,142850,1,0
104,128,142954,1,0
184,48,143163,1,0
184,48,143267,1,0
184,48,143371,2,0,B|264:8|344:16|384:104|352:184|304:216,1,320
216,272,144413,5,0
200,256,144517,1,0
184,240,144621,1,0
168,224,144725,1,0
152,208,144829,1,0
272,64,145038,5,0
376,120,145246,1,0
232,176,145663,1,0
272,64,145871,1,0
136,80,146288,1,0
272,64,146496,1,0
376,120,146704,5,0
384,136,146808,1,0
392,152,146913,1,0
400,168,147017,1,0
408,184,147121,1,0
376,272,147329,1,0
376,272,147433,1,0
272,304,147746,1,0
272,304,147954,1,0
272,304,148163,1,0
184,288,148371,2,0,B|136:240|136:184|192:144,1,160
240,288,148996,2,0,B|280:248|280:184|224:144,1,160
272,88,149621,5,0
288,96,149725,1,0
304,104,149829,1,0
376,152,150038,2,0,B|400:264|320:320|224:288,2,240
312,80,151496,5,0
312,80,151600,1,0
152,136,151913,1,0
312,80,152329,1,0
152,136,152746,1,0
312,80,152954,1,0
152,136,153163,1,0
312,80,153371,1,0
416,88,153579,5,0
432,128,153683,2,0,B|464:208|416:264,1,120
408,272,154100,1,0
376,296,154204,2,0,B|288:336|224:288,1,160
304,200,154725,1,0
304,200,154829,1,0
208,136,155038,2,0,B|176:168|176:192|224:224,4,80
72,144,156079,1,0
168,272,156288,1,0
328,288,156496,1,0
424,160,156704,5,0
408,144,156808,1,0
392,128,156913,1,0
336,184,157121,1,0
320,176,157225,1,0
304,168,157329,1,0
304,256,157538,1,0
288,256,157642,1,0
272,256,157746,1,0
256,192,157954,12,0,159413
224,352,159621,6,0,B|160:288,1,80
288,352,160038,2,0,B|352:288,1,80
160,224,160454,2,0,B|96:128,1,80
352,224,160871,2,0,B|416:128,1,80
96,96,161288,2,0,B|32:32,1,80
416,96,161704,2,0,B|480:32,1,80
256,56,162121,1,0
256,56,162225,1,0
256,56,162329,2,0,B|256:224,2,160
352,64,163371,6,0,B|400:96|400:160,1,80
396,128,163788,2,0,B|400:200|352:216,1,80
374,202,164204,2,0,B|336:240|272:240,1,80
304,237,164621,2,0,B|240:240|216:200,1,80
168,160,165038,1,0
168,144,165142,1,0
168,128,165246,1,0
168,112,165350,1,0
168,96,165454,1,0
272,48,165663,1,0
272,48,165767,1,0
256,192,165871,12,0,166496
416,80,166704,5,0
424,120,166808,1,0
424,160,166913,2,0,B|424:256|368:304,1,160
367,304,167538,1,0
312,200,167746,1,0
232,104,167954,1,0
120,64,168163,1,0
40,152,168371,2,0,B|40:288|176:352|272:320,1,320
336,232,169413,5,0
344,216,169517,1,0
352,200,169621,1,0
360,184,169725,1,0
368,168,169829,1,0
368,96,170038,1,0
360,80,170142,1,0
352,64,170246,1,0
344,48,170350,1,0
336,32,170454,1,0
240,40,170663,2,0,B|168:56|96:160,2,160
160,176,172538,5,0
160,176,172642,1,0
224,256,172850,1,0
224,256,172954,1,0
336,264,173163,1,0
336,264,173371,2,0,B|408:216|384:104,1,160
312,64,173996,1,0
296,64,174100,1,0
280,64,174204,1,0
264,64,174308,1,0
248,64,174413,1,0
232,64,174517,1,0
216,64,174621,1,0
200,64,174725,1,0
184,64,174829,1,0
168,64,174933,1,0
152,64,175038,1,0
256,192,175246,12,0,176288
376,80,190038,5,0
368,200,190246,1,0
376,80,190663,1,0
224,136,191079,1,0
376,80,191288,1,0
424,184,191496,5,0
424,184,191600,1,0
424,184,191704,2,0,B|400:272|304:272,1,160
320,176,192329,1,0
304,80,192538,1,0
304,80,192642,1,0
200,56,192850,1,0
200,56,192954,1,0
88,120,193163,1,0
88,120,193371,2,0,B|56:232|112:304,2,160
192,56,194413,5,0
304,96,194621,1,0
344,208,194829,1,0
280,312,195038,2,0,B|192:328|128:256|160:144,2,240
368,232,196496,5,0
368,232,196600,1,0
344,112,196808,1,0
344,112,196913,1,0
232,72,197121,1,0
232,72,197329,2,0,B|152:128,1,80
96,208,197746,1,0
88,248,197850,1,0
96,288,197954,1,0
176,336,198163,1,0
216,336,198267,1,0
248,312,198371,1,0
320,224,198579,1,0
320,224,198788,1,0
320,224,198996,1,0
304,40,199204,6,0,B|192:40,1,80
224,192,199621,2,0,B|336:192,1,80
304,344,200038,2,0,B|200:344,4,80
384,224,201079,1,0
384,224,201183,1,0
384,224,201288,1,0
368,120,201496,2,0,B|320:64|280:64|240:128,1,160
240,208,202121,5,0
136,328,202329,1,0
336,328,202538,1,0
256,192,202746,12,0,203371
368,112,203579,5,0
352,128,203683,1,0
336,144,203788,1,0
320,160,203892,1,0
304,176,203996,1,0
288,192,204100,1,0
272,208,204204,1,0
256,224,204308,1,0
240,240,204413,1,0
64,192,204621,5,0
168,192,204829,1,0
240,128,205038,1,0
256,112,205142,1,0
272,96,205246,1,0
288,80,205350,1,0
304,64,205454,1,0
408,48,205663,2,0,B|456:96|456:176|384:208,2,160
304,64,206704,1,0
288,80,206808,1,0
272,96,206913,1,0
256,112,207017,1,0
240,128,207121,1,0
136,176,207329,1,0
136,176,207538,2,0,B|192:240|264:240|312:240,1,160
368,216,208163,5,0
376,200,208267,1,0
384,184,208371,1,0
384,96,208579,1,0
376,80,208683,1,0
368,64,208788,1,0
256,64,208996,2,0,B|192:128,1,80
224,160,209413,2,0,B|192:256,1,80
224,256,209829,2,0,B|256:352,1,80
344,304,210246,5,0
360,288,210350,1,0
376,272,210454,1,0
392,256,210558,1,0
408,240,210663,1,0
440,152,210871,2,0,B|432:104|368:80,1,80
304,88,211288,5,0
288,88,211392,1,0
272,88,211496,1,0
256,88,211600,1,0
240,88,211704,1,0
224,88,211808,1,0
208,88,211913,1,0
104,144,212121,1,0
88,160,212225,1,0
72,176,212329,1,0
152,224,212538,1,0
160,240,212642,1,0
168,256,212746,1,0
240,312,212954,2,0,B|320:336|384:296|384:248,2,160
240,312,213996,1,0
240,312,214204,2,0,B|144:304|96:232,1,160
152,32,214829,6,0,B|248:32,1,80
232,352,215246,2,0,B|128:352,1,80
72,304,215663,1,0
32,208,215871,2,0,B|24:136|56:112|80:112|144:112,1,160
216,112,216496,1,0
232,112,216600,1,0
248,112,216704,1,0
336,112,216913,2,0,B|392:112|424:160,1,80
416,288,217329,2,0,B|336:328|264:232,1,160
400,128,217954,5,0
400,128,218058,1,0
368,248,218267,1,0
368,248,218371,1,0
256,312,218579,2,0,B|200:352|160:352|112:304,4,160
320,256,220454,5,0
336,240,220558,1,0
352,224,220663,1,0
344,128,220871,1,0
328,136,220975,1,0
312,144,221079,1,0
296,152,221183,1,0
280,160,221288,1,0
192,224,221496,6,0,B|96:240|56:144|96:48,2,240
208,120,222954,1,0
208,120,223163,1,0
312,104,223371,1,0
328,120,223475,1,0
344,136,223579,1,0
360,152,223683,1,0
376,168,223788,1,0
224,280,223996,2,0,B|184:280|160:256|160:224,1,80
56,280,224413,5,0
56,280,224517,1,0
112,168,224725,1,0
128,152,224829,1,0
144,136,224933,1,0
160,120,225038,2,0,B|232:80|296:80|368:176,1,240
400,272,225871,1,0
288,304,226079,1,0
184,248,226288,1,0
288,304,226496,1,0
400,272,226704,1,0
408,144,226913,5,0
320,48,227121,1,0
232,144,227329,1,0
320,240,227538,1,0
320,144,227954,1,0
320,144,228058,1,0
320,144,228163,1,0
96,264,228371,5,0
96,264,228579,2,0,B|176:224,1,80
167,228,228996,2,0,B|208:136,1,80
199,154,229413,1,0
199,154,229621,2,0,B|264:96,4,80
112,48,230871,5,0
392,312,231288,1,0
304,72,231704,2,0,B|368:120|368:176|312:224,1,160
264,256,232329,5,0
192,224,232538,1,0
184,208,232642,1,0
176,192,232746,1,0
168,176,232850,1,0
160,160,232954,1,0
152,144,233058,1,0
144,128,233163,2,0,B|120:80,6,40
256,192,233996,12,0,235038
