osu file format v9

[General]
AudioFilename: drive to the ever sky.mp3
AudioLeadIn: 1000
PreviewTime: 52961
Countdown: 0
SampleSet: Normal
StackLeniency: 0.7
Mode: 0
LetterboxInBreaks: 1

[Editor]
DistanceSpacing: 1.5
BeatDivisor: 4
GridSize: 8

[Metadata]
Title:drive to the ever sky (Short Instrumental Ver.)
Artist:Silver Forest
Creator:RinNa
Version:Normal
Source:Touhou
Tags:

[Difficulty]
HPDrainRate:3
CircleSize:3
OverallDifficulty:3
ApproachRate:3
SliderMultiplier:1.2
SliderTickRate:1

[Events]
//Background and Video events
0,0,"drive to the ever sky (Short Instrumental Ver.).jpg"
//Break Periods
2,28455,37403
2,52940,62109
//Storyboard Layer 0 (Background)
//Storyboard Layer 1 (Fail)
//Storyboard Layer 2 (Pass)
//Storyboard Layer 3 (Foreground)
//Storyboard Sound Samples
//Background Colour Transformations
3,100,163,162,255

[TimingPoints]
20,441.176470588235,4,1,0,81,1,0
45902,-66.6666666666667,4,1,0,100,0,0
51196,-200,4,1,0,100,0,0
63549,-100,4,1,0,100,0,0
127519,-66.6666666666667,4,1,0,100,0,0

[HitObjects]
408,72,14137,2,0,B|408:264,1,180
320,248,15019,2,0,B|320:56,1,180
232,56,15902,1,0
104,184,16343,1,0
200,336,16784,1,0
200,336,17225,2,0,B|336:336,1,120
264,168,18108,5,0
264,168,18549,2,0,B|392:168,2,120
112,72,19872,2,0,B|56:200|168:288|232:136|320:312,1,360
312,297,21527,1,0
312,297,21858,2,0,B|312:104,1,180
104,80,22961,5,0
104,80,23402,1,0
192,160,23843,1,0
192,160,24284,1,0
144,272,24725,1,0
144,272,25167,2,0,B|224:336|288:208|376:208,1,240
359,209,26269,1,0
359,209,26490,1,0
216,104,27152,5,0
216,104,27372,1,0
216,104,27593,1,0
216,104,27814,2,0,B|296:104,2,60
256,192,38843,12,0,40387
416,88,40828,5,0
416,88,41049,2,0,B|416:160,1,60
192,56,42152,1,0
296,200,42814,1,0
296,200,43255,2,0,B|272:128|200:128,1,120
72,232,44137,6,0,B|72:312|160:312,2,120
72,232,45240,1,0
376,32,45902,6,0,B|376:168,1,120
376,152,46343,2,0,B|376:304,1,120
376,272,46784,2,0,B|376:352|272:352,1,120
301,350,47225,2,0,B|224:352|224:264,1,120
224,277,47667,2,0,B|224:144,1,120
224,157,48108,2,0,B|224:32,1,120
224,37,48549,1,0
368,80,48769,6,0,B|432:112,2,60
336,128,49211,2,0,B|384:184,2,60
296,160,49652,2,0,B|320:232,2,60
240,168,50093,6,0,B|216:256,8,60
280,232,51196,2,0,B|336:48,1,180
332,59,52740,1,0
256,192,63549,12,0,65314
320,112,65975,6,0,B|368:152,1,60
320,232,66417,2,0,B|384:280,1,60
112,96,67078,5,0
112,96,67520,2,0,B|64:192|72:248|208:248,1,240
288,248,68622,1,0
376,248,68843,2,0,B|456:248,2,60
288,248,69505,2,0,B|168:248,2,120
288,248,70608,1,0
208,160,71049,1,0
232,40,71490,1,0
344,80,71931,1,0
344,80,72372,2,0,B|440:192|296:312|200:304|144:240,1,360
224,160,74468,1,0
224,160,74578,2,0,B|224:288,1,120
224,280,75240,2,0,B|304:320|360:264|352:200,1,180
352,211,76122,2,0,B|320:144|392:104,1,120
464,72,76784,1,0
464,72,77005,1,0
464,72,77225,1,0
416,280,77667,5,0
296,280,78108,1,0
176,280,78549,1,0
176,280,78990,2,0,B|48:280,4,120
352,208,81196,5,0
352,208,81637,1,0
256,280,82078,2,0,B|208:312|144:312|128:304,1,120
141,307,82740,1,0
136,128,83402,1,0
240,64,83622,1,0
240,64,83843,2,0,B|312:64,2,60
392,192,84725,6,0,B|464:192,1,60
392,192,85167,2,0,B|320:192,1,60
392,192,85608,2,0,B|392:320,4,120
272,56,88034,6,0,B|344:72|360:152,1,120
360,136,88696,2,0,B|392:206|328:246,1,120
334,241,89358,2,0,B|256:304|144:272,1,180
164,277,90240,2,0,B|96:240|80:176|104:112,1,180
200,104,91343,1,0
200,104,91784,1,0
288,104,92005,6,0,B|408:104,1,120
408,192,92667,2,0,B|280:192,1,120
288,192,93328,1,0
256,192,93549,12,0,95314
344,80,97078,6,0,B|432:128|416:216|384:240,2,180
344,80,98622,2,0,B|264:32|160:80|160:264,1,300
160,238,99946,1,0
272,96,100608,5,0
448,96,101049,1,0
272,96,101490,1,0
448,96,101931,1,0
448,96,102372,2,0,B|472:208|392:272,2,180
448,96,103917,2,0,B|416:40|344:80,1,120
256,128,104578,1,0
256,128,105019,1,0
160,168,105461,2,0,B|88:192|88:296|168:320,1,180
146,310,106343,1,0
146,310,106784,1,0
320,96,107225,5,0
320,96,107667,1,0
400,256,108108,1,0
400,256,108549,1,0
400,256,108990,1,0
400,256,109431,2,0,B|368:336|256:352|192:296,1,240
196,299,110534,1,0
196,299,110755,2,0,B|128:248|96:168|136:88,2,240
196,299,112740,2,0,B|256:352|320:304,1,120
306,313,113402,2,0,B|368:272|328:208,1,120
216,72,114284,5,0
336,72,114725,1,0
448,120,115167,1,0
448,120,115608,2,0,B|376:224|264:192|224:136,1,240
240,154,116711,1,0
240,154,116931,2,0,B|168:152|168:232,1,120
256,192,117814,12,0,119578
344,136,120019,5,0
344,136,120461,1,0
344,136,120902,2,0,B|344:272,2,120
344,136,122005,2,0,B|464:136,2,120
344,136,123108,2,0,B|344:16,2,120
344,256,124431,5,0
344,256,124872,1,0
344,256,125314,1,0
240,312,125755,1,0
240,312,126196,1,0
136,256,127078,1,0
136,256,127519,2,0,B|136:136,6,89.9999973177911
