osu file format v9

[General]
AudioFilename: Silver Forest - Tsurupettan (sun3 Remix).mp3
AudioLeadIn: 1500
PreviewTime: -1
Countdown: 0
SampleSet: Normal
StackLeniency: 0
Mode: 0
LetterboxInBreaks: 1

[Editor]
Bookmarks: 135,10513,20891,40351,41648,62405,72783,83162,93540,114297,124675,135053,155810,176567,197324,219378,220675,241432,262189,267378,288134,298513,308891,329648,350405
DistanceSpacing: 0.6
BeatDivisor: 4
GridSize: 4

[Metadata]
Title:Tsurupettan (sun3 Remix)
Artist:Silver Forest
Creator:Fapfrit
Version:Extra
Source:Touhou
Tags:Suika

[Difficulty]
HPDrainRate:8
CircleSize:4
OverallDifficulty:9
ApproachRate:9
SliderMultiplier:1.7
SliderTickRate:1

[Events]
//Background and Video events
0,0,"Suika.png"
//Break Periods
2,72999,82513
2,135253,144783
2,161037,168075
2,171578,175967
2,176767,186297
2,197524,199270
2,200118,201864
2,202713,203162
2,204010,204459
2,205307,205756
2,218280,218778
2,252010,261540
//Storyboard Layer 0 (Background)
//Storyboard Layer 1 (Fail)
//Storyboard Layer 2 (Pass)
//Storyboard Layer 3 (Foreground)
//Storyboard Sound Samples
//Background Colour Transformations
3,100,0,0,0

[TimingPoints]
135,324.324324324324,4,1,0,60,1,0
41324,-100,4,1,0,60,0,1
41364,-100,4,1,0,60,0,0
72783,-100,4,1,0,60,0,1
72824,-100,4,1,0,60,0,0
93540,-125,4,1,0,60,0,0
113972,-125,4,1,0,60,0,1
114013,-125,4,1,0,60,0,0
114297,-100,4,1,0,60,0,1
124351,-100,4,1,0,60,0,0
176567,-100,4,1,0,60,0,1
176607,-100,4,1,0,60,0,0
207702,-100,4,1,0,60,0,1
207743,-100,4,1,0,60,0,0
208999,-100,4,1,0,60,0,1
209040,-100,4,1,0,60,0,0
210297,-100,4,1,0,60,0,1
210337,-100,4,1,0,60,0,0
210945,-100,4,1,0,60,0,1
210986,-100,4,1,0,60,0,0
211594,-100,4,1,0,60,0,1
211634,-100,4,1,0,60,0,0
212243,-100,4,1,0,60,0,1
212283,-100,4,1,0,60,0,0
212891,-100,4,1,0,60,0,1
218080,-100,4,1,0,60,0,0
220351,-100,4,1,0,60,0,1
220391,-100,4,1,0,60,0,0
251810,-100,4,1,0,60,0,1
251851,-100,4,1,0,60,0,0
267378,-125,4,1,0,60,0,0
287810,-100,4,1,0,60,0,1
287851,-100,4,1,0,60,0,0
288134,-100,4,1,0,60,0,1
298189,-100,4,1,0,60,0,0
350405,-100,4,1,0,60,0,1
350445,-100,4,1,0,60,0,0

[Colours]
Combo1 : 94,200,240
Combo2 : 255,150,0
Combo3 : 240,5,5

[HitObjects]
120,56,135,1,4
64,104,297,1,8
48,176,459,1,0
72,248,621,1,0
136,288,783,1,8
208,280,945,1,0
352,131,1107,5,4
312,192,1269,1,8
240,215,1431,1,0
169,187,1593,1,0
124,128,1755,1,8
120,56,1917,1,0
40,240,2080,5,0
40,216,2162,1,8
40,192,2243,1,0
40,168,2324,1,0
40,144,2405,1,8
40,120,2486,1,0
40,96,2567,1,0
40,72,2648,1,0
64,56,2729,6,0,B|64:144,1,85,4|8
88,208,3053,1,0
128,268,3216,1,0
196,296,3378,1,8
268,288,3540,1,0
448,344,3702,5,4
428,276,3864,1,8
376,224,4026,1,0
316,184,4189,1,0
244,168,4351,1,8
172,184,4513,1,0
300,332,4675,5,0
300,308,4756,1,8
300,284,4837,1,0
300,260,4918,1,0
300,236,4999,1,8
300,212,5080,1,0
300,188,5162,1,0
300,164,5243,1,0
276,152,5324,6,0,B|272:252,1,85,4|8
248,304,5648,1,0
180,332,5810,1,0
112,312,5972,1,8
80,248,6134,1,0
144,72,6297,5,4
196,124,6459,1,8
228,188,6621,1,0
240,260,6783,1,0
216,328,6945,1,8
148,304,7107,1,0
296,216,7270,5,0
320,216,7351,1,8
344,216,7432,1,0
368,216,7513,1,0
392,216,7594,1,8
416,216,7675,1,0
440,216,7756,1,0
464,228,7837,1,0
256,192,7918,12,8,10189
256,44,10351,5,0
312,176,10513,6,0,B|312:88,1,85,4|8
240,208,10837,2,0,B|240:120,1,85,8|0
168,240,11162,6,0,B|168:216,1,21.25
172,232,11243,2,0,B|172:208,1,21.25
164,224,11324,2,0,B|164:200,1,21.25
172,216,11405,2,0,B|172:192,1,21.25
168,208,11486,2,0,B|168:184,1,21.25
168,200,11567,2,0,B|168:176,1,21.25
168,192,11648,2,0,B|168:168,1,21.25
168,184,11729,6,0,B|168:160,1,21.25256,48
192,328,11972,1,0
208,192,12134,1,0
240,56,12297,1,0
335,152,12459,5,8
330,176,12540,1,0
320,199,12621,1,0
310,222,12702,1,0
297,244,12783,1,8
281,263,12864,1,0
262,279,12945,1,0
239,291,13026,1,0
216,302,13107,6,0,B|120:278,1,85,4|8
68,160,13432,2,0,B|150:182,1,85,8|0
268,104,13756,6,0,B|244:104,1,21.25
260,100,13837,2,0,B|236:100,1,21.25
252,108,13918,2,0,B|228:108,1,21.25
244,100,13999,2,0,B|220:100,1,21.25
236,104,14080,2,0,B|212:104,1,21.25
228,104,14161,2,0,B|204:104,1,21.25
220,104,14242,2,0,B|196:104,1,21.25
212,104,14323,6,0,B|188:104,1,21.25
352,72,14567,1,0
320,208,14729,1,0
256,328,14891,1,0
365,247,15053,5,8
387,234,15134,1,0
407,217,15216,1,0
425,198,15297,1,0
441,178,15378,1,8
452,155,15459,1,0
460,130,15540,1,0
465,105,15621,1,0
462,79,15702,6,0,B|375:52,1,85,4|8
232,72,16026,2,0,B|336:112,1,85,8|0
160,144,16351,6,0,B|180:138,3,21.25,0|0|0|0
152,160,16513,2,0,B|120:168,3,21.25
168,160,16675,2,0,B|189:160,3,21.25
152,176,16837,2,0,B|120:184,3,21.25
168,184,16999,5,0
320,240,17162,1,0
232,112,17324,1,0
200,264,17486,1,0
312,152,17648,6,0,B|352:136,3,42.5
384,72,17972,2,0,B|424:80,3,42.5
464,152,18297,5,4
416,296,18459,1,0
288,208,18621,1,0
136,224,18783,1,0
192,80,18945,5,0
192,104,19026,1,0
192,128,19107,1,0
192,152,19189,1,0
192,176,19270,1,0
192,200,19351,1,0
192,224,19432,1,0
192,248,19513,1,0
192,272,19594,5,0
136,336,19756,5,0
136,312,19837,1,0
264,264,19999,5,0
264,288,20080,1,0
208,336,20243,5,0
208,336,20324,1,0
208,336,20405,1,0
176,272,20567,6,0,B|144:256,8,21.25
280,168,21053,6,0,B|288:216|246:243,1,85
152,136,21378,2,0,B|142:101|156:70|185:60,1,85
320,88,21702,2,0,B|448:80,1,127.5
448,80,22026,2,0,B|408:168,1,85
360,296,22351,6,0,B|334:288|321:246|330:222,1,85
408,104,22675,2,0,B|433:111|450:149|437:177,1,85
312,248,22999,6,0,B|255:251,2,42.5
360,192,23324,1,0
176,192,23486,5,0
40,248,23648,6,0,B|80:240|80:240|144:256,1,85
200,136,23972,2,0,B|104:192,1,85
184,312,24297,2,0,B|196:272|224:256|224:256|256:208,1,127.5
312,256,24621,2,0,B|303:145,1,85
416,80,24945,6,0,B|376:72|376:72|328:88,1,85
200,144,25270,2,0,B|280:168,1,85
408,144,25594,5,0
408,144,25756,1,0
408,144,26080,1,0
360,264,26243,5,0
356,240,26324,1,0
352,216,26405,1,8
300,332,26567,5,0
296,308,26648,1,0
292,284,26729,1,0
212,184,26891,5,0
216,208,26972,1,0
220,232,27053,1,0
132,140,27216,5,0
136,164,27297,1,0
140,188,27378,1,0
60,288,27540,5,0
80,280,27621,1,0
100,272,27702,1,0
220,316,27864,5,0
200,324,27945,1,0
180,332,28026,1,0
264,236,28189,5,0
284,108,28351,1,0
344,220,28513,1,0
228,168,28675,1,0
352,144,28837,5,0
352,144,28918,1,0
352,144,28999,1,0
252,252,29162,5,0
252,252,29243,1,0
252,252,29324,1,0
284,88,29486,5,0
284,88,29567,1,0
284,88,29648,1,0
360,232,29810,5,0
360,232,29891,1,0
360,232,29972,1,0
208,156,30134,5,0
208,156,30216,1,0
208,156,30297,1,0
372,132,30459,5,0
372,132,30540,1,0
372,132,30621,1,0
316,316,30783,5,0
316,316,30945,1,0
64,336,31270,1,0
200,288,31432,6,0,B|156:296|115:288,1,85
48,160,31756,2,0,B|56:228,1,56.6666666666667
64,248,31918,2,0,B|96:216,1,42.5
104,216,32080,2,0,B|152:216,1,42.5
160,216,32243,2,0,B|208:216,1,42.5
216,216,32405,2,0,B|264:216,1,42.5
272,232,32567,6,0,B|368:216|368:216|408:224,1,127.5
432,160,32891,2,0,B|328:184,1,85
208,144,33216,2,0,B|289:119,1,85
432,80,33540,2,0,B|408:72,8,21.25
288,72,34026,1,0
144,112,34189,2,0,B|248:144,1,85
88,176,34513,2,0,B|170:198,1,85
64,96,34837,1,0
64,96,34918,1,0
64,96,34999,1,0
40,240,35162,2,0,B|96:276|168:272,1,127.5
224,312,35486,2,0,B|141:333,1,85
184,192,35810,1,0
320,248,35971,5,0
320,248,36134,1,0
40,40,36459,5,0
168,112,36621,5,0
144,112,36702,1,0
120,112,36783,1,0
256,88,36945,2,0,B|304:72,2,42.5
368,88,37270,5,0
368,88,37351,1,0
368,88,37432,1,0
272,168,37594,2,0,B|336:144,2,42.5
312,272,37918,5,0
352,160,38080,1,0
456,80,38243,2,0,B|456:184,1,85
456,192,38486,1,0
456,216,38567,1,0
456,240,38648,1,0
472,264,38729,2,0,B|472:288,9,21.25
472,264,39134,1,0
472,264,39216,1,0
384,328,39378,5,0
408,328,39459,1,0
432,328,39540,1,0
336,256,39702,5,0
360,256,39783,1,0
384,256,39864,1,0
232,208,40026,5,0
256,208,40107,1,0
280,208,40189,1,0
416,144,40351,5,0
96,168,40675,5,0
416,192,40999,5,0
96,216,41324,5,0
324,40,41648,2,0,B|316:136,1,85
311,150,41891,1,0
304,176,41972,1,0
228,280,42134,1,0
120,208,42297,2,0,B|146:210|146:210|194:196|225:213,1,85
331,203,42621,2,0,B|290:153|254:155,1,85
64,132,42945,1,0
64,132,43107,1,0
436,248,43432,1,0
220,52,43756,1,0
232,180,43918,1,0
312,280,44080,1,0
360,160,44243,1,0
172,104,44405,2,0,B|179:165|179:165|200:196,1,85
388,312,44729,2,0,B|380:250|380:250|359:219,1,85
276,144,45053,1,0
152,120,45216,1,0
48,192,45378,1,0
116,300,45540,2,0,B|136:260|136:212,2,85
76,180,46026,1,0
36,32,46189,2,0,B|30:82|56:128,1,85
124,216,46513,1,0
124,216,46675,1,0
456,152,46837,2,0,B|368:160,1,85
348,164,47080,1,0
324,172,47162,1,0
268,284,47324,1,0
384,336,47486,2,0,B|388:312|388:312|372:268|333:259,1,85
232,160,47810,2,0,B|228:188|228:188|243:227|267:230,1,85
472,208,48134,1,0
472,208,48297,1,0
156,344,48621,1,0
72,60,48945,1,0
80,188,49107,1,0
192,248,49270,1,0
240,128,49432,1,0
424,64,49594,2,0,B|419:111|396:156,1,85
304,300,49918,2,0,B|336:276|388:276,1,85
240,268,50243,1,0
320,168,50405,1,0
268,48,50567,1,0
168,124,50729,2,0,B|170:155|170:155|175:179|175:179|177:208,1,85
204,332,51053,1,0
108,244,51216,1,0
80,120,51378,1,0
88,96,51459,1,0
104,76,51540,1,0
124,60,51621,1,0
148,52,51702,1,0
172,48,51783,1,0
196,52,51864,1,0
216,64,51945,1,0
236,80,52026,2,0,B|296:96|296:96|328:88,1,85
340,80,52270,1,0
364,72,52351,1,0
240,44,52513,1,0
160,140,52675,2,0,B|176:200|176:200|193:218,1,85
340,304,52999,2,0,B|324:260|287:239,1,85
88,188,53324,1,0
88,188,53486,1,0
180,276,53648,1,0
380,228,53810,1,0
240,44,54134,1,0
360,92,54297,1,0
296,204,54459,1,0
172,184,54621,1,0
40,48,54783,2,0,B|48:110|48:110|59:129,1,85
248,212,55107,2,0,B|234:150|234:150|221:132,1,85
96,108,55432,1,0
44,224,55594,1,0
140,304,55756,1,0
260,260,55918,1,0
282,247,55999,1,0
301,230,56080,1,0
318,212,56162,1,0
331,190,56243,1,0
341,167,56324,1,0
346,144,56405,1,0
344,120,56486,1,0
327,101,56567,1,0
301,100,56648,1,0
277,108,56729,1,0
257,126,56810,1,0
236,140,56891,1,0
210,143,56972,1,0
192,129,57053,1,0
183,107,57134,1,0
188,82,57216,5,0
472,60,57864,1,0
40,188,58513,1,0
292,220,58837,1,0
472,60,59162,1,0
208,56,59486,1,0
140,220,59648,1,0
304,308,59810,5,0
214,220,59972,1,0
188,340,60134,1,0
324,276,60297,5,0
234,188,60459,1,0
208,308,60621,1,0
340,252,60783,5,0
250,164,60945,1,0
224,284,61107,1,0
348,308,61270,5,0
456,240,61432,1,0
416,108,61594,1,0
280,48,61756,1,0
280,72,61837,1,0
280,96,61918,1,0
280,120,61999,1,0
280,144,62080,1,0
280,168,62162,1,0
280,192,62243,1,0
280,216,62324,1,0
280,240,62405,5,0
280,312,62729,1,0
188,348,63053,1,0
188,276,63378,1,0
40,40,63864,1,0
72,120,64189,1,0
216,152,64513,1,0
364,204,64837,1,0
472,40,64999,1,0
472,112,65324,1,0
308,76,65648,1,0
308,148,65972,1,0
40,192,66459,1,0
472,192,66783,1,0
140,184,67107,1,0
372,184,67432,1,0
200,264,67594,1,0
272,264,67918,1,0
400,312,68243,1,0
328,312,68567,1,0
216,40,69053,1,0
300,76,69378,1,0
248,204,69702,1,0
108,120,70026,1,0
48,324,70189,1,0
48,252,70513,1,0
160,200,70837,1,0
160,272,71162,1,0
348,40,71648,1,0
308,212,71972,1,0
168,92,72297,1,0
276,120,72621,1,0
276,120,72783,1,0
78,42,83162,5,0
64,63,83243,1,0
58,87,83324,1,0
59,112,83405,1,0
72,133,83486,2,0,B|85:154|107:154,3,42.5
133,154,83810,1,0
155,142,83891,1,0
175,127,83972,1,0
186,104,84053,1,0
198,81,84134,2,0,B|212:59|244:65,3,42.5
260,63,84459,1,0
282,74,84540,1,0
300,92,84621,1,0
305,116,84702,1,0
296,139,84783,1,0
235,178,84945,1,0
169,211,85107,2,0,B|167:242|193:262,1,42.5
195,271,85270,1,0
215,285,85351,1,0
239,290,85432,1,0
309,269,85594,1,0
359,216,85756,1,0
356,190,85837,1,0
346,166,85918,1,0
331,145,85999,1,0
312,127,86080,2,0,B|293:108|272:104,3,42.5
250,105,86405,1,0
225,112,86486,1,0
203,125,86567,1,0
186,144,86648,1,0
177,168,86729,2,0,B|172:195|155:211,3,42.5
149,229,87053,2,0,B|133:244|110:249,1,42.5
86,250,87216,2,0,B|59:241|50:221,1,42.5
38,200,87378,2,0,B|38:170|52:146,1,42.5
62,143,87540,2,0,B|80:127|103:126,1,42.5
125,122,87702,1,0
149,129,87783,1,0
167,146,87864,1,0
183,165,87945,1,0
195,186,88026,1,0
208,207,88107,1,0
226,225,88189,1,0
249,234,88270,1,0
273,239,88351,2,0,B|297:242|329:233,3,42.5
333,218,88675,2,0,B|352:204|384:205,3,42.5
397,200,88999,1,0
422,200,89080,1,0
446,207,89162,1,0
466,221,89243,1,0
477,242,89324,1,0
472,312,89486,1,0
410,348,89648,2,0,B|381:344|363:323,1,42.5
351,315,89810,2,0,B|336:294|337:271,1,42.5
333,250,89972,2,0,B|331:222|316:204,1,42.5
319,184,90134,2,0,B|307:158|280:142,1,42.5
269,139,90297,1,0
244,132,90378,1,0
218,133,90459,1,0
190,138,90540,1,0
118,161,90783,1,0
70,215,90945,1,0
74,240,91026,1,0
84,263,91107,1,0
99,283,91189,1,0
119,298,91270,2,0,B|144:309|186:298,3,42.5
184,294,91594,1,0
204,279,91675,1,0
220,259,91756,1,0
233,237,91837,1,0
238,212,91918,2,0,B|237:186|254:168,3,42.5
267,152,92243,1,0
287,136,92324,1,0
310,126,92405,1,0
334,120,92486,1,0
358,122,92567,1,0
382,130,92648,1,0
403,144,92729,1,0
415,166,92810,1,0
424,189,92891,1,0
425,214,92972,1,0
412,282,93134,1,0
392,298,93216,1,0
321,308,93378,1,0
76,236,93540,6,0,B|148:260|288:212|352:236,1,272
64,212,94513,1,0
128,60,94837,2,0,B|164:156|124:268|124:268|76:312,1,272
104,40,95810,1,0
356,60,96134,2,0,B|280:52|217:84,1,136
160,136,96621,1,0
120,208,96783,1,0
112,292,96945,1,0
193,345,97107,1,0
190,321,97189,1,0
184,297,97270,1,0
171,276,97351,1,0
156,260,97432,2,0,B|52:192|100:52,1,204
172,44,98080,1,0
288,336,98405,1,0
452,136,98567,1,0
444,160,98648,1,0
436,184,98729,2,0,B|414:224|414:224|329:271|228:192|187:272,1,272
396,312,99702,1,0
204,104,100026,2,0,B|180:160|224:248|224:248|272:276,1,204
352,252,100675,1,0
96,176,100999,1,0
452,48,101324,2,0,B|405:96|320:88,1,136
244,68,101810,1,0
168,104,101972,2,0,B|136:180|204:228|204:228|272:208,1,204
332,164,102621,1,0
348,84,102783,1,0
260,40,102945,1,0
144,80,103107,1,0
84,192,103270,1,0
152,316,103432,1,0
172,300,103513,1,0
180,276,103594,1,0
72,152,103756,1,0
76,176,103837,1,0
92,192,103918,2,0,B|152:224|248:200|232:88|232:88|184:36,1,272
156,128,104891,1,0
448,324,105216,2,0,B|461:187|461:187|460:137|424:104,1,204
296,68,105864,1,0
424,196,106026,1,0
252,276,106189,6,0,B|240:200|288:144,1,136
360,116,106675,1,0
436,144,106837,1,0
448,224,106999,1,0
392,284,107162,1,0
252,272,107324,2,0,B|320:264,1,68
168,196,107648,1,0
192,196,107729,1,0
216,196,107810,1,0
96,120,107972,1,0
52,344,108134,2,0,B|40:252|40:252|48:184,1,136
96,120,108621,1,0
116,136,108702,1,0
128,156,108783,1,0
116,44,108945,1,0
140,48,109026,1,0
160,64,109107,2,0,B|196:116|196:116|208:216|272:224,1,204
344,192,109756,1,0
120,340,110080,1,0
200,328,110243,1,0
256,268,110405,1,0
176,96,110567,2,0,B|172:164|192:232,1,136
248,296,111053,1,0
412,208,111216,1,0
388,208,111297,1,0
364,208,111378,1,0
340,208,111459,1,0
256,192,111540,12,0,113648
472,152,113972,5,0
224,48,114297,6,0,B|216:96|232:132,1,85
288,276,114621,2,0,B|292:232|280:192,1,85
108,96,114945,2,0,B|100:144|116:180,1,85
408,324,115270,2,0,B|412:280|400:240,1,85
352,160,115594,5,0
288,228,115756,1,0
380,252,115918,1,0
316,144,116080,1,0
212,104,116243,1,0
76,80,116405,1,0
92,100,116486,1,0
116,112,116567,1,0
276,96,116729,1,0
424,40,116891,6,0,B|424:84|394:119,1,85
300,224,117216,2,0,B|300:176|329:144,1,85
416,296,117540,2,0,B|396:324|396:324|312:348,1,85
48,304,117864,2,0,B|68:276|68:276|152:252,1,85
204,232,118189,5,0
184,324,118351,1,0
104,276,118513,1,0
76,172,118675,1,0
116,56,118837,1,0
260,40,118999,1,0
236,48,119080,1,0
212,56,119162,1,0
152,204,119324,1,0
276,336,119486,6,0,B|288:284|250:238,1,85
120,336,119810,2,0,B|200:308,1,85
116,128,120134,2,0,B|120:180|160:212,1,85
404,152,120459,2,0,B|312:152,1,85
48,56,120783,2,0,B|108:56|108:56|144:64,1,85
316,236,121026,1,0
332,256,121107,1,0
180,252,121270,1,0
180,252,121432,1,0
180,252,121594,1,0
180,252,121675,1,0
180,252,121756,1,0
180,252,121918,1,0
64,56,122080,1,0
64,160,122243,1,0
196,136,122405,2,0,B|296:136,1,85
396,100,122729,1,0
384,216,122891,1,0
280,260,123053,2,0,B|196:240,1,85
76,316,123378,1,0
76,316,123540,1,0
76,316,123621,1,0
76,316,123702,1,0
76,316,123864,1,0
76,316,124026,1,0
160,320,124189,2,0,B|168:232,1,85
140,168,124675,5,0
140,168,124837,1,0
140,168,124999,1,0
140,168,125162,1,0
140,168,125324,1,0
140,168,125405,1,0
140,168,125486,1,0
140,168,125648,1,0
140,168,125810,1,0
140,168,125972,1,0
140,168,126134,1,0
140,168,126297,1,0
140,168,126459,1,0
140,168,126621,1,0
140,168,126702,1,0
140,168,126783,1,0
140,168,126945,1,0
140,168,127107,1,0
56,260,127270,2,0,B|152:268,1,85
200,256,127594,2,0,B|264:200,1,85
80,208,127918,1,0
80,208,127999,1,0
80,208,128080,1,0
80,208,128243,1,0
80,208,128405,1,0
80,208,128567,1,0
80,208,128729,1,0
80,208,128891,1,0
80,208,129053,1,0
80,208,129216,1,0
80,208,129297,1,0
80,208,129378,1,0
80,208,129540,1,0
208,144,129702,1,0
104,264,129864,2,0,B|200:284,1,85
187,281,130189,2,0,B|288:228|288:228,1,85
140,152,130513,1,0
140,152,130594,1,0
140,152,130675,1,0
140,152,130837,1,0
140,152,130999,1,0
72,196,131162,2,0,B|176:236,1,85
151,226,131486,2,0,B|264:216,1,85
304,196,131810,1,0
304,196,131891,1,0
304,196,131972,1,0
304,196,132134,1,0
304,196,132297,1,0
80,208,132459,1,0
80,208,132540,1,0
80,208,132621,1,0
80,208,132702,1,0
80,208,132783,1,0
80,208,132864,1,0
80,208,132945,1,0
80,208,133026,1,0
80,208,133107,1,0
80,208,133189,1,0
80,208,133270,1,0
80,208,133351,1,0
80,208,133432,1,0
80,208,133513,1,0
80,208,133594,1,0
80,208,133675,1,0
80,208,133756,1,0
80,208,133837,1,0
80,208,133918,1,0
80,208,133999,1,0
80,208,134080,1,0
80,208,134162,1,0
80,208,134243,1,0
80,208,134324,1,0
80,208,134405,1,0
80,208,134486,1,0
80,208,134567,1,0
80,208,134648,1,0
80,208,134729,1,0
80,208,134810,1,0
80,208,134891,1,0
80,208,134972,1,0
80,208,135053,1,0
204,201,145432,6,0,B|120:192,1,85
272,144,145756,6,0,B|380:156,1,85
88,88,146080,6,0,B|196:100,1,85
144,304,146405,6,0,B|59:294,1,85
288,272,146729,1,0
144,136,146891,1,0
144,136,146972,1,0
144,136,147053,1,0
144,136,147216,1,0
112,208,147378,2,0,B|196:208,1,85
288,180,147702,2,0,B|312:180,7,21.25
280,64,148026,2,0,B|164:64,1,85
108,72,148351,2,0,B|88:164,1,85
120,240,148675,2,0,B|212:232,1,85
272,136,148999,2,0,B|288:256,1,85
208,248,149324,1,0
208,248,149486,1,0
208,248,149567,1,0
208,248,149648,1,0
208,248,149810,1,0
140,220,149972,2,0,B|140:136,1,85
68,132,150297,1,0
220,184,150459,1,0
304,128,150621,2,0,B|392:128,2,85
256,212,151107,1,0
308,284,151270,2,0,B|396:284,2,85
180,288,151756,1,0
180,288,151918,1,0
180,288,152080,1,0
180,288,152162,1,0
180,288,152243,1,0
180,288,152405,1,0
96,284,152567,2,0,B|76:188,2,85
152,132,152932,2,0,B|172:132,6,21.25
280,88,153216,2,0,B|280:188|280:188,2,85
184,220,153702,1,0
368,172,153864,2,0,B|352:272,2,85
160,128,154351,1,0
288,220,154513,1,0
288,220,154675,1,0
288,220,154837,1,0
288,220,154999,1,0
288,220,155162,1,0
288,220,155243,1,0
288,220,155324,1,0
288,220,155405,1,0
288,220,155486,1,0
288,220,155648,1,0
124,212,155810,2,0,B|228:132,1,113.333333333333
168,152,156134,1,0
60,116,156351,1,0
176,80,156459,2,0,B|296:116,1,113.333333333333
288,164,156783,1,0
288,164,156999,1,0
320,72,157107,2,0,B|268:184,1,113.333333333333
184,212,157432,1,0
68,152,157648,1,0
128,260,157756,2,0,B|232:308,1,113.333333333333
68,152,158080,1,0
268,88,158297,1,0
176,60,158405,2,0,B|176:184,1,113.333333333333
184,212,158729,1,0
208,192,158945,1,0
264,256,159053,2,0,B|360:184,1,113.333333333333
96,180,159378,1,0
96,180,159594,1,0
364,152,159702,1,0
364,152,159810,1,0
364,152,159918,1,0
364,152,160026,1,0
168,244,160243,1,0
168,244,160351,1,0
168,244,160459,1,0
168,244,160675,1,0
96,180,160837,1,0
224,192,168675,5,0
224,192,168783,1,0
108,148,168999,2,0,B|212:136,1,56.6666666666667
88,224,169324,2,0,B|144:268,1,56.6666666666667
184,120,169648,2,0,B|240:100|240:100,1,56.6666666666667
224,192,169972,1,0
224,192,170080,5,0
224,192,170189,1,0
224,192,170297,1,0
224,192,170405,1,0
100,136,170621,1,0
100,136,170729,1,0
100,136,170945,1,0
100,136,171054,1,0
156,116,171270,1,0
156,116,171378,1,0
224,160,176567,5,0
224,160,186945,5,0
96,164,187432,2,0,B|184:168,2,85
96,164,188080,2,0,B|184:168,2,85
96,164,188729,2,0,B|184:168,2,85
96,164,189378,2,0,B|184:168,2,85
96,164,190026,2,0,B|184:168,2,85
96,164,190675,2,0,B|184:168,2,85
232,232,191162,1,0
232,232,191324,1,0
216,124,191486,5,0
216,124,191648,1,0
216,124,191729,1,0
216,124,191810,1,0
216,124,191972,1,0
308,164,192134,1,0
96,164,192297,2,0,B|184:168,2,85
96,164,192945,2,0,B|184:168,2,85
96,164,193594,2,0,B|184:168,2,85
96,164,194243,2,0,B|184:168,2,85
96,164,194891,2,0,B|184:168,2,85
96,164,195540,2,0,B|184:168,2,85
120,300,196026,1,0
120,300,196189,1,0
120,300,196270,1,0
120,300,196351,1,0
120,300,196432,1,0
120,300,196513,1,0
120,300,196594,1,0
120,300,196675,1,0
120,300,196756,1,0
120,300,196837,1,0
120,300,196918,1,0
120,300,196999,1,0
120,300,197080,1,0
120,300,197162,1,0
120,300,197243,1,0
120,300,197324,1,0
228,192,199918,5,0
156,136,202513,5,0
156,136,203810,5,0
240,200,205107,5,0
240,200,206405,5,0
164,160,207053,1,0
224,192,207702,5,0
224,192,208837,1,0
224,192,208999,1,0
224,192,210134,1,0
224,192,210297,1,0
224,192,210783,1,0
224,192,210945,1,0
176,192,211107,1,0
160,48,211432,1,0
184,96,211594,1,0
184,96,211756,1,0
184,96,211918,1,0
184,96,212080,1,0
184,96,212243,1,0
184,96,212405,1,0
184,96,212567,1,0
184,96,212729,1,0
304,384,212891,5,0
304,384,212972,1,0
304,384,213053,1,0
304,384,213216,1,0
304,384,213297,1,0
304,384,213459,1,0
304,384,213621,1,0
304,384,213783,1,0
304,384,213864,1,0
304,384,214026,1,0
304,384,214189,1,0
304,384,214270,1,0
304,384,214351,1,0
304,384,214513,1,0
304,384,214594,1,0
304,384,214756,1,0
304,384,214918,1,0
304,384,215080,1,0
304,384,215162,1,0
304,384,215324,1,0
304,384,215486,1,0
304,384,215567,1,0
304,384,215648,1,0
304,384,215729,1,0
304,384,215810,1,0
304,384,215891,1,0
304,384,215972,1,0
304,384,216053,1,0
304,384,216134,1,0
304,384,216216,1,0
304,384,216297,1,0
304,384,216378,1,0
304,384,216459,1,0
304,384,216540,1,0
304,384,216621,1,0
304,384,216702,1,0
304,384,216783,2,0,B|336:372,7,21.25
304,384,217107,2,0,B|272:372,7,21.25
304,384,217432,2,0,B|304:352,7,21.25
304,384,217756,2,0,B|304:352,7,21.25
304,384,218080,1,0
256,192,219378,5,0
256,192,219702,1,0
256,192,220026,1,0
256,192,220351,1,0
120,120,220675,2,0,B|208:120,1,85
116,176,220918,1,0
116,176,220999,1,0
116,176,221162,1,0
96,264,221324,2,0,B|196:260,1,85
180,260,221648,2,0,B|264:260,1,85
196,164,221972,1,0
196,164,222134,1,0
196,164,222459,1,0
196,164,222783,1,0
196,164,222945,1,0
196,164,223107,1,0
196,164,223270,1,0
108,88,223432,2,0,B|112:204,1,85
112,204,223756,2,0,B|192:232,1,85
196,164,224080,1,0
196,164,224243,1,0
196,164,224405,1,0
244,252,224567,2,0,B|336:236,2,85
196,164,225053,1,0
84,268,225216,2,0,B|124:176,1,85
136,104,225540,1,0
136,104,225702,1,0
288,104,225864,2,0,B|280:192,1,85
196,164,226108,1,0
196,164,226189,1,0
136,200,226351,1,0
204,288,226513,2,0,B|288:276,1,85
288,275,226837,2,0,B|408:276,1,85
376,216,227162,1,0
376,216,227324,1,0
192,108,227648,1,0
192,108,227972,1,0
192,108,228134,1,0
192,108,228297,1,0
192,108,228459,1,0
332,108,228621,2,0,B|304:196,1,85
306,188,228945,2,0,B|240:240,1,85
128,168,229270,1,0
128,168,229432,1,0
128,168,229594,1,0
200,188,229756,2,0,B|176:280,1,85
112,312,230080,1,0
112,312,230243,1,0
112,312,230405,1,0
112,312,230486,1,0
112,312,230567,1,0
112,312,230648,1,0
112,312,230729,1,0
112,312,230810,1,0
112,312,230891,1,0
112,312,230972,1,0
48,248,231053,2,0,B|72:152,1,85
104,148,231297,1,0
104,148,231378,1,0
256,164,231540,1,0
180,232,231702,2,0,B|256:268,1,85
256,268,232026,2,0,B|328:224,1,85
224,96,232351,1,0
224,96,232513,1,0
224,96,232675,1,0
224,96,232837,1,0
224,96,233162,1,0
224,96,233324,1,0
224,96,233486,1,0
224,96,233648,1,0
56,160,233810,2,0,B|144:160,1,85
56,160,234134,2,0,B|144:160,1,85
164,228,234459,1,0
164,228,234621,1,0
164,228,234783,1,0
192,140,234945,1,0
192,140,235026,1,0
192,140,235107,1,0
192,140,235189,1,0
192,140,235270,1,0
192,140,235351,1,0
160,112,235432,1,0
192,140,235513,1,0
192,140,235594,1,0
192,140,235675,1,0
192,140,235756,1,0
192,140,235837,1,0
192,140,235918,1,0
192,140,235999,1,0
192,140,236080,1,0
192,140,236162,1,0
192,140,236243,1,0
192,140,236891,1,0
192,140,237540,1,0
192,140,238189,1,0
192,140,238513,1,0
192,140,238837,1,0
192,140,238999,1,0
192,140,239162,1,0
192,140,239324,1,0
192,140,239486,1,0
192,140,239648,1,0
192,140,239810,1,0
192,140,239972,1,0
192,140,240134,1,0
192,140,240216,1,0
192,140,240297,1,0
192,140,240378,1,0
192,140,240459,1,0
192,140,240540,1,0
192,140,240621,1,0
192,140,240702,1,0
192,140,240783,1,0
192,140,240864,1,0
192,140,240945,1,0
192,140,241026,1,0
192,140,241107,1,0
192,140,241189,1,0
192,140,241270,1,0
192,140,241351,1,0
256,192,241432,5,0
256,192,241756,1,0
256,192,242080,1,0
256,192,242405,1,0
256,192,242891,1,0
256,192,243216,1,0
256,192,243540,1,0
256,192,243864,1,0
256,192,244026,1,0
256,192,244351,1,0
256,192,244675,1,0
256,192,244999,1,0
256,192,245486,1,0
256,192,245810,1,0
256,192,246134,1,0
256,192,246459,1,0
256,192,246621,1,0
256,192,246945,1,0
256,192,247270,1,0
256,192,247594,1,0
256,192,248080,1,0
256,192,248405,1,0
256,192,248729,1,0
256,192,249053,1,0
256,192,249216,1,0
256,192,249540,1,0
256,192,249864,1,0
256,192,250189,1,0
256,192,250675,1,0
256,192,250999,1,0
256,192,251324,1,0
256,192,251648,1,0
256,192,251810,1,0
256,192,262189,5,0
256,192,262270,1,0
256,192,262351,1,0
256,192,262432,1,0
256,192,262513,2,0,B|304:192,3,42.5
298,192,262837,1,0
298,192,262918,1,0
298,192,262999,1,0
298,192,263080,1,0
298,192,263162,2,0,B|352:192,3,42.5
341,192,263486,1,0
341,192,263567,1,0
341,192,263648,1,0
341,192,263729,1,0
341,192,263810,1,0
341,192,263891,1,0
341,192,263972,1,0
341,192,264053,1,0
341,192,264134,1,0
341,192,264297,1,0
341,192,264378,1,0
341,192,264459,1,0
341,192,264621,1,0
341,192,264783,1,0
341,192,264864,1,0
341,192,264945,2,0,B|341:242,1,42.5
341,192,265107,2,0,B|341:242,1,42.5
341,192,265270,2,0,B|341:242,1,42.5
341,234,265432,1,0
341,234,265513,1,0
341,234,265594,1,0
341,234,265675,1,0
341,192,265756,1,0
341,192,265837,1,0
341,192,265918,1,0
341,192,265999,1,0
341,234,266080,2,0,B|340:288,1,42.5
340,276,266243,2,0,B|340:320,1,42.5
340,319,266405,2,0,B|296:320,1,42.5
297,319,266567,1,0
297,319,266729,1,0
297,319,266810,1,0
297,319,266891,1,0
297,319,266972,1,0
297,319,267053,1,0
297,319,267134,1,0
297,319,267216,1,0
128,148,267378,6,0,B|400:148,1,272
152,244,268351,1,0
92,208,268675,2,0,B|252:188,1,136
292,300,269162,1,0
328,220,269324,2,0,B|428:44,1,204
244,136,269972,1,0
244,136,270297,1,0
244,136,270459,1,0
244,136,270621,1,0
152,180,270945,1,0
152,180,271107,1,0
152,180,271189,1,0
152,180,271270,2,0,B|344:264,1,204
76,176,271918,1,0
76,176,272243,1,0
76,176,272405,1,0
76,176,272486,1,0
76,176,272567,2,0,B|348:104,1,272
188,264,273540,1,0
312,304,273864,2,0,B|332:92,1,204
180,152,274513,1,0
184,224,274837,1,0
144,312,275162,2,0,B|304:288,1,136
344,220,275648,1,0
260,196,275810,2,0,B|428:68,1,204
156,192,276459,1,0
156,192,276621,1,0
156,192,276702,1,0
156,192,276783,1,0
156,192,276945,1,0
156,192,277107,1,0
156,192,277270,1,0
156,192,277351,1,0
156,192,277432,1,0
156,192,277594,1,0
156,192,277675,1,0
156,192,277756,2,0,B|424:140,1,272
148,264,278729,1,0
172,88,279053,2,0,B|252:208,1,136
80,200,279540,1,0
80,200,279702,1,0
224,216,279864,2,0,B|356:144,1,136
216,92,280351,1,0
216,92,280675,1,0
216,92,280837,1,0
216,92,280999,1,0
216,92,281324,1,0
216,92,281486,1,0
216,92,281567,1,0
216,92,281648,2,0,B|348:120,1,136
208,296,282134,1,0
208,296,282297,1,0
208,296,282459,1,0
208,296,282621,1,0
208,296,282783,1,0
208,296,282864,1,0
208,296,282945,2,0,B|296:172,1,136
88,212,283432,1,0
88,212,283594,1,0
180,216,283756,2,0,B|380:96,1,204
88,104,284405,1,0
88,104,284729,1,0
88,104,284891,1,0
88,104,284972,1,0
88,104,285053,1,0
88,104,285134,1,0
88,104,285216,1,0
88,104,285297,1,0
88,104,285378,1,0
88,104,285459,1,0
256,192,285540,12,0,287486
256,192,287810,5,0
120,64,288135,2,0,B|108:152,1,85
392,64,288459,2,0,B|404:152,1,85
120,64,288783,2,0,B|108:152,1,85
392,64,289108,2,0,B|404:152,1,85
256,328,289432,1,0
256,216,289594,1,0
260,84,289756,1,0
256,216,289918,1,0
256,328,290081,1,0
152,224,290243,1,0
152,224,290324,1,0
152,224,290405,1,0
152,224,290567,1,0
120,64,290729,2,0,B|108:152,1,85
392,64,291054,2,0,B|404:152,1,85
120,64,291378,2,0,B|108:152,1,85
392,64,291702,2,0,B|404:152,1,85
240,216,292027,1,0
240,64,292189,1,0
236,344,292351,1,0
248,156,292513,1,0
128,228,292675,1,0
128,228,292837,1,0
128,228,292918,1,0
128,228,293000,1,0
128,228,293162,1,0
116,64,293324,2,0,B|220:100,1,85
396,64,293648,2,0,B|292:100,1,85
116,64,293972,2,0,B|220:100,1,85
396,64,294297,2,0,B|292:100,1,85
232,312,294621,2,0,B|232:200,1,85
180,252,294864,1,0
180,252,294945,1,0
180,252,295108,1,0
180,252,295270,1,0
180,252,295432,1,0
180,252,295513,1,0
180,252,295594,1,0
180,252,295756,1,0
64,56,295918,1,0
64,160,296081,1,0
196,136,296243,2,0,B|296:136,1,85
396,100,296567,1,0
384,216,296729,1,0
280,260,296891,2,0,B|196:240,1,85
76,316,297216,1,0
76,316,297378,1,0
76,316,297459,1,0
76,316,297540,1,0
76,316,297702,1,0
76,316,297864,1,0
160,320,298027,2,0,B|168:232,1,85
140,168,298513,5,0
140,168,298675,1,0
140,168,298837,1,0
140,168,299000,1,0
140,168,299162,1,0
140,168,299243,1,0
140,168,299324,1,0
140,168,299486,1,0
140,168,299648,1,0
140,168,299810,1,0
140,168,299972,1,0
140,168,300135,1,0
140,168,300297,1,0
140,168,300459,1,0
140,168,300540,1,0
140,168,300621,1,0
140,168,300783,1,0
140,168,300945,1,0
56,260,301108,2,0,B|152:268,1,85
200,256,301432,2,0,B|264:200,1,85
80,208,301756,1,0
80,208,301837,1,0
80,208,301918,1,0
80,208,302081,1,0
80,208,302243,1,0
80,208,302405,1,0
80,208,302567,1,0
80,208,302729,1,0
80,208,302891,1,0
80,208,303054,1,0
80,208,303135,1,0
80,208,303216,1,0
80,208,303378,1,0
208,144,303540,1,0
104,264,303702,2,0,B|200:284,1,85
187,281,304027,2,0,B|288:228|288:228,1,85
140,152,304351,1,0
140,152,304432,1,0
140,152,304513,1,0
140,152,304675,1,0
140,152,304837,1,0
72,196,305000,2,0,B|176:236,1,85
151,226,305324,2,0,B|264:216,1,85
304,196,305648,1,0
304,196,305729,1,0
304,196,305810,1,0
304,196,305972,1,0
304,196,306135,1,0
80,208,306297,1,0
80,208,306378,1,0
80,208,306459,1,0
80,208,306540,1,0
80,208,306621,1,0
80,208,306702,1,0
80,208,306783,1,0
80,208,306864,1,0
80,208,306945,1,0
80,208,307027,1,0
80,208,307108,1,0
80,208,307189,1,0
80,208,307270,1,0
80,208,307351,1,0
80,208,307432,1,0
80,208,307513,1,0
80,208,307594,1,0
80,208,307675,1,0
80,208,307756,1,0
80,208,307837,1,0
80,208,307918,1,0
80,208,308000,1,0
80,208,308081,1,0
80,208,308162,1,0
80,208,308243,1,0
80,208,308324,1,0
80,208,308405,1,0
80,208,308486,1,0
80,208,308567,1,0
80,208,308648,1,0
80,208,308729,1,0
80,208,308810,1,0
80,208,308891,1,0
212,172,309540,1,0
212,172,310189,1,0
212,172,310837,1,0
212,172,311486,1,0
212,172,312134,1,0
212,172,312783,1,0
212,172,313432,1,0
212,172,314080,1,0
212,172,314729,1,0
212,172,315378,1,0
212,172,316026,1,0
212,172,316675,1,0
212,172,317324,1,0
212,172,317972,1,0
212,172,318621,1,0
40,256,319270,1,0
308,144,319918,1,0
308,144,320567,1,0
308,144,321216,1,0
308,144,321864,1,0
308,144,322513,1,0
308,144,323162,1,0
308,144,323810,1,0
308,144,324459,1,0
308,144,325107,1,0
308,144,325756,1,0
308,144,326405,1,0
308,144,327053,1,0
308,144,327702,1,0
308,144,328351,1,0
308,144,328999,1,0
308,144,329648,1,0
308,144,329810,1,0
308,144,329972,1,0
308,144,330134,1,0
308,144,330297,1,0
308,144,330459,1,0
308,144,330621,1,0
308,144,330783,1,0
308,144,330945,1,0
308,144,331107,1,0
308,144,331270,1,0
308,144,331432,1,0
308,144,331594,1,0
308,144,331675,1,0
308,144,331756,1,0
308,144,331837,1,0
308,144,331918,1,0
308,144,331999,1,0
308,144,332080,1,0
308,144,332162,1,0
308,144,332243,2,0,B|308:240,1,85
80,200,332567,1,0
80,200,332729,1,0
80,200,332891,1,0
80,200,333053,1,0
80,200,333216,1,0
80,200,333378,1,0
80,200,333540,1,0
80,200,333702,1,0
80,200,333864,1,0
80,200,334026,1,0
80,200,334189,1,0
80,200,334270,1,0
80,200,334351,1,0
80,200,334432,1,0
80,200,334513,1,0
80,200,334594,1,0
80,200,334675,1,0
80,200,334756,1,0
80,200,334837,2,0,B|172:200,1,85
236,276,335162,1,0
236,276,335324,1,0
236,276,335486,1,0
236,276,335648,1,0
236,276,335810,1,0
236,276,335972,1,0
236,276,336134,1,0
236,276,336297,1,0
236,276,336459,1,0
236,276,336621,1,0
236,276,336783,1,0
236,276,336864,1,0
236,276,336945,1,0
236,276,337026,1,0
236,276,337107,1,0
236,276,337189,1,0
236,276,337270,1,0
236,276,337351,1,0
236,276,337432,2,0,B|340:276,1,85
116,204,337756,1,0
116,204,337918,1,0
116,204,338080,1,0
116,204,338243,1,0
116,204,338405,1,0
116,204,338567,1,0
116,204,338729,1,0
116,204,338891,1,0
116,204,339053,1,0
116,204,339216,1,0
116,204,339378,1,0
116,204,339459,1,0
116,204,339540,1,0
116,204,339621,1,0
116,204,339702,1,0
116,204,339783,1,0
116,204,339864,1,0
116,204,339945,1,0
116,204,340026,2,0,B|232:204,1,85
264,112,340351,1,0
264,112,340513,1,0
264,112,340594,1,0
264,112,340675,1,0
264,112,340837,1,0
264,112,340999,1,0
264,112,341162,1,0
264,112,341243,1,0
264,112,341324,1,0
264,112,341486,1,0
264,112,341648,1,0
264,112,341810,1,0
264,112,341972,1,0
264,112,342053,1,0
264,112,342134,1,0
264,112,342216,1,0
264,112,342297,1,0
264,112,342378,1,0
264,112,342459,1,0
264,112,342540,1,0
264,112,342621,1,0
264,112,342783,1,0
264,112,342945,1,0
264,112,343107,1,0
264,112,343189,1,0
264,112,343270,1,0
264,112,343432,1,0
264,112,343594,1,0
264,112,343756,1,0
264,112,343837,1,0
264,112,343918,1,0
264,112,344080,1,0
264,112,344243,1,0
264,112,344405,1,0
264,112,344567,1,0
264,112,344648,1,0
264,112,344729,1,0
264,112,344810,1,0
264,112,344891,1,0
264,112,344972,1,0
264,112,345053,1,0
264,112,345134,1,0
264,112,345216,1,0
264,112,345378,1,0
264,112,345540,1,0
264,112,345702,1,0
264,112,345864,1,0
264,112,346026,1,0
264,112,346189,1,0
264,112,346351,1,0
264,112,346513,1,0
264,112,346675,1,0
264,112,346837,1,0
264,112,346999,1,0
264,112,347162,1,0
264,112,347324,1,0
264,112,347486,1,0
264,112,347648,1,0
256,192,347810,12,0,350243
344,92,350405,5,0
