osu file format v14

[General]
AudioFilename: 09 Turupeta.mp3
AudioLeadIn: 0
PreviewTime: -1
Countdown: 0
SampleSet: Normal
StackLeniency: 0.7
Mode: 0
LetterboxInBreaks: 0
WidescreenStoryboard: 0

[Editor]
DistanceSpacing: 1.3
BeatDivisor: 4
GridSize: 8
TimelineZoom: 1.5

[Metadata]
Title:Tsurupettan
TitleUnicode:Tsurupettan
Artist:Silver Forest
ArtistUnicode:Silver Forest
Creator:Randy_tnt
Version:jumps from hell
Source:iosys
Tags:silver forest
BeatmapID:860575
BeatmapSetID:395420

[Difficulty]
HPDrainRate:7
CircleSize:5
OverallDifficulty:9
ApproachRate:9
SliderMultiplier:1.4
SliderTickRate:1

[Events]
//Background and Video events
0,0,"Ibuki.Suika.full.1099497.jpg",0,0
Video,0,"Turupeta.avi"
//Break Periods
//Storyboard Layer 0 (Background)
//Storyboard Layer 1 (Fail)
//Storyboard Layer 2 (Pass)
//Storyboard Layer 3 (Foreground)
//Storyboard Sound Samples

[TimingPoints]
0,335.195530726257,4,1,0,100,1,0

[HitObjects]
168,192,10,5,0,0:0:0:0:
256,96,1003,1,0,0:0:0:0:
296,192,2009,5,0,0:0:0:0:
248,240,2176,1,0,0:0:0:0:
192,200,2344,1,0,0:0:0:0:
256,136,2511,1,0,0:0:0:0:
88,120,2679,5,0,0:0:0:0:
176,96,2846,1,0,0:0:0:0:
240,144,3014,1,0,0:0:0:0:
128,224,3182,5,0,0:0:0:0:
248,216,3349,1,0,0:0:0:0:
328,176,3517,1,0,0:0:0:0:
136,144,3685,5,0,0:0:0:0:
200,120,3852,1,0,0:0:0:0:
288,160,4020,1,0,0:0:0:0:
192,224,4187,1,0,0:0:0:0:
112,224,4355,1,0,0:0:0:0:
88,168,4523,5,0,0:0:0:0:
304,120,4690,5,0,0:0:0:0:
160,160,4858,5,0,0:0:0:0:
216,136,5025,5,0,0:0:0:0:
80,160,5193,1,0,0:0:0:0:
144,208,5361,2,0,L|304:152,1,140
240,120,6031,2,0,L|384:128,1,140
112,192,6701,5,0,0:0:0:0:
224,136,6868,1,0,0:0:0:0:
304,192,7036,1,0,0:0:0:0:
104,120,7371,1,0,0:0:0:0:
64,168,8042,5,0,0:0:0:0:
96,136,8126,1,0,0:0:0:0:
144,136,8210,1,0,0:0:0:0:
208,208,8378,1,0,0:0:0:0:
112,48,8713,5,0,0:0:0:0:
136,88,8796,1,0,0:0:0:0:
176,112,8880,1,0,0:0:0:0:
216,128,8964,1,0,0:0:0:0:
264,128,9048,1,0,0:0:0:0:
224,104,9382,5,0,0:0:0:0:
336,232,9550,1,0,0:0:0:0:
344,88,9717,1,0,0:0:0:0:
232,232,9969,1,0,0:0:0:0:
112,208,10640,5,0,0:0:0:0:
176,128,10975,1,0,0:0:0:0:
216,184,11310,1,0,0:0:0:0:
296,208,11646,1,0,0:0:0:0:
144,144,11981,5,0,0:0:0:0:
360,160,12148,1,0,0:0:0:0:
320,256,12316,1,0,0:0:0:0:
120,112,12651,1,0,0:0:0:0:
200,184,13322,5,0,0:0:0:0:
264,144,13657,1,0,0:0:0:0:
264,144,13992,1,0,0:0:0:0:
296,80,14327,1,0,0:0:0:0:
368,80,14662,5,0,0:0:0:0:
392,112,14830,1,0,0:0:0:0:
392,152,14998,1,0,0:0:0:0:
368,216,15332,1,0,0:0:0:0:
144,160,16003,6,0,P|168:192|288:208,1,140
232,152,16673,1,0,0:0:0:0:
168,72,16841,1,0,0:0:0:0:
176,144,17009,1,0,0:0:0:0:
272,144,17344,5,0,0:0:0:0:
368,88,17512,1,0,0:0:0:0:
360,152,17679,1,0,0:0:0:0:
216,144,17847,2,0,P|240:96|168:88,1,140
128,184,18349,1,0,0:0:0:0:
272,200,18517,1,0,0:0:0:0:
192,192,18685,5,0,0:0:0:0:
112,128,18852,1,0,0:0:0:0:
200,96,19020,1,0,0:0:0:0:
312,128,19187,1,0,0:0:0:0:
144,152,19355,5,0,0:0:0:0:
152,104,19439,1,0,0:0:0:0:
184,72,19523,1,0,0:0:0:0:
232,72,19606,1,0,0:0:0:0:
264,104,19690,1,0,0:0:0:0:
288,144,19774,1,0,0:0:0:0:
136,272,20025,6,0,P|216:296|248:256,1,140
192,192,20528,1,0,0:0:0:0:
56,176,20696,2,0,P|72:136|160:112,1,140
112,176,21366,5,0,0:0:0:0:
224,224,21869,1,0,0:0:0:0:
312,232,22037,1,0,0:0:0:0:
304,144,22539,5,0,0:0:0:0:
360,144,22707,1,0,0:0:0:0:
176,144,22875,1,0,0:0:0:0:
240,120,23042,1,0,0:0:0:0:
48,176,23210,2,0,P|80:128|144:160,1,140
112,224,23713,1,0,0:0:0:0:
376,80,24048,5,0,0:0:0:0:
272,168,24215,1,0,0:0:0:0:
184,104,24383,1,0,0:0:0:0:
160,240,24551,1,0,0:0:0:0:
48,248,24718,1,0,0:0:0:0:
248,280,24886,1,0,0:0:0:0:
104,168,25053,1,0,0:0:0:0:
224,160,25221,1,0,0:0:0:0:
208,240,25389,5,0,0:0:0:0:
168,88,25556,1,0,0:0:0:0:
88,192,25724,1,0,0:0:0:0:
192,176,25891,1,0,0:0:0:0:
96,128,26059,1,0,0:0:0:0:
216,104,26227,5,0,0:0:0:0:
128,208,26394,1,0,0:0:0:0:
120,144,26646,6,0,P|168:120|296:120,1,175
280,216,27651,1,0,0:2:0:0:
128,160,27986,2,0,P|144:264|232:272,1,175
232,168,28657,1,0,0:2:0:0:
288,280,29160,2,0,P|120:312|88:256,1,245
272,144,30667,5,0,0:0:0:0:
128,248,30835,1,0,0:0:0:0:
16,104,31002,1,0,0:0:0:0:
216,272,31170,1,0,0:0:0:0:
128,80,31338,1,0,0:0:0:0:
144,136,31673,1,0,0:0:0:0:
128,160,32009,6,0,B|176:144|312:112|328:176,1,210
96,144,32930,2,0,P|136:112|264:136,1,175
144,176,33936,5,0,0:0:0:0:
88,144,34690,6,0,L|248:128,1,140
288,168,35361,1,0,0:0:0:0:
256,192,35780,12,0,36953,0:0:0:0:
256,160,37288,5,0,0:0:0:0:
160,168,38294,1,0,0:0:0:0:
344,176,38629,1,0,0:0:0:0:
256,144,39383,1,0,0:0:0:0:
184,144,39886,1,0,0:0:0:0:
144,192,41310,2,0,B|168:120|232:120|232:120|168:112,1,175
144,192,41981,2,0,B|168:120|232:120|232:120|168:112,1,175
152,248,42651,6,0,P|144:104|216:128,1,280
328,272,43657,1,0,0:0:0:0:
176,104,43992,1,0,0:0:0:0:
344,168,44327,1,0,0:0:0:0:
208,168,44662,1,0,0:0:0:0:
104,160,45333,5,0,0:0:0:0:
232,216,45500,1,0,0:0:0:0:
184,96,45668,1,0,0:0:0:0:
320,136,46003,5,0,0:0:0:0:
248,192,46171,1,0,0:0:0:0:
208,88,46338,1,0,0:0:0:0:
248,120,46673,5,0,0:0:0:0:
352,56,46840,1,0,0:0:0:0:
400,160,47008,1,0,0:0:0:0:
312,224,47175,1,0,0:0:0:0:
288,48,47343,1,0,0:0:0:0:
256,192,47679,5,2,0:0:0:0:
96,216,48014,6,0,P|112:168|200:192,1,140
400,216,48685,2,0,P|400:168|304:144,1,140
288,176,49355,1,0,0:0:0:0:
160,248,49523,1,0,0:0:0:0:
112,96,49690,1,0,0:0:0:0:
352,192,50025,1,0,0:0:0:0:
312,160,50696,6,0,P|392:112|368:64,1,140
72,160,51366,2,0,P|72:96|144:80,1,140
272,256,52036,1,0,0:0:0:0:
360,184,52203,1,0,0:0:0:0:
320,64,52371,1,0,0:0:0:0:
192,152,52623,1,0,0:0:0:0:
232,32,53294,6,0,P|280:48|256:136,1,140
232,336,53965,2,0,P|280:336|304:240,1,140
176,112,54635,1,0,0:0:0:0:
272,64,54803,1,0,0:0:0:0:
368,88,54970,1,0,0:0:0:0:
280,248,55305,1,0,0:0:0:0:
232,32,55975,6,0,P|280:48|256:136,1,140
232,336,56646,2,0,P|280:336|304:240,1,140
88,192,57316,6,0,P|64:144|80:112,1,70
160,144,57651,2,0,P|192:80|256:96,1,140
144,160,58657,5,0,0:0:0:0:
216,72,58824,1,0,0:0:0:0:
104,72,58992,1,0,0:0:0:0:
16,128,59160,1,0,0:0:0:0:
64,112,59327,5,0,0:0:0:0:
88,152,59411,1,0,0:0:0:0:
128,168,59495,1,0,0:0:0:0:
216,208,59662,5,0,0:0:0:0:
144,176,59998,5,0,0:0:0:0:
240,128,60165,1,0,0:0:0:0:
240,240,60333,1,0,0:0:0:0:
120,288,60501,1,0,0:0:0:0:
136,200,60668,5,0,0:0:0:0:
120,160,60752,1,0,0:0:0:0:
136,120,60836,1,0,0:0:0:0:
272,80,61003,5,0,0:0:0:0:
216,120,61338,5,0,0:0:0:0:
352,184,61505,1,0,0:0:0:0:
208,224,61673,1,0,0:0:0:0:
328,296,61841,1,0,0:0:0:0:
456,296,62008,5,0,0:0:0:0:
480,256,62092,1,0,0:0:0:0:
480,208,62176,1,0,0:0:0:0:
336,232,62343,5,0,0:0:0:0:
144,160,62680,5,0,0:0:0:0:
232,96,62847,1,0,0:0:0:0:
224,176,63015,1,0,0:0:0:0:
104,48,63183,1,0,0:0:0:0:
64,112,63350,5,0,0:0:0:0:
104,128,63434,1,0,0:0:0:0:
152,128,63518,1,0,0:0:0:0:
336,232,63685,5,0,0:0:0:0:
144,160,64020,5,0,0:0:0:0:
176,72,64187,1,0,0:0:0:0:
264,224,64355,1,0,0:0:0:0:
144,272,64523,1,0,0:0:0:0:
192,320,64690,5,0,0:0:0:0:
232,336,64774,1,0,0:0:0:0:
280,328,64858,1,0,0:0:0:0:
336,232,65025,5,0,0:0:0:0:
144,160,65361,5,0,0:0:0:0:
232,88,65528,1,0,0:0:0:0:
256,216,65696,1,0,0:0:0:0:
48,168,65864,1,0,0:0:0:0:
72,224,66031,5,0,0:0:0:0:
112,248,66115,1,0,0:0:0:0:
160,256,66199,1,0,0:0:0:0:
280,264,66366,5,0,0:0:0:0:
184,224,66701,5,0,0:0:0:0:
312,176,66868,1,0,0:0:0:0:
208,104,67036,1,0,0:0:0:0:
104,208,67204,1,0,0:0:0:0:
136,248,67371,5,0,0:0:0:0:
176,272,67455,1,0,0:0:0:0:
224,280,67539,1,0,0:0:0:0:
336,232,67706,5,0,0:0:0:0:
424,256,68042,5,0,0:0:0:0:
272,296,68209,1,0,0:0:0:0:
232,208,68377,1,0,0:0:0:0:
344,160,68545,1,0,0:0:0:0:
368,216,68712,5,0,0:0:0:0:
408,240,68796,1,0,0:0:0:0:
456,248,68880,1,0,0:0:0:0:
272,248,69047,5,0,0:0:0:0:
152,176,69299,6,0,P|160:128|240:120,1,140
239,119,69970,6,0,P|287:127|295:207,1,140
192,176,70640,1,0,0:0:0:0:
237,123,70808,1,0,0:0:0:0:
260,188,70975,1,0,0:0:0:0:
102,115,71143,1,0,0:0:0:0:
192,120,71310,2,0,P|200:56|272:64,1,140
152,176,71981,6,0,P|160:128|240:120,1,140
64,232,72652,6,0,P|72:184|152:176,1,140
176,232,73322,1,0,0:0:0:0:
221,179,73490,1,0,0:0:0:0:
244,244,73657,1,0,0:0:0:0:
144,160,73825,1,0,0:0:0:0:
96,176,73992,2,0,P|104:112|176:120,1,140
152,176,74662,6,0,P|160:128|240:120,1,140
239,119,75333,6,0,P|247:71|327:63,1,140
336,120,76003,1,0,0:0:0:0:
272,168,76171,1,0,0:0:0:0:
344,200,76338,1,0,0:0:0:0:
456,152,76506,1,0,0:0:0:0:
336,120,76673,2,0,P|344:56|416:64,1,140
152,176,77344,6,0,P|160:128|240:120,1,140
152,176,78015,6,0,P|144:224|64:232,1,140
56,176,78685,1,0,0:0:0:0:
144,64,78853,1,0,0:0:0:0:
24,96,79020,1,0,0:0:0:0:
128,144,79188,1,0,0:0:0:0:
192,120,79355,2,0,P|200:56|272:64,1,140
96,104,80193,5,0,0:0:0:0:
288,248,80361,1,0,0:0:0:0:
96,256,80528,1,0,0:0:0:0:
224,80,80696,1,0,0:0:0:0:
264,200,80863,1,0,0:0:0:0:
32,120,81031,1,0,0:0:0:0:
320,96,81199,1,0,0:0:0:0:
192,144,81534,5,0,0:0:0:0:
320,256,81701,1,0,0:0:0:0:
112,288,81869,1,0,0:0:0:0:
304,96,82037,1,0,0:0:0:0:
48,104,82204,1,0,0:0:0:0:
360,272,82372,1,0,0:0:0:0:
160,56,82539,1,0,0:0:0:0:
392,144,82875,5,0,0:0:0:0:
136,272,83042,1,0,0:0:0:0:
96,104,83210,1,0,0:0:0:0:
360,312,83378,1,0,0:0:0:0:
352,112,83545,1,0,0:0:0:0:
128,320,83713,1,0,0:0:0:0:
200,88,83880,1,0,0:0:0:0:
328,112,84216,5,0,0:0:0:0:
192,312,84384,1,0,0:0:0:0:
160,144,84551,1,0,0:0:0:0:
352,280,84719,1,0,0:0:0:0:
288,192,84887,1,0,0:0:0:0:
80,320,85054,1,0,0:0:0:0:
320,104,85222,1,0,0:0:0:0:
368,168,85472,6,0,P|344:136|224:120,1,140
280,232,85975,1,0,0:0:0:0:
376,296,86143,1,0,0:0:0:0:
416,208,86310,1,0,0:0:0:0:
240,240,86645,5,0,0:0:0:0:
160,128,86813,1,0,0:0:0:0:
128,256,86980,1,0,0:0:0:0:
296,240,87148,2,0,P|272:288|344:296,1,140
384,200,87651,1,0,0:0:0:0:
240,184,87986,1,0,0:0:0:0:
328,248,88154,5,0,0:0:0:0:
400,256,88321,1,0,0:0:0:0:
272,328,88489,1,0,0:0:0:0:
176,264,88656,1,0,0:0:0:0:
168,128,88824,5,0,0:0:0:0:
200,48,88992,1,0,0:0:0:0:
296,96,89160,1,0,0:0:0:0:
224,192,89327,1,0,0:0:0:0:
216,128,89494,6,0,P|136:104|104:144,1,140
256,192,89997,1,0,0:0:0:0:
352,232,90165,2,0,P|336:272|248:296,1,140
184,248,90668,5,0,0:0:0:0:
288,184,91338,1,0,0:0:0:0:
184,144,91506,1,0,0:0:0:0:
208,240,92008,5,0,0:0:0:0:
152,240,92176,1,0,0:0:0:0:
336,240,92344,1,0,0:0:0:0:
272,264,92511,1,0,0:0:0:0:
464,208,92679,2,0,P|432:256|368:224,1,140
400,160,93182,1,0,0:0:0:0:
136,304,93517,5,0,0:0:0:0:
224,208,93684,1,0,0:0:0:0:
368,256,93852,1,0,0:0:0:0:
168,88,94020,1,0,0:0:0:0:
464,136,94187,1,0,0:0:0:0:
192,176,94355,1,0,0:0:0:0:
464,248,94522,1,0,0:0:0:0:
248,248,94690,1,0,0:0:0:0:
368,96,94858,5,0,0:0:0:0:
344,296,95025,1,0,0:0:0:0:
472,232,95193,1,0,0:0:0:0:
296,200,95360,1,0,0:0:0:0:
488,272,95528,1,0,0:0:0:0:
256,296,95696,5,0,0:0:0:0:
432,128,95863,1,0,0:0:0:0:
392,240,96115,6,0,P|344:264|216:264,1,175
144,160,96953,6,0,P|168:192|288:208,1,140
160,120,97874,1,0,0:0:0:0:
216,144,98713,2,0,P|240:96|168:88,1,140
128,184,99299,1,0,0:0:0:0:
272,200,99467,1,0,0:0:0:0:
184,136,99635,5,0,0:0:0:0:
136,272,99802,6,0,P|216:296|400:16,1,490
56,176,101394,2,0,P|72:136|160:112,1,140
112,176,102316,5,0,0:0:0:0:
224,224,102651,1,0,0:0:0:0:
312,232,103322,1,0,0:0:0:0:
304,144,103489,5,0,0:0:0:0:
360,144,103657,1,0,0:0:0:0:
176,144,103825,1,0,0:0:0:0:
240,120,103992,1,0,0:0:0:0:
168,88,104160,1,0,0:0:0:0:
256,48,104327,1,0,0:0:0:0:
336,48,104495,1,0,0:0:0:0:
112,224,104663,1,0,0:0:0:0:
376,80,104998,5,0,0:0:0:0:
288,176,105165,1,0,0:0:0:0:
144,128,105333,1,0,0:0:0:0:
344,296,105501,1,0,0:0:0:0:
48,248,105668,1,0,0:0:0:0:
320,208,105836,1,0,0:0:0:0:
48,136,106003,1,0,0:0:0:0:
264,136,106171,1,0,0:0:0:0:
144,288,106339,5,0,0:0:0:0:
48,176,106673,2,0,P|80:128|144:160,1,140
224,176,107679,5,0,0:0:0:0:
128,152,108014,1,0,0:0:0:0:
272,136,108685,5,0,0:0:0:0:
128,88,109272,5,0,0:0:0:0:
176,80,109356,1,0,0:0:0:0:
224,88,109440,1,0,0:0:0:0:
264,112,109523,1,0,0:0:0:0:
280,152,109607,1,0,0:0:0:0:
280,200,109691,1,0,0:0:0:0:
104,224,110025,5,0,0:0:0:0:
96,176,110109,1,0,0:0:0:0:
120,136,110193,1,0,0:0:0:0:
160,112,110276,1,0,0:0:0:0:
208,120,110360,1,0,0:0:0:0:
248,144,110444,1,0,0:0:0:0:
320,136,110696,5,0,0:0:0:0:
152,224,110863,1,0,0:0:0:0:
176,96,111031,5,0,0:0:0:0:
264,272,111199,1,0,0:0:0:0:
48,120,111366,5,0,0:0:0:0:
256,192,111618,1,2,0:0:0:0:
104,160,112037,5,0,0:0:0:0:
224,160,112373,1,0,0:0:0:0:
152,112,112708,5,0,0:0:0:0:
256,224,113043,1,0,0:0:0:0:
200,200,113377,5,0,0:0:0:0:
280,112,113545,1,0,0:0:0:0:
328,224,113712,1,0,0:0:0:0:
184,112,113964,1,0,0:0:0:0:
112,208,114635,5,0,0:0:0:0:
176,128,114970,1,0,0:0:0:0:
216,184,115305,1,0,0:0:0:0:
296,208,115641,1,0,0:0:0:0:
144,144,115976,5,0,0:0:0:0:
360,160,116143,1,0,0:0:0:0:
320,256,116311,1,0,0:0:0:0:
120,112,116646,1,0,0:0:0:0:
200,184,117317,5,0,0:0:0:0:
264,144,117652,1,0,0:0:0:0:
160,120,117987,1,0,0:0:0:0:
288,144,118322,1,0,0:0:0:0:
336,80,118657,5,0,0:0:0:0:
384,96,118825,1,0,0:0:0:0:
400,144,118993,1,0,0:0:0:0:
288,192,119327,1,0,0:0:0:0:
200,184,119998,5,0,0:0:0:0:
264,144,120333,1,0,0:0:0:0:
240,64,120668,1,0,0:0:0:0:
328,216,121003,1,0,0:0:0:0:
344,136,121338,5,0,0:0:0:0:
416,224,121506,1,0,0:0:0:0:
328,280,121674,1,0,0:0:0:0:
376,208,122008,1,0,0:0:0:0:
144,120,122678,5,0,0:0:0:0:
224,192,122846,1,0,0:0:0:0:
304,144,123013,1,0,0:0:0:0:
160,240,123181,1,0,0:0:0:0:
184,296,123349,5,0,0:0:0:0:
216,328,123432,1,0,0:0:0:0:
256,344,123516,1,0,0:0:0:0:
336,232,123684,5,0,0:0:0:0:
208,216,124019,5,0,0:0:0:0:
176,80,124187,1,0,0:0:0:0:
320,136,124354,1,0,0:0:0:0:
216,208,124522,1,0,0:0:0:0:
312,256,124689,5,0,0:0:0:0:
336,296,124773,1,0,0:0:0:0:
384,304,124857,1,0,0:0:0:0:
416,224,125025,5,0,0:0:0:0:
296,224,125360,5,0,0:0:0:0:
392,136,125527,1,0,0:0:0:0:
264,136,125695,1,0,0:0:0:0:
224,56,125863,1,0,0:0:0:0:
272,136,126030,5,0,0:0:0:0:
312,160,126114,1,0,0:0:0:0:
360,160,126198,1,0,0:0:0:0:
408,224,126365,5,0,0:0:0:0:
352,320,126701,5,0,0:0:0:0:
216,272,126868,1,0,0:0:0:0:
304,160,127036,1,0,0:0:0:0:
192,192,127203,1,0,0:0:0:0:
216,272,127371,5,0,0:0:0:0:
248,304,127455,1,0,0:0:0:0:
296,312,127539,1,0,0:0:0:0:
336,232,127706,5,0,0:0:0:0:
384,232,128041,5,0,0:0:0:0:
248,224,128209,1,0,0:0:0:0:
256,120,128377,1,0,0:0:0:0:
312,224,128544,1,0,0:0:0:0:
368,272,128712,5,0,0:0:0:0:
408,296,128796,1,0,0:0:0:0:
456,296,128879,1,0,0:0:0:0:
368,200,129047,5,0,0:0:0:0:
280,216,129382,5,0,0:0:0:0:
376,120,129550,1,0,0:0:0:0:
264,120,129717,1,0,0:0:0:0:
168,184,129885,1,0,0:0:0:0:
216,240,130053,5,0,0:0:0:0:
248,272,130136,1,0,0:0:0:0:
288,288,130220,1,0,0:0:0:0:
392,216,130388,5,0,0:0:0:0:
272,216,130723,5,0,0:0:0:0:
400,120,130891,1,0,0:0:0:0:
304,80,131058,1,0,0:0:0:0:
192,168,131226,1,0,0:0:0:0:
64,112,131393,5,0,0:0:0:0:
96,144,131477,1,0,0:0:0:0:
136,160,131561,1,0,0:0:0:0:
336,232,131729,5,0,0:0:0:0:
144,160,132064,5,0,0:0:0:0:
232,160,132231,1,0,0:0:0:0:
304,160,132399,1,0,0:0:0:0:
344,160,132567,1,0,0:0:0:0:
64,112,132734,5,0,0:0:0:0:
96,144,132818,1,0,0:0:0:0:
136,160,132902,1,0,0:0:0:0:
336,232,133069,5,0,0:0:0:0:
360,208,133322,6,0,P|352:256|272:264,1,140
273,265,133993,6,0,P|225:257|217:177,1,140
320,208,134663,1,0,0:0:0:0:
275,261,134831,1,0,0:0:0:0:
252,196,134998,1,0,0:0:0:0:
410,269,135166,1,0,0:0:0:0:
320,264,135333,2,0,P|312:328|240:320,1,140
360,208,136004,6,0,P|352:256|272:264,1,140
448,152,136675,6,0,P|440:200|360:208,1,140
336,152,137345,1,0,0:0:0:0:
291,205,137513,1,0,0:0:0:0:
268,140,137680,1,0,0:0:0:0:
368,224,137848,1,0,0:0:0:0:
416,208,138015,2,0,P|408:272|336:264,1,140
360,208,138685,6,0,P|352:256|272:264,1,140
273,265,139356,6,0,P|265:313|185:321,1,140
176,264,140026,1,0,0:0:0:0:
240,216,140194,1,0,0:0:0:0:
168,184,140361,1,0,0:0:0:0:
56,232,140529,1,0,0:0:0:0:
176,264,140696,2,0,P|168:328|96:320,1,140
360,208,141367,6,0,P|352:256|272:264,1,140
360,208,142038,6,0,P|368:160|448:152,1,140
456,208,142708,1,0,0:0:0:0:
368,320,142876,1,0,0:0:0:0:
488,288,143043,1,0,0:0:0:0:
384,240,143211,1,0,0:0:0:0:
320,264,143378,2,0,P|312:328|240:320,1,140
144,160,143964,5,0,0:0:0:0:
216,72,144131,1,0,0:0:0:0:
104,72,144299,1,0,0:0:0:0:
16,128,144467,1,0,0:0:0:0:
64,112,144634,5,0,0:0:0:0:
88,152,144718,1,0,0:0:0:0:
128,168,144802,1,0,0:0:0:0:
216,208,144969,5,0,0:0:0:0:
144,176,145305,5,0,0:0:0:0:
240,128,145472,1,0,0:0:0:0:
240,240,145640,1,0,0:0:0:0:
120,288,145808,1,0,0:0:0:0:
136,200,145975,5,0,0:0:0:0:
120,160,146059,1,0,0:0:0:0:
136,120,146143,1,0,0:0:0:0:
272,80,146310,5,0,0:0:0:0:
216,120,146645,5,0,0:0:0:0:
352,184,146812,1,0,0:0:0:0:
208,224,146980,1,0,0:0:0:0:
328,296,147148,1,0,0:0:0:0:
456,296,147315,5,0,0:0:0:0:
480,256,147399,1,0,0:0:0:0:
480,208,147483,1,0,0:0:0:0:
336,232,147650,5,0,0:0:0:0:
144,160,147987,5,0,0:0:0:0:
232,96,148154,1,0,0:0:0:0:
224,176,148322,1,0,0:0:0:0:
104,48,148490,1,0,0:0:0:0:
64,112,148657,5,0,0:0:0:0:
104,128,148741,1,0,0:0:0:0:
152,128,148825,1,0,0:0:0:0:
336,232,148992,5,0,0:0:0:0:
144,160,149327,5,0,0:0:0:0:
176,72,149494,1,0,0:0:0:0:
264,224,149662,1,0,0:0:0:0:
144,272,149830,1,0,0:0:0:0:
192,320,149997,5,0,0:0:0:0:
232,336,150081,1,0,0:0:0:0:
280,328,150165,1,0,0:0:0:0:
336,232,150332,5,0,0:0:0:0:
144,160,150668,5,0,0:0:0:0:
232,88,150835,1,0,0:0:0:0:
256,216,151003,1,0,0:0:0:0:
48,168,151171,1,0,0:0:0:0:
72,224,151338,5,0,0:0:0:0:
112,248,151422,1,0,0:0:0:0:
160,256,151506,1,0,0:0:0:0:
280,264,151673,5,0,0:0:0:0:
184,224,152008,5,0,0:0:0:0:
312,176,152175,1,0,0:0:0:0:
208,104,152343,1,0,0:0:0:0:
104,208,152511,1,0,0:0:0:0:
136,248,152678,5,0,0:0:0:0:
176,272,152762,1,0,0:0:0:0:
224,280,152846,1,0,0:0:0:0:
336,232,153013,5,0,0:0:0:0:
424,256,153349,5,0,0:0:0:0:
272,296,153516,1,0,0:0:0:0:
232,208,153684,1,0,0:0:0:0:
344,160,153852,1,0,0:0:0:0:
368,216,154019,5,0,0:0:0:0:
408,240,154103,1,0,0:0:0:0:
456,248,154187,1,0,0:0:0:0:
272,248,154354,5,0,0:0:0:0:
