osu file format v14

[General]
AudioFilename: 09 Turupeta.mp3
AudioLeadIn: 0
PreviewTime: -1
Countdown: 0
SampleSet: Normal
StackLeniency: 0.7
Mode: 0
LetterboxInBreaks: 0
WidescreenStoryboard: 1

[Editor]
Bookmarks: 90668
DistanceSpacing: 1.3
BeatDivisor: 4
GridSize: 8
TimelineZoom: 1.5

[Metadata]
Title:Tsurupettan
TitleUnicode:Tsurupettan
Artist:Silver Forest
ArtistUnicode:Silver Forest
Creator:Randy_tnt
Version:Hard
Source:touhou
Tags:silver forest
BeatmapID:862123
BeatmapSetID:395420

[Difficulty]
HPDrainRate:5
CircleSize:4
OverallDifficulty:6
ApproachRate:7
SliderMultiplier:1.4
SliderTickRate:1

[Events]
//Background and Video events
0,0,"Ibuki.Suika.full.1099497.jpg",0,0
Video,0,"Turupeta.avi"
//Break Periods
//Storyboard Layer 0 (Background)
//Storyboard Layer 1 (Fail)
//Storyboard Layer 2 (Pass)
//Storyboard Layer 3 (Foreground)
//Storyboard Sound Samples

[TimingPoints]
0,335.195530726257,4,1,0,100,1,0

[HitObjects]
168,192,10,5,0,0:0:0:0:
256,96,1003,1,0,0:0:0:0:
296,192,2009,5,0,0:0:0:0:
88,120,2679,5,0,0:0:0:0:
136,144,3685,5,0,0:0:0:0:
88,168,4690,5,0,0:0:0:0:
144,208,5361,2,0,L|304:152,1,140
240,120,6031,2,0,L|384:128,1,140
112,192,6701,5,0,0:0:0:0:
224,136,6868,1,0,0:0:0:0:
304,192,7036,1,0,0:0:0:0:
104,120,7371,1,0,0:0:0:0:
64,168,8042,5,0,0:0:0:0:
208,208,8378,1,0,0:0:0:0:
112,48,8713,5,0,0:0:0:0:
264,128,9048,1,0,0:0:0:0:
88,96,9382,5,0,0:0:0:0:
72,184,9550,1,0,0:0:0:0:
144,240,9717,1,0,0:0:0:0:
272,104,10053,1,0,0:0:0:0:
112,208,10640,5,0,0:0:0:0:
184,40,10975,1,0,0:0:0:0:
280,192,11310,1,0,0:0:0:0:
352,24,11646,1,0,0:0:0:0:
208,136,11981,5,0,0:0:0:0:
296,168,12148,1,0,0:0:0:0:
264,256,12316,1,0,0:0:0:0:
104,176,12651,1,0,0:0:0:0:
200,184,13322,5,0,0:0:0:0:
264,144,13657,1,0,0:0:0:0:
96,80,13992,1,0,0:0:0:0:
272,136,14327,1,0,0:0:0:0:
408,8,14662,5,0,0:0:0:0:
360,88,14830,1,0,0:0:0:0:
416,160,14998,1,0,0:0:0:0:
240,184,15332,1,0,0:0:0:0:
144,160,16003,6,0,P|168:192|288:208,1,140
232,152,16673,1,0,0:0:0:0:
176,144,17009,1,0,0:0:0:0:
128,224,17344,2,0,P|88:216|88:176,2,70
216,144,17847,2,0,P|240:96|168:88,1,140
136,160,18349,1,0,0:0:0:0:
136,248,18517,1,0,0:0:0:0:
224,240,18685,5,0,0:0:0:0:
48,192,19020,1,0,0:0:0:0:
224,144,19355,5,0,0:0:0:0:
136,272,20025,6,0,P|216:296|248:256,1,140
192,192,20528,1,0,0:0:0:0:
56,176,20696,2,0,P|72:136|160:112,1,140
168,296,21366,5,0,0:0:0:0:
320,72,21869,1,0,0:0:0:0:
240,104,22037,1,0,0:0:0:0:
304,144,22539,5,0,0:0:0:0:
368,208,22707,1,0,0:0:0:0:
184,216,23042,1,0,0:0:0:0:
48,176,23210,2,0,P|80:128|144:160,1,140
96,240,23713,1,0,0:0:0:0:
272,184,24048,5,0,0:0:0:0:
144,56,24383,1,0,0:0:0:0:
160,240,24551,1,0,0:0:0:0:
48,248,24718,1,0,0:0:0:0:
104,168,25053,1,0,0:0:0:0:
176,224,25221,1,0,0:0:0:0:
208,136,25389,1,0,0:0:0:0:
32,176,25724,1,0,0:0:0:0:
104,224,25891,1,0,0:0:0:0:
112,136,26059,5,0,0:0:0:0:
200,168,26227,1,0,0:0:0:0:
192,256,26394,1,0,0:0:0:0:
240,128,26646,6,0,P|248:72|504:120,1,420
272,216,28070,1,0,0:0:0:0:
56,216,28657,6,0,P|64:144|336:152,1,420
272,144,30667,5,0,0:0:0:0:
16,104,31002,1,0,0:0:0:0:
192,56,31338,1,0,0:0:0:0:
96,208,31673,1,0,0:0:0:0:
272,176,32009,6,0,B|320:160|456:128|512:264,1,280
96,144,33014,2,0,P|136:112|352:168,1,280
144,176,34020,5,0,0:0:0:0:
88,144,34690,6,0,L|248:128,1,140
288,168,35361,1,0,0:0:0:0:
256,192,35780,12,0,36953,0:0:0:0:
40,176,37288,6,0,P|64:80|256:96,1,315
88,120,38377,2,0,P|88:48|152:48,1,140
376,280,39299,2,0,P|360:168|264:176,1,210
144,192,41310,2,0,B|168:120|232:120|232:120|168:112,1,175
180,113,41981,2,0,B|204:41|268:41|268:41|204:33,1,175
152,160,42651,6,0,P|144:16|216:40,1,280
312,192,43657,1,0,0:0:0:0:
212,36,43992,1,0,0:0:0:0:
72,368,44662,1,0,0:0:0:0:
384,176,45333,5,0,0:0:0:0:
376,88,45500,1,0,0:0:0:0:
304,144,45668,1,0,0:0:0:0:
304,328,46003,5,0,0:0:0:0:
224,288,46171,1,0,0:0:0:0:
296,240,46338,1,0,0:0:0:0:
216,72,46673,5,0,0:0:0:0:
312,56,46840,1,0,0:0:0:0:
352,144,47008,1,0,0:0:0:0:
288,208,47175,1,0,0:0:0:0:
208,168,47343,1,0,0:0:0:0:
168,344,47679,5,2,0:0:0:0:
96,216,48014,6,0,P|112:168|200:192,1,140
400,216,48685,2,0,P|400:168|304:144,1,140
288,176,49355,1,0,0:0:0:0:
160,48,49690,1,0,0:0:0:0:
152,232,50025,1,0,0:0:0:0:
312,160,50696,6,0,P|392:112|368:64,1,140
72,160,51366,2,0,P|72:96|144:80,1,140
272,256,52036,1,0,0:0:0:0:
320,64,52371,1,0,0:0:0:0:
192,152,52707,1,0,0:0:0:0:
232,32,53377,6,0,P|280:48|256:136,1,140
232,336,54048,2,0,P|280:336|304:240,1,140
176,112,54718,1,0,0:0:0:0:
368,88,55053,1,0,0:0:0:0:
280,248,55388,1,0,0:0:0:0:
232,32,55975,6,0,P|280:48|256:136,1,140
232,336,56646,2,0,P|280:336|304:240,1,140
88,192,57316,6,0,P|64:144|80:112,1,70
160,144,57651,2,0,P|192:80|256:96,1,140
144,160,58657,5,0,0:0:0:0:
216,72,58824,1,0,0:0:0:0:
104,72,58992,1,0,0:0:0:0:
16,128,59160,1,0,0:0:0:0:
104,152,59327,6,0,L|136:184,2,35
216,208,59662,5,0,0:0:0:0:
48,136,59998,5,0,0:0:0:0:
136,144,60165,1,0,0:0:0:0:
72,208,60333,1,0,0:0:0:0:
72,296,60501,1,0,0:0:0:0:
160,272,60668,6,0,L|208:280,2,35
224,208,61003,5,0,0:0:0:0:
288,40,61338,5,0,0:0:0:0:
208,80,61505,1,0,0:0:0:0:
208,224,61673,1,0,0:0:0:0:
280,168,61841,1,0,0:0:0:0:
368,136,62009,6,0,L|424:120|424:120,2,35
336,232,62343,5,0,0:0:0:0:
144,160,62680,5,0,0:0:0:0:
232,96,62847,1,0,0:0:0:0:
224,176,63015,1,0,0:0:0:0:
104,48,63183,1,0,0:0:0:0:
184,56,63349,6,0,L|232:64,2,35
336,232,63685,5,0,0:0:0:0:
160,176,64020,5,0,0:0:0:0:
248,160,64187,1,0,0:0:0:0:
248,248,64355,1,0,0:0:0:0:
160,264,64523,1,0,0:0:0:0:
80,216,64690,6,0,L|24:184,2,35
64,128,65025,5,0,0:0:0:0:
144,160,65361,5,0,0:0:0:0:
232,88,65528,1,0,0:0:0:0:
256,216,65696,1,0,0:0:0:0:
168,200,65864,1,0,0:0:0:0:
184,56,66031,6,0,L|232:64,2,35
280,264,66366,5,0,0:0:0:0:
184,224,66701,5,0,0:0:0:0:
312,176,66868,1,0,0:0:0:0:
208,104,67036,1,0,0:0:0:0:
104,208,67204,1,0,0:0:0:0:
184,56,67372,6,0,L|232:64,2,35
336,232,67706,5,0,0:0:0:0:
424,256,68042,5,0,0:0:0:0:
272,296,68209,1,0,0:0:0:0:
232,208,68377,1,0,0:0:0:0:
344,160,68545,1,0,0:0:0:0:
184,56,68713,6,0,L|232:64,2,35
272,248,69047,5,0,0:0:0:0:
152,176,69383,6,0,P|160:128|240:120,1,140
416,144,70053,6,0,P|464:152|472:232,1,140
352,296,70640,1,0,0:0:0:0:
344,112,70975,1,0,0:0:0:0:
208,112,71227,1,0,0:0:0:0:
120,88,71394,2,0,P|128:24|200:32,1,140
264,192,72065,6,0,P|272:144|352:136,1,140
216,144,72652,6,0,P|224:96|304:88,1,140
352,264,73322,1,0,0:0:0:0:
168,256,73657,1,0,0:0:0:0:
96,176,73992,2,0,P|104:112|176:120,1,140
152,176,74662,6,0,P|160:128|240:120,1,140
239,119,75333,6,0,P|247:71|327:63,1,140
336,120,76003,1,0,0:0:0:0:
344,200,76338,1,0,0:0:0:0:
336,120,76673,2,0,P|344:56|416:64,1,140
256,160,77344,6,0,P|264:112|344:104,1,140
200,216,78015,6,0,P|192:264|112:272,1,140
56,176,78685,1,0,0:0:0:0:
24,96,79020,1,0,0:0:0:0:
192,120,79355,2,0,P|200:56|272:64,1,140
104,176,80193,6,0,P|104:128|144:128,1,70
160,152,80529,2,0,P|216:136|208:120,1,70
192,104,80864,2,0,P|192:56|224:64,1,70
80,112,81199,1,0,0:0:0:0:
208,136,81534,6,0,P|160:128|152:144,1,70
192,192,81870,2,0,P|216:232|240:216,1,70
240,176,82205,2,0,P|280:144|304:168,1,70
80,112,82539,1,0,0:0:0:0:
192,144,82874,6,0,P|184:96|208:96,1,70
248,120,83209,2,0,P|296:128|296:160,1,70
248,184,83544,2,0,P|208:208|216:232,1,70
280,240,83879,1,0,0:0:0:0:
216,96,84215,6,0,B|168:120|192:136|184:160,1,70
248,144,84550,2,0,P|288:168|320:144,1,70
304,104,84885,2,0,P|320:56|344:64,1,70
424,112,85220,1,0,0:0:0:0:
368,168,85389,6,0,P|344:136|224:120,1,140
280,232,86059,1,0,0:0:0:0:
432,136,86394,1,0,0:0:0:0:
248,136,86729,5,0,0:0:0:0:
400,240,87065,1,0,0:0:0:0:
312,256,87232,2,0,P|288:304|360:312,1,140
424,264,87735,1,0,0:0:0:0:
280,152,88069,1,0,0:0:0:0:
400,256,88405,1,0,0:0:0:0:
224,200,88740,1,0,0:0:0:0:
408,200,89075,1,0,0:0:0:0:
224,192,89410,1,0,0:0:0:0:
216,128,89662,6,0,P|136:104|104:144,1,140
256,192,90165,1,0,0:0:0:0:
336,240,90333,2,0,P|320:272|248:296,1,105
216,288,90668,6,0,P|224:232|480:288,1,420
272,216,92008,1,0,0:0:0:0:
72,176,92679,6,0,P|80:104|352:112,1,420
272,144,94689,5,0,0:0:0:0:
88,160,95024,1,0,0:0:0:0:
216,32,95360,1,0,0:0:0:0:
184,208,95695,1,0,0:0:0:0:
272,48,96031,6,0,B|320:32|456:0|512:136,1,280
96,144,97036,2,0,P|136:112|352:168,1,280
144,176,98042,5,0,0:0:0:0:
88,144,98712,6,0,L|248:128,1,140
384,224,99383,1,0,0:0:0:0:
256,192,99802,12,0,100975,0:0:0:0:
40,176,101310,6,0,P|64:80|256:96,1,315
160,240,102399,2,0,P|160:168|224:168,1,140
376,280,103321,2,0,P|360:168|264:176,1,210
107,270,105332,2,0,B|131:198|195:198|195:198|131:190,1,175
144,192,106003,2,0,B|168:120|232:120|232:120|168:112,1,175
120,240,106673,6,0,P|112:96|184:120,1,280
328,272,107679,1,0,0:0:0:0:
192,144,108014,1,0,0:0:0:0:
352,152,108684,5,0,0:0:0:0:
128,88,109272,5,0,0:0:0:0:
224,88,109440,1,0,0:0:0:0:
192,176,109606,2,0,L|232:184,1,35
80,144,110025,5,0,0:0:0:0:
192,176,110193,1,0,0:0:0:0:
128,224,110361,2,0,L|168:256,1,35
288,240,110696,5,0,0:0:0:0:
152,120,111031,5,0,0:0:0:0:
336,128,111366,5,0,0:0:0:0:
232,216,111618,1,2,0:0:0:0:
16,272,112037,5,0,0:0:0:0:
280,120,112373,1,0,0:0:0:0:
104,72,112708,5,0,0:0:0:0:
256,224,113043,1,0,0:0:0:0:
88,152,113377,5,0,0:0:0:0:
264,192,113712,1,0,0:0:0:0:
152,272,113964,1,0,0:0:0:0:
112,208,114635,5,0,0:0:0:0:
232,72,114970,1,0,0:0:0:0:
360,200,115305,1,0,0:0:0:0:
200,288,115641,1,0,0:0:0:0:
144,112,115976,5,0,0:0:0:0:
264,248,116311,1,0,0:0:0:0:
168,88,116646,1,0,0:0:0:0:
240,240,117317,5,0,0:0:0:0:
360,104,117652,1,0,0:0:0:0:
176,112,117987,1,0,0:0:0:0:
320,224,118322,1,0,0:0:0:0:
336,80,118657,5,0,0:0:0:0:
384,96,118825,1,0,0:0:0:0:
400,144,118993,1,0,0:0:0:0:
288,192,119327,1,0,0:0:0:0:
176,208,119998,5,0,0:0:0:0:
344,152,120333,1,0,0:0:0:0:
184,72,120668,1,0,0:0:0:0:
192,256,121003,1,0,0:0:0:0:
328,136,121338,5,0,0:0:0:0:
368,216,121506,1,0,0:0:0:0:
280,208,121674,1,0,0:0:0:0:
440,120,122008,1,0,0:0:0:0:
80,104,122678,5,0,0:0:0:0:
168,96,122846,1,0,0:0:0:0:
120,176,123013,1,0,0:0:0:0:
208,160,123181,1,0,0:0:0:0:
296,160,123349,6,0,L|352:144|352:144,2,35
336,232,123684,5,0,0:0:0:0:
152,240,124019,5,0,0:0:0:0:
240,256,124187,1,0,0:0:0:0:
200,176,124354,1,0,0:0:0:0:
112,176,124522,1,0,0:0:0:0:
120,88,124690,6,0,L|176:72|176:72,2,35
200,128,125025,5,0,0:0:0:0:
320,264,125360,5,0,0:0:0:0:
328,176,125527,1,0,0:0:0:0:
240,192,125695,1,0,0:0:0:0:
272,104,125863,1,0,0:0:0:0:
360,88,126031,6,0,L|416:72|416:72,2,35
408,160,126365,5,0,0:0:0:0:
368,336,126701,5,0,0:0:0:0:
400,256,126868,1,0,0:0:0:0:
312,232,127036,1,0,0:0:0:0:
376,168,127203,1,0,0:0:0:0:
312,104,127372,6,0,L|368:88|368:88,2,35
336,232,127706,5,0,0:0:0:0:
152,248,128041,5,0,0:0:0:0:
168,160,128209,1,0,0:0:0:0:
240,216,128377,1,0,0:0:0:0:
256,128,128544,1,0,0:0:0:0:
344,96,128713,6,0,L|400:80|400:80,2,35
368,200,129047,5,0,0:0:0:0:
192,248,129382,5,0,0:0:0:0:
280,240,129550,1,0,0:0:0:0:
224,168,129717,1,0,0:0:0:0:
152,112,129885,1,0,0:0:0:0:
240,96,130053,6,0,L|296:80|296:80,2,35
392,216,130388,5,0,0:0:0:0:
272,216,130723,5,0,0:0:0:0:
344,160,130891,1,0,0:0:0:0:
256,136,131058,1,0,0:0:0:0:
184,192,131226,1,0,0:0:0:0:
160,104,131394,6,0,L|216:88|216:88,2,35
336,232,131729,5,0,0:0:0:0:
144,160,132064,5,0,0:0:0:0:
200,232,132231,1,0,0:0:0:0:
264,168,132399,1,0,0:0:0:0:
208,96,132567,1,0,0:0:0:0:
296,96,132735,6,0,L|352:80|352:80,2,35
312,184,133069,5,0,0:0:0:0:
320,320,133322,6,0,P|312:368|232:376,1,140
176,200,133993,6,0,P|128:192|120:112,1,140
296,168,134663,1,0,0:0:0:0:
168,296,134998,1,0,0:0:0:0:
320,264,135333,2,0,P|312:328|240:320,1,140
360,208,136004,6,0,P|352:256|272:264,1,140
448,152,136675,6,0,P|440:200|360:208,1,140
344,24,137345,1,0,0:0:0:0:
192,120,137680,1,0,0:0:0:0:
416,208,138015,2,0,P|408:272|336:264,1,140
304,96,138685,6,0,P|296:144|216:152,1,140
400,176,139356,6,0,P|392:224|312:232,1,140
176,264,140026,1,0,0:0:0:0:
160,80,140361,1,0,0:0:0:0:
176,264,140696,2,0,P|168:328|96:320,1,140
272,256,141367,6,0,P|264:304|184:312,1,140
8,360,142038,6,0,P|16:312|96:304,1,140
272,248,142708,1,0,0:0:0:0:
432,168,143043,1,0,0:0:0:0:
248,152,143378,2,0,P|240:216|168:208,1,140
144,160,143964,5,0,0:0:0:0:
176,72,144131,1,0,0:0:0:0:
88,96,144299,1,0,0:0:0:0:
128,16,144467,1,0,0:0:0:0:
40,40,144634,6,0,L|96:24|96:24,2,35
112,96,144969,5,0,0:0:0:0:
280,160,145305,5,0,0:0:0:0:
208,112,145472,1,0,0:0:0:0:
192,200,145640,1,0,0:0:0:0:
280,232,145808,1,0,0:0:0:0:
360,192,145975,6,0,L|416:176|416:176,2,35
328,104,146310,5,0,0:0:0:0:
144,112,146645,5,0,0:0:0:0:
224,144,146812,1,0,0:0:0:0:
144,184,146980,1,0,0:0:0:0:
232,216,147148,1,0,0:0:0:0:
320,200,147316,6,0,L|376:184|376:184,2,35
272,280,147650,5,0,0:0:0:0:
96,224,147987,5,0,0:0:0:0:
168,168,148154,1,0,0:0:0:0:
224,240,148322,1,0,0:0:0:0:
152,296,148490,1,0,0:0:0:0:
240,304,148657,6,0,L|296:288|296:288,2,35
312,248,148992,5,0,0:0:0:0:
136,208,149327,5,0,0:0:0:0:
208,152,149494,1,0,0:0:0:0:
216,240,149662,1,0,0:0:0:0:
288,192,149830,1,0,0:0:0:0:
336,120,149998,6,0,L|392:104|392:104,2,35
360,208,150332,5,0,0:0:0:0:
176,200,150668,5,0,0:0:0:0:
248,144,150835,1,0,0:0:0:0:
264,232,151003,1,0,0:0:0:0:
336,176,151171,1,0,0:0:0:0:
304,88,151338,6,0,L|360:72|360:72,2,35
344,168,151673,5,0,0:0:0:0:
192,264,152008,5,0,0:0:0:0:
280,248,152175,1,0,0:0:0:0:
224,176,152343,1,0,0:0:0:0:
136,200,152511,1,0,0:0:0:0:
120,112,152679,6,0,L|176:96|176:96,2,35
208,136,153013,5,0,0:0:0:0:
368,224,153349,5,0,0:0:0:0:
288,272,153516,1,0,0:0:0:0:
296,184,153684,1,0,0:0:0:0:
216,224,153852,1,0,0:0:0:0:
224,136,154020,6,0,L|280:120|280:120,2,35
152,192,154354,5,0,0:0:0:0:
