osu file format v5

[General]
AudioFilename: 09 Turupeta.mp3
AudioLeadIn: 2000
PreviewTime: -1
Countdown: 0
SampleSet: Normal
StackLeniency: 0.7
Mode: 0

[Metadata]
Title:Tsurupettan
Artist:Silver Forest
Creator:Nharox
Version:Insane
Source:
Tags:

[Difficulty]
HPDrainRate:5
CircleSize:6
OverallDifficulty:6
SliderMultiplier:1.4
SliderTickRate:2

[Events]
//Background and Video events
0,0,"silver forest.jpg"
1,-410,"Turupeta.avi"
//Break Periods
//Storyboard Layer 0 (Background)
//Storyboard Layer 1 (Failing)
//Storyboard Layer 2 (Passing)
//Storyboard Layer 3 (Foreground)
//Storyboard Sound Samples
//Background Colour Transformations
3,100,163,162,255

[TimingPoints]
40,333.333333333333,4,1,0,100

[Colours]
Combo1 : 255,128,0
Combo2 : 94,187,0
Combo3 : 0,128,255
Combo4 : 210,0,0

[HitObjects]
32,64,40,2,0,B|212:10|-3:136|448:64|480:64,2,420
32,192,2373,5,2
32,320,2706,6,0,B|212:374|-3:248|448:320|480:320,2,420
224,128,5373,5,0
352,128,5706,1,0
352,256,6039,1,0
224,256,6373,1,0
352,192,6706,2,4,B|192:192,1,140
64,192,7373,1,2
128,192,7539,1,2
192,192,7706,1,2
192,64,8039,5,0
192,192,8373,1,0
320,192,8706,1,0
320,320,9039,1,0
192,320,9373,2,4,B|192:160,1,140
96,288,10039,1,2
96,224,10206,1,2
96,160,10373,1,2
96,32,10706,5,0
224,32,11039,1,0
224,160,11373,1,0
352,160,11706,1,0
224,160,12040,2,4,B|224:320,1,140
352,288,12706,1,2
352,224,12873,1,2
352,160,13040,1,2
256,64,13373,5,0
128,64,13706,1,0
128,192,14040,1,0
128,64,14373,1,0
128,192,14706,2,4,B|288:192,1,140
160,256,15373,1,2
160,192,15539,1,2
160,128,15706,1,2
352,32,16206,6,0,B|352:128,1,70
352,256,16706,1,0
352,192,16873,1,0
352,128,17040,1,4
352,256,17373,1,0
352,192,17539,1,0
352,128,17706,1,4
352,256,18040,2,0,B|192:256,1,140
64,256,18706,5,0
64,128,19039,2,0,B|224:128,1,140
352,128,19706,2,0,B|192:128,1,140
352,192,20373,1,0
352,320,20706,1,2
288,320,20873,1,2
224,320,21039,1,2
96,320,21373,5,0
224,320,21706,1,0
352,320,22039,1,0
352,192,22373,1,0
352,64,22706,1,0
224,64,23039,1,0
224,192,23373,2,2,B|224:96,1,70
224,192,23706,1,2
96,192,24039,5,0
224,192,24373,1,0
96,192,24706,1,0
224,192,25039,1,0
352,192,25373,1,0
224,192,25706,1,0
96,192,26039,2,4,B|0:192,1,70
96,192,26373,1,4
224,256,26706,6,0,B|160:416|416:352,1,280
384,224,27706,1,4
256,224,28039,2,0,B|192:64|416:32,1,280
192,32,29206,2,0,B|-45:192|273:364,1,420
448,256,30706,6,0,B|352:256,1,70
352,192,31039,2,0,B|448:192,1,70
448,128,31373,2,0,B|352:128,1,70
320,128,31706,1,2
192,160,32039,6,0,B|448:288,1,280
320,320,33039,1,2
320,192,33373,1,2
96,32,34039,1,2
384,64,34706,1,4
288,160,35039,1,4
192,256,35373,1,4
416,256,35873,1,4
256,192,35956,12,2,37039
416,320,37373,6,0,B|480:160|384:32,1,280
352,192,38373,1,4
256,64,38706,2,0,B|320:224|224:352,1,280
64,224,39873,2,0,B|224:461|396:143,1,420
160,160,41373,6,0,B|320:160,1,140
160,160,42040,2,0,B|0:160,1,140
352,224,42706,6,0,B|128:0,1,280
160,160,43706,1,4
160,32,44040,2,0,B|160:320,1,280
32,64,45373,6,0,B|192:64,1,140
288,128,46040,2,0,B|128:128,1,140
224,224,46706,1,0
96,224,47040,1,0
160,352,47373,1,0
160,288,47540,1,0
160,224,47706,1,2
288,224,48040,5,0
288,96,48373,1,0
416,96,48706,1,0
416,224,49040,1,0
416,96,49373,2,4,B|416:256,1,140
288,224,50040,1,2
288,160,50206,1,2
288,96,50373,1,2
288,224,50706,5,0
288,96,51039,1,0
160,96,51373,1,0
160,224,51706,1,0
288,224,52039,2,4,B|288:64,1,140
384,192,52706,1,2
384,128,52873,1,2
384,64,53040,1,2
256,128,53373,5,0
128,128,53706,1,0
256,128,54039,1,0
128,128,54373,1,0
256,128,54706,2,4,B|96:128,1,140
256,128,55373,1,2
192,128,55539,1,2
128,128,55706,1,2
128,256,56040,5,0
256,256,56373,1,0
128,256,56706,1,0
128,128,57040,1,0
128,256,57373,2,4,B|128:96,1,140
192,256,58040,1,2
192,192,58206,1,2
192,128,58373,1,2
288,224,58706,5,0
288,96,59040,1,0
288,224,59373,1,2
288,288,59539,1,2
288,352,59706,1,2
416,320,60040,5,0
416,192,60373,1,0
416,64,60706,1,2
352,64,60873,1,2
288,64,61040,1,2
288,192,61373,5,0
160,192,61706,1,0
160,320,62040,1,2
224,320,62206,1,2
288,320,62373,1,2
160,320,62706,5,0
160,192,63040,1,0
288,192,63373,1,2
288,128,63540,1,2
352,128,63706,1,2
352,256,64040,5,0
224,256,64373,1,0
352,256,64706,1,2
288,256,64873,1,2
224,256,65040,1,2
96,256,65373,5,0
224,256,65706,1,0
96,320,66040,1,2
96,256,66206,1,2
96,192,66373,1,2
224,192,66706,5,0
224,64,67040,1,0
224,192,67373,1,2
224,256,67540,1,2
224,192,67706,1,2
352,192,68040,5,0
352,320,68373,1,0
224,320,68706,1,2
224,256,68873,1,2
224,192,69040,1,2
352,96,69373,5,0
352,224,69706,1,0
352,96,70040,1,0
352,224,70373,1,0
224,224,70706,1,4
224,224,70873,1,4
224,224,71040,1,4
224,224,71206,1,4
224,224,71373,1,4
224,96,71706,1,2
224,224,72040,5,0
352,224,72373,1,0
224,224,72706,1,0
352,224,73040,1,0
224,224,73373,1,4
224,224,73540,1,4
224,224,73706,1,4
224,224,73873,1,4
224,224,74040,1,4
224,96,74373,1,2
96,96,74706,5,0
96,224,75040,1,0
224,224,75373,1,0
352,224,75706,1,0
352,96,76040,1,4
352,96,76206,1,4
352,96,76373,1,4
352,96,76540,1,4
352,96,76706,1,4
224,96,77040,1,2
288,224,77373,5,0
160,224,77706,1,0
160,96,78040,1,0
288,96,78373,1,0
416,96,78706,1,4
416,96,78873,1,4
416,96,79039,1,4
416,96,79206,1,4
416,96,79373,1,4
416,224,79706,1,2
288,224,80039,5,0
288,96,80373,1,0
288,224,80706,2,0,B|288:320,3,70
192,192,81539,5,0
256,192,81706,1,0
320,192,81873,1,0
384,192,82039,1,0
256,192,82373,2,0,B|256:288,1,70
128,288,82873,5,0
192,288,83039,1,0
192,224,83206,1,0
128,224,83373,1,0
256,288,83706,2,0,B|256:192,1,70
160,128,84206,5,0
224,128,84373,1,0
224,64,84539,1,0
288,64,84706,1,0
160,128,85039,2,0,B|160:224,1,70
224,320,85539,6,0,B|160:256,1,70
32,320,86039,1,0
32,256,86206,1,0
32,192,86373,1,4
160,192,86706,1,0
160,256,86873,1,0
160,320,87039,1,4
160,192,87373,2,0,B|288:288,1,140
384,352,88039,5,0
416,224,88373,1,0
416,352,88706,1,0
384,224,89039,1,0
352,352,89373,1,0
352,224,89706,1,0
224,256,90039,1,2
224,256,90206,1,2
224,256,90373,1,6
320,128,90706,6,0,B|237:90|32:160,1,280
160,224,91706,1,4
224,96,92039,2,0,B|160:256|384:288,1,280
288,320,93206,2,0,B|452:283|40:68,1,420
224,224,94706,6,0,B|320:224,1,70
224,224,95039,2,0,B|128:224,1,70
224,224,95373,2,0,B|224:128,1,70
224,96,95706,1,2
352,64,96039,6,0,B|300:289|480:256,1,280
352,320,97039,1,4
288,192,97373,2,0,B|352:32|128:0,1,280
384,160,98706,2,0,B|384:288|384:320,1,140
384,160,99373,2,0,B|384:0,1,140
256,192,100039,12,2,100706
448,352,101373,6,0,B|486:269|416:64,1,280
352,192,102373,1,4
288,64,102706,2,0,B|128:0|96:224,1,280
288,288,103873,2,0,B|552:450|224:96,1,420
32,192,105373,5,0
160,192,105706,1,0
288,192,106039,1,0
416,192,106373,1,2
320,96,106706,6,0,B|160:32|32:128,1,280
160,192,107706,1,4
192,288,108039,2,0,B|352:352|480:256,1,280
192,224,109373,6,0,B|352:224,1,140
192,224,110039,2,0,B|32:224,1,140
192,224,110706,1,0
192,96,111039,1,0
320,96,111373,1,0
416,192,111706,1,2
256,192,112039,5,0
256,192,112373,1,0
256,192,112706,1,0
256,192,113039,1,0
256,192,113373,2,4,B|256:352,1,140
128,320,114039,1,2
128,256,114206,1,2
192,256,114373,1,2
256,192,114706,5,0
256,192,115039,1,0
256,192,115373,1,0
256,192,115706,1,0
256,192,116039,2,4,B|256:32,1,140
128,64,116706,1,2
128,128,116873,1,2
192,128,117039,1,2
256,192,117373,5,0
256,192,117706,1,0
256,192,118039,1,0
256,192,118373,1,0
256,192,118706,2,4,B|416:192,1,140
416,64,119373,1,2
352,64,119539,1,2
384,128,119706,1,2
256,192,120039,5,0
256,192,120373,1,0
256,192,120706,1,0
256,192,121039,1,0
256,192,121373,2,4,B|96:192,1,140
256,192,122039,1,2
224,128,122206,1,2
192,64,122373,1,2
96,96,122706,5,0
96,224,123039,1,0
96,96,123373,1,2
96,160,123539,1,2
96,224,123706,1,2
224,192,124039,5,0
224,320,124373,1,0
224,192,124706,1,2
224,256,124873,1,2
224,320,125039,1,2
352,256,125373,5,0
480,256,125706,1,0
352,256,126039,1,2
416,256,126206,1,2
480,256,126373,1,2
480,128,126706,5,0
352,128,127039,1,0
480,128,127373,1,2
416,128,127539,1,2
352,128,127706,1,2
288,256,128039,5,0
288,128,128373,1,0
288,256,128706,1,2
288,192,128873,1,2
288,128,129039,1,2
160,192,129373,5,0
288,192,129706,1,0
160,192,130039,1,2
224,192,130206,1,2
288,192,130373,1,2
416,192,130706,5,0
416,64,131039,1,0
416,192,131373,1,2
416,128,131539,1,2
416,64,131706,1,2
288,160,132039,5,0
160,160,132373,1,0
288,160,132706,1,2
224,160,132873,1,2
160,160,133039,1,2
96,288,133373,5,0
96,160,133706,1,0
96,288,134039,1,0
96,160,134373,1,0
96,288,134706,1,4
96,288,134873,1,4
96,288,135039,1,4
96,288,135206,1,4
96,288,135373,1,4
96,160,135706,1,2
224,224,136039,5,0
352,224,136373,1,0
224,224,136706,1,0
224,96,137039,1,0
352,96,137373,1,4
352,96,137539,1,4
352,96,137706,1,4
352,96,137873,1,4
352,96,138039,1,4
352,224,138373,1,6
352,352,138706,5,0
352,224,139039,1,0
352,96,139373,1,0
224,96,139706,1,0
224,224,140039,1,4
224,224,140206,1,4
224,224,140373,1,4
224,224,140539,1,4
224,224,140706,1,4
352,224,141039,1,2
224,224,141373,5,0
96,224,141706,1,0
96,96,142039,1,0
224,96,142373,1,0
224,224,142706,1,4
224,224,142873,1,4
224,224,143039,1,4
224,224,143206,1,4
224,224,143373,1,4
224,352,143706,1,2
96,288,144039,5,0
224,288,144373,1,0
224,160,144706,1,2
224,96,144873,1,2
224,32,145039,1,2
352,96,145373,5,0
352,224,145706,1,0
224,224,146039,1,2
160,224,146206,1,2
224,224,146373,1,2
96,160,146706,5,0
224,160,147039,1,0
160,32,147373,1,2
160,96,147539,1,2
160,32,147706,1,2
160,160,148039,5,0
160,288,148373,1,0
160,160,148706,1,2
96,160,148873,1,2
96,224,149039,1,2
224,224,149373,5,0
224,96,149706,1,0
352,96,150039,1,2
352,160,150206,1,2
352,224,150373,1,2
224,192,150706,5,0
96,192,151039,1,0
224,192,151373,1,2
160,192,151539,1,2
96,192,151706,1,2
160,320,152039,5,0
160,192,152373,1,0
160,64,152706,1,2
224,64,152873,1,2
288,64,153039,1,2
160,64,153373,5,0
288,64,153706,1,0
160,64,154039,1,2
224,64,154206,1,2
288,64,154373,1,2
256,192,154456,12,4,155373
