osu file format v5

[General]
AudioFilename: 09 Turupeta.mp3
AudioLeadIn: 2000
PreviewTime: -1
Countdown: 0
SampleSet: Normal
StackLeniency: 0.7
Mode: 0

[Metadata]
Title:Tsurupettan
Artist:Silver Forest
Creator:Nharox
Version:Hard
Source:
Tags:

[Difficulty]
HPDrainRate:4
CircleSize:5
OverallDifficulty:6
SliderMultiplier:1.4
SliderTickRate:2

[Events]
//Background and Video events
0,0,"silver forest.jpg"
1,-410,"Turupeta.avi"
//Break Periods
//Storyboard Layer 0 (Background)
//Storyboard Layer 1 (Failing)
//Storyboard Layer 2 (Passing)
//Storyboard Layer 3 (Foreground)
//Storyboard Sound Samples
//Background Colour Transformations
3,100,163,162,255

[TimingPoints]
40,333.333333333333,4,1,0,100

[Colours]
Combo1 : 255,128,0
Combo2 : 94,187,0
Combo3 : 0,128,255
Combo4 : 210,0,0

[HitObjects]
96,64,40,2,0,B|448:352,2,420
384,64,2706,6,0,B|32:352,2,420
128,128,5373,5,0
256,128,5706,1,0
128,192,6039,1,0
256,192,6373,1,0
192,64,6706,2,4,B|192:224,2,140
320,320,8039,5,0
320,192,8373,1,0
384,320,8706,1,0
384,192,9039,1,0
256,256,9373,2,4,B|416:256,2,140
192,256,10706,5,0
192,128,11039,1,0
256,256,11373,1,0
256,128,11706,1,0
128,192,12040,2,4,B|288:192,2,140
384,320,13373,5,0
256,320,13706,1,0
384,256,14040,1,0
256,256,14373,1,0
320,128,14706,2,4,B|320:288,2,140
32,192,16206,6,0,B|128:192,1,70
96,64,16706,1,0
224,64,17040,1,0
224,192,17373,1,0
96,192,17706,1,0
96,320,18040,2,2,B|256:320,1,140
384,320,18706,5,0
288,224,19039,1,0
288,96,19373,1,0
192,224,19706,1,0
192,96,20039,1,0
320,96,20373,1,0
320,224,20706,2,2,B|320:320,2,70
224,320,21373,5,0
128,224,21706,1,0
224,128,22039,1,0
320,224,22373,1,0
224,320,22706,1,0
128,224,23039,1,0
224,128,23373,2,2,B|224:32,2,70
352,64,24039,5,0
352,192,24373,1,0
224,192,24706,1,0
96,192,25039,1,0
96,320,25373,1,0
224,320,25706,1,0
224,192,26039,2,2,B|224:96,2,70
96,128,26706,6,0,B|-70:376|96:352,1,280
160,256,27706,1,4
288,320,28039,2,0,B|224:160|320:32,1,280
480,192,29206,2,0,B|397:567|288:64,1,490
256,224,30706,5,0
128,224,31039,1,0
128,96,31373,1,0
256,96,31706,1,2
160,192,32039,6,0,B|448:192,1,280
448,320,33039,1,2
320,320,33373,1,2
320,32,34039,1,2
320,320,34706,1,4
64,192,35373,1,4
288,192,35873,1,4
416,320,37373,6,0,B|480:160|384:32,1,280
352,192,38373,1,4
256,64,38706,2,0,B|320:224|224:352,1,280
128,160,39873,2,0,B|-109:0|465:148,1,490
288,192,41373,6,0,B|288:352,1,140
288,192,42040,2,0,B|288:32,1,140
160,64,42706,6,0,B|160:352,1,280
288,320,43706,1,4
160,320,44040,2,0,B|416:160,1,280
128,192,45373,6,0,B|288:192,1,140
416,192,46040,2,0,B|416:352,1,140
288,320,46706,1,0
288,192,47040,1,0
288,64,47373,1,0
160,64,47706,1,2
160,192,48040,5,0
288,192,48373,1,0
288,64,48706,1,0
160,64,49040,1,0
288,64,49373,2,4,B|288:224,2,140
256,352,50706,5,0
256,224,51039,1,0
128,224,51373,1,0
128,85,51706,1,0
128,224,52039,2,4,B|128:64,2,140
416,192,53373,5,0
288,192,53706,1,0
416,192,54039,1,0
288,192,54373,1,0
160,192,54706,2,4,B|0:192,2,140
384,192,56040,5,0
384,64,56373,1,0
256,64,56706,1,0
128,64,57040,1,0
128,192,57373,2,4,B|288:192,2,140
32,32,58706,5,0
32,160,59040,1,0
160,160,59373,2,2,B|256:160,2,70
288,160,60040,5,0
416,160,60373,1,0
416,288,60706,2,2,B|416:384,2,70
416,160,61373,5,0
416,288,61706,1,0
288,288,62039,2,2,B|192:288,2,70
288,160,62706,5,0
160,160,63040,1,0
160,32,63373,2,2,B|256:32,2,70
288,32,64040,5,0
288,160,64373,1,0
288,288,64706,2,2,B|288:384,2,70
160,352,65373,5,0
160,224,65706,1,0
160,96,66040,2,2,B|160:0,2,70
288,64,66706,5,0
416,64,67040,1,0
416,192,67373,2,2,B|320:192,2,70
288,192,68040,5,0
160,192,68373,1,0
32,192,68706,2,2,B|128:192,2,70
160,128,69373,5,0
288,128,69706,1,0
288,256,70040,1,0
160,256,70373,1,0
288,256,70706,2,4,B|384:256,4,70
160,256,71706,1,2
32,224,72040,5,0
160,224,72373,1,0
160,96,72706,1,0
288,96,73040,1,0
320,224,73373,2,4,B|224:224,4,70
192,224,74373,1,2
64,224,74706,5,0
64,352,75040,1,0
192,352,75373,1,0
320,352,75706,1,0
320,224,76040,2,4,B|320:128,4,70
448,192,77040,1,2
320,192,77373,5,0
320,64,77706,1,0
192,64,78040,1,0
192,192,78373,1,0
192,64,78706,2,4,B|192:160,4,70
192,192,79706,1,2
64,192,80039,5,0
192,192,80373,1,0
320,192,80706,2,0,B|416:192,3,70
256,32,81706,5,0
256,160,82039,1,0
256,288,82373,2,0,B|256:384,1,70
32,352,83039,5,0
32,224,83373,1,0
32,96,83706,2,0,B|32:0,1,70
32,224,84373,5,0
160,224,84706,1,0
288,224,85039,2,0,B|288:320,1,70
416,320,85539,6,0,B|352:256,1,70
224,256,86039,1,0
224,128,86373,1,0
96,128,86706,1,0
96,256,87039,1,0
224,256,87373,2,2,B|352:352,1,140
480,320,88039,5,0
480,192,88373,1,0
352,192,88706,1,0
480,192,89039,1,0
352,192,89373,1,0
352,64,89706,1,0
224,64,90039,2,2,B|128:64,2,70
96,128,90706,6,0,B|-70:273|96:352,1,280
160,224,91706,1,4
288,160,92039,2,0,B|224:320|448:352,1,280
256,256,93206,2,0,B|420:219|6:-4,1,420
64,224,94706,5,0
192,160,95039,1,0
320,224,95373,1,0
448,160,95706,1,2
448,288,96039,6,0,B|365:326|160:256,1,280
160,128,97039,1,4
320,224,97373,2,0,B|384:64|160:32,1,280
448,96,98706,2,0,B|448:224|448:256,1,140
320,224,99373,2,0,B|320:64,1,140
256,192,100039,12,2,100706
448,352,101373,6,0,B|486:269|416:64,1,280
352,192,102373,1,4
256,96,102706,2,0,B|96:32|64:256,1,280
256,288,103873,2,0,B|293:452|544:64,1,420
480,288,105373,5,0
480,160,105706,1,0
352,160,106039,1,0
224,160,106373,1,2
352,96,106706,6,0,B|192:32|64:128,1,280
192,192,107706,1,4
192,320,108039,2,0,B|352:384|480:288,1,280
192,224,109373,6,0,B|352:224,1,140
352,96,110039,2,0,B|192:96,1,140
96,160,110706,2,0,B|256:160,1,140
384,160,111373,2,2,B|224:160,1,140
256,192,112039,5,0
256,192,112373,1,0
256,192,112706,1,0
256,192,113039,1,0
256,192,113373,2,4,B|256:352,2,140
256,192,114706,5,0
256,192,115039,1,0
256,192,115373,1,0
256,192,115706,1,0
256,192,116039,2,4,B|256:32,2,140
256,192,117373,5,0
256,192,117706,1,0
256,192,118039,1,0
256,192,118373,1,0
256,192,118706,2,4,B|416:192,2,140
256,192,120039,5,0
256,192,120373,1,0
256,192,120706,1,0
256,192,121039,1,0
256,192,121373,2,4,B|96:192,2,140
480,32,122706,5,0
352,32,123039,1,0
416,160,123373,2,2,B|416:256,2,70
416,288,124039,5,0
416,160,124373,1,0
288,224,124706,2,2,B|160:224,2,70
160,288,125373,5,0
288,288,125706,1,0
288,160,126039,2,2,B|288:64,2,70
416,192,126706,5,0
288,192,127039,1,0
160,192,127373,2,2,B|160:96,2,70
224,64,128039,5,0
224,192,128373,1,0
224,64,128706,2,2,B|224:160,2,70
352,96,129373,5,0
224,96,129706,1,0
96,96,130039,2,0,B|96:192,2,70
160,224,130706,5,0
288,224,131039,1,0
288,96,131373,2,2,B|192:96,2,70
256,256,132039,5,0
384,256,132373,1,0
256,256,132706,2,2,B|256:160,2,70
128,288,133373,5,0
128,160,133706,1,0
128,32,134039,1,0
128,160,134373,1,0
128,288,134706,2,4,B|128:384,4,70
128,160,135706,1,2
256,160,136039,5,0
384,224,136373,1,0
256,224,136706,1,0
384,160,137039,1,0
384,288,137373,2,4,B|384:384,4,70
256,288,138373,1,2
128,288,138706,5,0
256,288,139039,1,0
256,160,139373,1,0
256,32,139706,1,0
384,32,140039,2,4,B|480:32,4,70
480,128,141039,1,2
448,256,141373,5,0
320,256,141706,1,0
448,256,142039,1,0
448,128,142373,1,0
320,128,142706,2,4,B|224:128,4,70
288,256,143706,1,2
160,256,144039,5,0
288,256,144373,1,0
288,128,144706,2,2,B|192:128,2,70
416,64,145373,5,0
416,192,145706,1,0
288,192,146039,2,2,B|288:96,2,70
160,192,146706,5,0
160,320,147039,1,0
288,320,147373,2,2,B|352:256,2,70
384,224,148039,5,0
384,96,148373,1,0
256,96,148706,2,2,B|160:96,2,70
384,96,149373,5,0
384,224,149706,1,0
256,224,150039,2,2,B|192:288,2,70
160,320,150706,5,0
160,192,151039,1,0
160,320,151373,2,2,B|160:224,2,70
288,288,152039,5,0
416,288,152373,1,0
416,160,152706,2,2,B|416:64,2,70
288,128,153373,5,0
160,128,153706,1,0
160,256,154039,2,2,B|256:224,2,70
