osu file format v13

[General]
AudioFilename: 09 Turupeta.mp3
AudioLeadIn: 0
PreviewTime: -1
Countdown: 1
SampleSet: Soft
StackLeniency: 0.7
Mode: 3
LetterboxInBreaks: 1
SpecialStyle: 0
WidescreenStoryboard: 1

[Editor]
Bookmarks: 26692,85359,90692
DistanceSpacing: 1
BeatDivisor: 4
GridSize: 4
TimelineZoom: 1.6

[Metadata]
Title:Tsurupettan
TitleUnicode:Tsurupettan
Artist:Silver Forest
ArtistUnicode:Silver Forest
Creator:Lokovodo
Version:7K HD
Source:
Tags:
BeatmapID:471030
BeatmapSetID:191545

[Difficulty]
HPDrainRate:7
CircleSize:7
OverallDifficulty:7
ApproachRate:5
SliderMultiplier:1.4
SliderTickRate:1

[Events]
//Background and Video events
0,0,"touhou-kimono-konpaku-youmu-yakumo-yukari-hieda-no-akyuu-kochiya-sanae-saigyouji-yuyuko-alice-margatroid-medicine-melancholy-japanese-clothes-wallpaper.jpg",0,0
Video,0,"Turupeta.avi"
//Break Periods
//Storyboard Layer 0 (Background)
//Storyboard Layer 1 (Fail)
//Storyboard Layer 2 (Pass)
//Storyboard Layer 3 (Foreground)
//Storyboard Sound Samples
//Background Colour Transformations
3,100,163,162,255

[TimingPoints]
26,333.333333333333,4,2,0,30,1,0
5359,-100,4,2,0,30,0,1
16025,-100,4,2,0,30,0,0
48025,-100,4,2,0,30,0,1
57359,-100,4,2,0,30,0,0
58692,-100,4,2,0,30,0,1
69359,-100,4,2,0,30,0,0
112025,-100,4,2,0,30,0,1
121359,-100,4,2,0,30,0,0
122692,-100,4,2,0,30,0,1
133359,-100,4,2,0,30,0,0
144025,-100,4,2,0,30,0,1
154692,-100,4,2,0,30,0,0

[HitObjects]
36,192,5025,5,0,0:0:0:0:
109,192,5109,1,0,0:0:0:0:
182,192,5192,1,0,0:0:0:0:
256,192,5275,1,0,0:0:0:0:
475,192,5359,128,0,5692:0:0:0:0:
329,192,5359,128,0,5692:0:0:0:0:
109,192,5359,1,0,0:0:0:0:
36,192,5692,1,0,0:0:0:0:
182,192,5692,1,0,0:0:0:0:
256,192,5859,1,0,0:0:0:0:
36,192,6025,128,0,6359:0:0:0:0:
182,192,6025,128,0,6359:0:0:0:0:
402,192,6025,1,0,0:0:0:0:
329,192,6359,1,0,0:0:0:0:
475,192,6359,1,0,0:0:0:0:
256,192,6525,1,0,0:0:0:0:
329,192,6692,1,0,0:0:0:0:
36,192,6692,1,0,0:0:0:0:
182,192,6859,1,0,0:0:0:0:
402,192,6859,1,0,0:0:0:0:
475,192,7025,128,0,7359:0:0:0:0:
329,192,7025,1,0,0:0:0:0:
109,192,7192,1,0,0:0:0:0:
256,192,7359,1,0,0:0:0:0:
36,192,7359,1,0,0:0:0:0:
402,192,7525,1,0,0:0:0:0:
475,192,7692,128,0,8025:0:0:0:0:
36,192,7692,1,0,0:0:0:0:
109,192,7859,1,0,0:0:0:0:
402,192,8025,128,0,8359:0:0:0:0:
329,192,8025,128,0,8359:0:0:0:0:
182,192,8025,1,0,0:0:0:0:
36,192,8192,1,0,0:0:0:0:
256,192,8359,1,0,0:0:0:0:
109,192,8359,1,0,0:0:0:0:
475,192,8525,1,0,0:0:0:0:
36,192,8692,128,0,9025:0:0:0:0:
182,192,8692,128,0,9025:0:0:0:0:
329,192,8692,1,0,0:0:0:0:
475,192,8859,1,0,0:0:0:0:
402,192,9025,1,0,0:0:0:0:
256,192,9025,1,0,0:0:0:0:
329,192,9192,1,0,0:0:0:0:
109,192,9359,1,0,0:0:0:0:
475,192,9359,1,0,0:0:0:0:
402,192,9525,1,0,0:0:0:0:
182,192,9525,1,0,0:0:0:0:
329,192,9692,1,0,0:0:0:0:
36,192,9692,128,0,10025:0:0:0:0:
182,192,9859,1,0,0:0:0:0:
475,192,10025,1,0,0:0:0:0:
256,192,10025,1,0,0:0:0:0:
402,192,10192,1,0,0:0:0:0:
475,192,10359,1,0,0:0:0:0:
109,192,10359,1,0,0:0:0:0:
402,192,10442,1,0,0:0:0:0:
329,192,10525,1,0,0:0:0:0:
256,192,10609,1,0,0:0:0:0:
36,192,10692,128,0,11025:0:0:0:0:
182,192,10692,128,0,11025:0:0:0:0:
475,192,10692,1,0,0:0:0:0:
256,192,11025,1,0,0:0:0:0:
402,192,11025,1,0,0:0:0:0:
329,192,11192,1,0,0:0:0:0:
109,192,11359,128,0,11692:0:0:0:0:
256,192,11359,128,0,11692:0:0:0:0:
402,192,11359,1,0,0:0:0:0:
329,192,11692,1,0,0:0:0:0:
475,192,11692,1,0,0:0:0:0:
36,192,11859,1,0,0:0:0:0:
475,192,12025,1,0,0:0:0:0:
182,192,12025,1,0,0:0:0:0:
109,192,12192,1,0,0:0:0:0:
329,192,12192,1,0,0:0:0:0:
182,192,12359,1,0,0:0:0:0:
36,192,12359,128,0,12692:0:0:0:0:
402,192,12525,1,0,0:0:0:0:
256,192,12692,1,0,0:0:0:0:
475,192,12692,1,0,0:0:0:0:
402,192,12859,1,0,0:0:0:0:
109,192,12859,1,0,0:0:0:0:
182,192,13025,128,0,13359:0:0:0:0:
329,192,13025,1,0,0:0:0:0:
36,192,13192,1,0,0:0:0:0:
475,192,13359,128,0,13692:0:0:0:0:
402,192,13359,128,0,13692:0:0:0:0:
109,192,13359,1,0,0:0:0:0:
329,192,13692,1,0,0:0:0:0:
256,192,13692,1,0,0:0:0:0:
182,192,13859,1,0,0:0:0:0:
36,192,14025,128,0,14359:0:0:0:0:
109,192,14025,128,0,14359:0:0:0:0:
402,192,14025,1,0,0:0:0:0:
182,192,14359,1,0,0:0:0:0:
256,192,14359,1,0,0:0:0:0:
402,192,14525,1,0,0:0:0:0:
109,192,14692,1,0,0:0:0:0:
475,192,14692,1,0,0:0:0:0:
402,192,14859,1,0,0:0:0:0:
36,192,14859,1,0,0:0:0:0:
329,192,15025,128,0,15359:0:0:0:0:
182,192,15025,128,0,15359:0:0:0:0:
109,192,15359,128,0,16025:0:0:0:0:
402,192,15359,128,0,16025:0:0:0:0:
475,192,15359,1,0,0:0:0:0:
256,192,15525,1,0,0:0:0:0:
36,192,15692,1,0,0:0:0:0:
182,192,15859,1,0,0:0:0:0:
329,192,16025,1,0,0:0:0:0:
475,192,16025,128,0,16359:0:0:0:0:
182,192,16192,1,0,0:0:0:0:
329,192,16359,1,0,0:0:0:0:
36,192,16359,1,0,0:0:0:0:
109,192,16525,128,0,16692:0:0:0:0:
402,192,16692,1,0,0:0:0:0:
475,192,16692,128,0,17025:0:0:0:0:
256,192,16859,1,0,0:0:0:0:
109,192,17025,1,0,0:0:0:0:
329,192,17192,128,0,17359:0:0:0:0:
36,192,17359,1,0,0:0:0:0:
182,192,17359,1,0,0:0:0:0:
402,192,17359,128,0,17692:0:0:0:0:
256,192,17525,1,0,0:0:0:0:
109,192,17692,1,0,0:0:0:0:
329,192,17859,128,0,18192:0:0:0:0:
36,192,17859,1,0,0:0:0:0:
182,192,18025,1,0,0:0:0:0:
475,192,18192,1,0,0:0:0:0:
109,192,18192,1,0,0:0:0:0:
256,192,18359,1,0,0:0:0:0:
402,192,18359,1,0,0:0:0:0:
182,192,18525,1,0,0:0:0:0:
36,192,18692,128,0,19025:0:0:0:0:
329,192,18692,1,0,0:0:0:0:
256,192,18859,1,0,0:0:0:0:
109,192,19025,1,0,0:0:0:0:
402,192,19025,1,0,0:0:0:0:
182,192,19192,128,0,19359:0:0:0:0:
329,192,19359,1,0,0:0:0:0:
475,192,19359,128,0,19692:0:0:0:0:
36,192,19525,1,0,0:0:0:0:
109,192,19692,1,0,0:0:0:0:
402,192,19692,1,0,0:0:0:0:
329,192,19859,1,0,0:0:0:0:
182,192,20025,1,0,0:0:0:0:
256,192,20025,1,0,0:0:0:0:
36,192,20025,128,0,20359:0:0:0:0:
402,192,20192,1,0,0:0:0:0:
329,192,20359,1,0,0:0:0:0:
182,192,20525,128,0,20859:0:0:0:0:
475,192,20525,1,0,0:0:0:0:
402,192,20692,1,0,0:0:0:0:
256,192,20859,1,0,0:0:0:0:
475,192,20859,1,0,0:0:0:0:
36,192,21025,1,0,0:0:0:0:
109,192,21025,1,0,0:0:0:0:
256,192,21192,1,0,0:0:0:0:
475,192,21359,1,0,0:0:0:0:
329,192,21359,1,0,0:0:0:0:
109,192,21359,128,0,22025:0:0:0:0:
36,192,21359,128,0,21692:0:0:0:0:
402,192,21525,1,0,0:0:0:0:
182,192,21692,1,0,0:0:0:0:
475,192,21692,1,0,0:0:0:0:
256,192,21859,1,0,0:0:0:0:
475,192,22025,128,0,22359:0:0:0:0:
329,192,22025,1,0,0:0:0:0:
182,192,22192,1,0,0:0:0:0:
36,192,22359,1,0,0:0:0:0:
402,192,22359,1,0,0:0:0:0:
182,192,22525,1,0,0:0:0:0:
329,192,22692,1,0,0:0:0:0:
475,192,22692,1,0,0:0:0:0:
36,192,22692,128,0,23025:0:0:0:0:
256,192,22859,1,0,0:0:0:0:
402,192,23025,1,0,0:0:0:0:
182,192,23025,1,0,0:0:0:0:
329,192,23192,1,0,0:0:0:0:
109,192,23192,128,0,23525:0:0:0:0:
475,192,23359,1,0,0:0:0:0:
402,192,23359,1,0,0:0:0:0:
329,192,23525,1,0,0:0:0:0:
182,192,23525,128,0,23692:0:0:0:0:
36,192,23692,1,0,0:0:0:0:
402,192,23692,128,0,24025:0:0:0:0:
256,192,23859,1,0,0:0:0:0:
109,192,24025,1,0,0:0:0:0:
329,192,24025,1,0,0:0:0:0:
475,192,24025,128,0,24359:0:0:0:0:
256,192,24192,1,0,0:0:0:0:
36,192,24359,1,0,0:0:0:0:
182,192,24359,1,0,0:0:0:0:
402,192,24525,1,0,0:0:0:0:
256,192,24692,1,0,0:0:0:0:
109,192,24692,1,0,0:0:0:0:
475,192,24859,1,0,0:0:0:0:
36,192,24859,1,0,0:0:0:0:
182,192,25025,1,0,0:0:0:0:
329,192,25025,1,0,0:0:0:0:
256,192,25192,1,0,0:0:0:0:
182,192,25359,1,0,0:0:0:0:
36,192,25359,1,0,0:0:0:0:
475,192,25359,1,0,0:0:0:0:
256,192,25525,1,0,0:0:0:0:
109,192,25525,1,0,0:0:0:0:
475,192,25525,1,0,0:0:0:0:
182,192,25692,1,0,0:0:0:0:
329,192,25692,1,0,0:0:0:0:
475,192,25692,1,0,0:0:0:0:
256,192,25859,128,0,26192:0:0:0:0:
402,192,25859,128,0,26192:0:0:0:0:
329,192,26192,128,0,26359:0:0:0:0:
182,192,26192,128,0,26359:0:0:0:0:
36,192,26192,1,0,0:0:0:0:
256,192,26359,128,0,26692:0:0:0:0:
109,192,26359,128,0,26692:0:0:0:0:
475,192,26359,1,0,0:0:0:0:
36,192,26692,128,0,28025:0:0:0:0:
182,192,26692,128,0,27692:0:0:0:0:
402,192,26692,1,0,0:0:0:0:
475,192,27025,1,0,0:0:0:0:
109,192,27359,1,0,0:0:0:0:
109,192,27525,1,0,0:0:0:0:
256,192,27692,128,0,28025:0:0:0:0:
329,192,27692,1,0,0:0:0:0:
402,192,28025,128,0,29359:0:0:0:0:
109,192,28025,128,0,28692:0:0:0:0:
475,192,28025,1,0,0:0:0:0:
329,192,28359,1,0,0:0:0:0:
182,192,28692,128,0,29359:0:0:0:0:
256,192,28692,1,0,0:0:0:0:
36,192,29025,1,0,0:0:0:0:
256,192,29359,128,0,30692:0:0:0:0:
329,192,29359,128,0,30692:0:0:0:0:
109,192,29359,1,0,0:0:0:0:
475,192,29692,1,0,0:0:0:0:
36,192,30025,1,0,0:0:0:0:
109,192,30192,1,0,0:0:0:0:
182,192,30359,1,0,0:0:0:0:
36,192,30525,1,0,0:0:0:0:
402,192,30525,1,0,0:0:0:0:
182,192,30692,1,0,0:0:0:0:
475,192,30692,1,0,0:0:0:0:
402,192,30859,1,0,0:0:0:0:
256,192,31025,1,0,0:0:0:0:
36,192,31192,1,0,0:0:0:0:
109,192,31275,1,0,0:0:0:0:
329,192,31359,1,0,0:0:0:0:
182,192,31359,1,0,0:0:0:0:
475,192,31359,1,0,0:0:0:0:
256,192,31525,1,0,0:0:0:0:
402,192,31525,1,0,0:0:0:0:
182,192,31692,1,0,0:0:0:0:
36,192,31692,1,0,0:0:0:0:
256,192,31859,1,0,0:0:0:0:
329,192,31942,1,0,0:0:0:0:
402,192,32025,1,0,0:0:0:0:
475,192,32025,128,0,33359:0:0:0:0:
109,192,32025,128,0,32692:0:0:0:0:
329,192,32359,1,0,0:0:0:0:
36,192,32359,128,0,32692:0:0:0:0:
182,192,32692,128,0,33025:0:0:0:0:
256,192,32692,1,0,0:0:0:0:
256,192,32859,1,0,0:0:0:0:
36,192,33025,128,0,33359:0:0:0:0:
402,192,33025,1,0,0:0:0:0:
329,192,33359,128,0,34692:0:0:0:0:
109,192,33359,128,0,34025:0:0:0:0:
182,192,33359,1,0,0:0:0:0:
402,192,33692,128,0,34025:0:0:0:0:
256,192,34025,128,0,34692:0:0:0:0:
36,192,34025,1,0,0:0:0:0:
182,192,34359,1,0,0:0:0:0:
182,192,34692,128,0,35692:0:0:0:0:
475,192,34692,128,0,35359:0:0:0:0:
36,192,34692,1,0,0:0:0:0:
109,192,35025,1,0,0:0:0:0:
329,192,35359,128,0,35692:0:0:0:0:
36,192,35359,1,0,0:0:0:0:
256,192,35692,128,0,37359:0:0:0:0:
402,192,35692,1,0,0:0:0:0:
36,192,35859,128,0,37359:0:0:0:0:
475,192,35859,128,0,37359:0:0:0:0:
182,192,36025,1,0,0:0:0:0:
329,192,36359,1,0,0:0:0:0:
109,192,36692,1,0,0:0:0:0:
182,192,36859,1,0,0:0:0:0:
402,192,37025,1,0,0:0:0:0:
329,192,37025,1,0,0:0:0:0:
109,192,37192,1,0,0:0:0:0:
182,192,37275,1,0,0:0:0:0:
329,192,37359,128,0,38692:0:0:0:0:
402,192,37359,128,0,38359:0:0:0:0:
182,192,37692,128,0,38025:0:0:0:0:
36,192,38025,1,0,0:0:0:0:
36,192,38192,1,0,0:0:0:0:
109,192,38359,128,0,38692:0:0:0:0:
256,192,38359,1,0,0:0:0:0:
402,192,38692,128,0,40025:0:0:0:0:
182,192,38692,128,0,39359:0:0:0:0:
475,192,38692,1,0,0:0:0:0:
36,192,39025,1,0,0:0:0:0:
256,192,39359,128,0,40025:0:0:0:0:
109,192,39359,1,0,0:0:0:0:
182,192,39692,1,0,0:0:0:0:
109,192,40025,128,0,41359:0:0:0:0:
475,192,40025,128,0,41359:0:0:0:0:
329,192,40025,128,0,40359:0:0:0:0:
182,192,40359,1,0,0:0:0:0:
256,192,40692,1,0,0:0:0:0:
329,192,40859,1,0,0:0:0:0:
36,192,41025,1,0,0:0:0:0:
402,192,41192,1,0,0:0:0:0:
182,192,41192,1,0,0:0:0:0:
329,192,41359,1,0,0:0:0:0:
256,192,41525,1,0,0:0:0:0:
36,192,41692,1,0,0:0:0:0:
402,192,41692,1,0,0:0:0:0:
329,192,41859,1,0,0:0:0:0:
109,192,42025,1,0,0:0:0:0:
475,192,42025,1,0,0:0:0:0:
256,192,42192,1,0,0:0:0:0:
402,192,42359,1,0,0:0:0:0:
36,192,42359,1,0,0:0:0:0:
329,192,42525,1,0,0:0:0:0:
256,192,42609,1,0,0:0:0:0:
475,192,42692,1,0,0:0:0:0:
36,192,42692,128,0,44025:0:0:0:0:
182,192,42692,128,0,43692:0:0:0:0:
402,192,43025,1,0,0:0:0:0:
256,192,43359,1,0,0:0:0:0:
402,192,43692,128,0,44025:0:0:0:0:
475,192,43692,1,0,0:0:0:0:
109,192,44025,128,0,45359:0:0:0:0:
329,192,44025,128,0,44692:0:0:0:0:
256,192,44025,1,0,0:0:0:0:
182,192,44359,1,0,0:0:0:0:
402,192,44692,128,0,45025:0:0:0:0:
36,192,44692,1,0,0:0:0:0:
475,192,45025,128,0,45359:0:0:0:0:
256,192,45025,1,0,0:0:0:0:
256,192,45359,128,0,46692:0:0:0:0:
329,192,45359,1,0,0:0:0:0:
182,192,45359,1,0,0:0:0:0:
182,192,45525,1,0,0:0:0:0:
329,192,45525,1,0,0:0:0:0:
36,192,45692,128,0,46025:0:0:0:0:
475,192,45692,128,0,46025:0:0:0:0:
402,192,46025,1,0,0:0:0:0:
109,192,46025,1,0,0:0:0:0:
402,192,46192,1,0,0:0:0:0:
109,192,46192,1,0,0:0:0:0:
475,192,46359,128,0,46692:0:0:0:0:
36,192,46359,128,0,46692:0:0:0:0:
329,192,46692,1,0,0:0:0:0:
182,192,46692,1,0,0:0:0:0:
402,192,46859,1,0,0:0:0:0:
109,192,46859,1,0,0:0:0:0:
36,192,47025,1,0,0:0:0:0:
475,192,47025,1,0,0:0:0:0:
329,192,47192,1,0,0:0:0:0:
182,192,47192,1,0,0:0:0:0:
256,192,47359,128,0,48025:0:0:0:0:
475,192,47525,1,0,0:0:0:0:
36,192,47525,1,0,0:0:0:0:
402,192,47609,1,0,0:0:0:0:
109,192,47609,1,0,0:0:0:0:
329,192,47692,1,0,0:0:0:0:
182,192,47692,1,0,0:0:0:0:
36,192,47775,1,0,0:0:0:0:
475,192,47775,1,0,0:0:0:0:
109,192,47859,1,0,0:0:0:0:
402,192,47859,1,0,0:0:0:0:
182,192,47942,1,0,0:0:0:0:
329,192,47942,1,0,0:0:0:0:
36,192,48025,128,0,48359:0:0:0:0:
475,192,48025,128,0,48359:0:0:0:0:
329,192,48359,1,0,0:0:0:0:
182,192,48359,1,0,0:0:0:0:
256,192,48525,1,0,0:0:0:0:
182,192,48692,128,0,49025:0:0:0:0:
329,192,48692,128,0,49025:0:0:0:0:
36,192,49025,1,0,0:0:0:0:
475,192,49025,1,0,0:0:0:0:
256,192,49192,1,0,0:0:0:0:
402,192,49359,1,0,0:0:0:0:
109,192,49359,1,0,0:0:0:0:
256,192,49525,1,0,0:0:0:0:
475,192,49525,1,0,0:0:0:0:
329,192,49692,1,0,0:0:0:0:
36,192,49692,128,0,50025:0:0:0:0:
256,192,49859,1,0,0:0:0:0:
475,192,50025,1,0,0:0:0:0:
182,192,50025,128,0,50359:0:0:0:0:
402,192,50025,1,0,0:0:0:0:
329,192,50192,1,0,0:0:0:0:
109,192,50192,1,0,0:0:0:0:
475,192,50359,128,0,50692:0:0:0:0:
36,192,50359,1,0,0:0:0:0:
402,192,50359,1,0,0:0:0:0:
256,192,50525,1,0,0:0:0:0:
36,192,50692,128,0,51025:0:0:0:0:
329,192,50692,128,0,51025:0:0:0:0:
182,192,50692,1,0,0:0:0:0:
109,192,51025,1,0,0:0:0:0:
256,192,51025,1,0,0:0:0:0:
402,192,51192,1,0,0:0:0:0:
182,192,51359,128,0,51692:0:0:0:0:
475,192,51359,128,0,51692:0:0:0:0:
329,192,51359,1,0,0:0:0:0:
256,192,51692,1,0,0:0:0:0:
402,192,51692,1,0,0:0:0:0:
36,192,51859,1,0,0:0:0:0:
182,192,52025,1,0,0:0:0:0:
475,192,52025,1,0,0:0:0:0:
256,192,52192,1,0,0:0:0:0:
402,192,52192,1,0,0:0:0:0:
329,192,52359,1,0,0:0:0:0:
36,192,52359,128,0,52692:0:0:0:0:
182,192,52525,1,0,0:0:0:0:
475,192,52692,1,0,0:0:0:0:
109,192,52692,1,0,0:0:0:0:
329,192,52859,1,0,0:0:0:0:
182,192,52859,1,0,0:0:0:0:
36,192,53025,1,0,0:0:0:0:
402,192,53025,128,0,53359:0:0:0:0:
256,192,53192,1,0,0:0:0:0:
109,192,53359,128,0,53692:0:0:0:0:
475,192,53359,128,0,53692:0:0:0:0:
182,192,53359,1,0,0:0:0:0:
256,192,53692,1,0,0:0:0:0:
182,192,53859,1,0,0:0:0:0:
402,192,54025,128,0,54359:0:0:0:0:
36,192,54025,128,0,54359:0:0:0:0:
329,192,54025,1,0,0:0:0:0:
182,192,54359,1,0,0:0:0:0:
329,192,54525,1,0,0:0:0:0:
109,192,54692,1,0,0:0:0:0:
475,192,54692,1,0,0:0:0:0:
402,192,54859,1,0,0:0:0:0:
182,192,54859,1,0,0:0:0:0:
109,192,55025,128,0,55359:0:0:0:0:
329,192,55025,1,0,0:0:0:0:
475,192,55359,1,0,0:0:0:0:
329,192,55359,1,0,0:0:0:0:
36,192,55525,1,0,0:0:0:0:
256,192,55525,1,0,0:0:0:0:
109,192,55692,1,0,0:0:0:0:
402,192,55692,128,0,56025:0:0:0:0:
256,192,55859,1,0,0:0:0:0:
36,192,56025,128,0,56359:0:0:0:0:
182,192,56025,128,0,56359:0:0:0:0:
475,192,56359,1,0,0:0:0:0:
256,192,56359,1,0,0:0:0:0:
402,192,56525,1,0,0:0:0:0:
109,192,56692,128,0,57025:0:0:0:0:
256,192,56692,128,0,57025:0:0:0:0:
329,192,57025,1,0,0:0:0:0:
475,192,57025,1,0,0:0:0:0:
182,192,57192,1,0,0:0:0:0:
36,192,57359,1,0,0:0:0:0:
329,192,57359,1,0,0:0:0:0:
182,192,57525,1,0,0:0:0:0:
402,192,57525,1,0,0:0:0:0:
329,192,57692,1,0,0:0:0:0:
475,192,57692,1,0,0:0:0:0:
36,192,57692,128,0,58692:0:0:0:0:
256,192,57859,1,0,0:0:0:0:
109,192,58025,128,0,58692:0:0:0:0:
475,192,58025,1,0,0:0:0:0:
402,192,58109,1,0,0:0:0:0:
329,192,58192,1,0,0:0:0:0:
256,192,58275,1,0,0:0:0:0:
182,192,58359,128,0,58692:0:0:0:0:
475,192,58359,1,0,0:0:0:0:
402,192,58442,1,0,0:0:0:0:
329,192,58525,1,0,0:0:0:0:
256,192,58609,1,0,0:0:0:0:
475,192,58692,128,0,59025:0:0:0:0:
402,192,58692,1,0,0:0:0:0:
329,192,58859,128,0,59025:0:0:0:0:
182,192,58859,128,0,59025:0:0:0:0:
36,192,59025,128,0,59359:0:0:0:0:
256,192,59192,128,0,59359:0:0:0:0:
402,192,59192,128,0,59359:0:0:0:0:
109,192,59359,1,0,0:0:0:0:
329,192,59442,1,0,0:0:0:0:
182,192,59525,1,0,0:0:0:0:
475,192,59525,1,0,0:0:0:0:
36,192,59692,1,0,0:0:0:0:
402,192,59692,1,0,0:0:0:0:
256,192,59692,128,0,60025:0:0:0:0:
182,192,59859,1,0,0:0:0:0:
329,192,59859,128,0,60025:0:0:0:0:
402,192,60025,128,0,60359:0:0:0:0:
36,192,60025,1,0,0:0:0:0:
109,192,60192,128,0,60359:0:0:0:0:
182,192,60192,128,0,60359:0:0:0:0:
329,192,60359,128,0,60692:0:0:0:0:
475,192,60525,128,0,60692:0:0:0:0:
36,192,60525,128,0,60692:0:0:0:0:
109,192,60692,1,0,0:0:0:0:
182,192,60775,1,0,0:0:0:0:
402,192,60859,1,0,0:0:0:0:
256,192,60859,1,0,0:0:0:0:
475,192,61025,1,0,0:0:0:0:
182,192,61025,128,0,61359:0:0:0:0:
36,192,61025,128,0,61359:0:0:0:0:
329,192,61192,1,0,0:0:0:0:
402,192,61359,128,0,61692:0:0:0:0:
329,192,61525,128,0,61692:0:0:0:0:
109,192,61525,128,0,61692:0:0:0:0:
182,192,61692,128,0,62025:0:0:0:0:
475,192,61859,128,0,62025:0:0:0:0:
256,192,61859,128,0,62025:0:0:0:0:
402,192,62025,1,0,0:0:0:0:
36,192,62109,1,0,0:0:0:0:
329,192,62192,1,0,0:0:0:0:
109,192,62192,1,0,0:0:0:0:
475,192,62359,1,0,0:0:0:0:
36,192,62359,1,0,0:0:0:0:
256,192,62359,128,0,62692:0:0:0:0:
402,192,62525,128,0,62692:0:0:0:0:
109,192,62692,128,0,63025:0:0:0:0:
182,192,62859,128,0,63025:0:0:0:0:
475,192,62859,128,0,63025:0:0:0:0:
329,192,63025,128,0,63359:0:0:0:0:
36,192,63192,128,0,63359:0:0:0:0:
402,192,63192,128,0,63359:0:0:0:0:
109,192,63359,1,0,0:0:0:0:
182,192,63442,1,0,0:0:0:0:
475,192,63525,1,0,0:0:0:0:
256,192,63525,1,0,0:0:0:0:
36,192,63692,1,0,0:0:0:0:
402,192,63692,128,0,64025:0:0:0:0:
182,192,63692,128,0,64025:0:0:0:0:
329,192,63859,1,0,0:0:0:0:
109,192,64025,128,0,64359:0:0:0:0:
256,192,64192,128,0,64359:0:0:0:0:
329,192,64192,128,0,64359:0:0:0:0:
475,192,64359,128,0,64692:0:0:0:0:
182,192,64525,128,0,64692:0:0:0:0:
402,192,64525,128,0,64692:0:0:0:0:
36,192,64692,1,0,0:0:0:0:
329,192,64775,1,0,0:0:0:0:
256,192,64859,1,0,0:0:0:0:
109,192,64859,1,0,0:0:0:0:
475,192,65025,1,0,0:0:0:0:
182,192,65025,1,0,0:0:0:0:
329,192,65025,128,0,65359:0:0:0:0:
36,192,65192,128,0,65359:0:0:0:0:
109,192,65359,128,0,65692:0:0:0:0:
402,192,65525,128,0,65692:0:0:0:0:
256,192,65525,128,0,65692:0:0:0:0:
475,192,65692,128,0,66025:0:0:0:0:
329,192,65859,128,0,66025:0:0:0:0:
182,192,65859,128,0,66025:0:0:0:0:
36,192,66025,1,0,0:0:0:0:
256,192,66109,1,0,0:0:0:0:
402,192,66192,1,0,0:0:0:0:
109,192,66192,1,0,0:0:0:0:
475,192,66359,1,0,0:0:0:0:
36,192,66359,128,0,66692:0:0:0:0:
329,192,66359,128,0,66692:0:0:0:0:
182,192,66525,1,0,0:0:0:0:
402,192,66692,128,0,67025:0:0:0:0:
109,192,66859,128,0,67025:0:0:0:0:
182,192,66859,128,0,67025:0:0:0:0:
329,192,67025,128,0,67359:0:0:0:0:
256,192,67192,128,0,67359:0:0:0:0:
36,192,67192,128,0,67359:0:0:0:0:
475,192,67359,1,0,0:0:0:0:
109,192,67442,1,0,0:0:0:0:
402,192,67525,1,0,0:0:0:0:
182,192,67525,1,0,0:0:0:0:
256,192,67692,1,0,0:0:0:0:
475,192,67692,1,0,0:0:0:0:
36,192,67692,128,0,68025:0:0:0:0:
182,192,67859,128,0,68025:0:0:0:0:
329,192,68025,128,0,68359:0:0:0:0:
402,192,68192,128,0,68359:0:0:0:0:
475,192,68192,128,0,68359:0:0:0:0:
182,192,68359,128,0,68692:0:0:0:0:
109,192,68525,128,0,68692:0:0:0:0:
36,192,68525,128,0,68692:0:0:0:0:
475,192,68692,1,0,0:0:0:0:
256,192,68692,128,0,69359:0:0:0:0:
402,192,68775,1,0,0:0:0:0:
329,192,68859,1,0,0:0:0:0:
36,192,68942,1,0,0:0:0:0:
109,192,69025,1,0,0:0:0:0:
475,192,69025,1,0,0:0:0:0:
402,192,69109,1,0,0:0:0:0:
329,192,69192,1,0,0:0:0:0:
182,192,69275,1,0,0:0:0:0:
475,192,69359,128,0,70692:0:0:0:0:
36,192,69359,128,0,70025:0:0:0:0:
109,192,69359,128,0,69692:0:0:0:0:
402,192,69359,1,0,0:0:0:0:
329,192,69692,1,0,0:0:0:0:
256,192,69859,1,0,0:0:0:0:
182,192,70025,128,0,70692:0:0:0:0:
402,192,70025,128,0,70359:0:0:0:0:
256,192,70359,1,0,0:0:0:0:
109,192,70525,1,0,0:0:0:0:
36,192,70692,128,0,72025:0:0:0:0:
329,192,70692,128,0,71359:0:0:0:0:
256,192,70692,128,0,70859:0:0:0:0:
402,192,70859,128,0,71025:0:0:0:0:
475,192,71025,128,0,71192:0:0:0:0:
182,192,71192,128,0,71359:0:0:0:0:
109,192,71359,128,0,72025:0:0:0:0:
256,192,71359,128,0,71692:0:0:0:0:
402,192,71359,1,0,0:0:0:0:
475,192,71525,1,0,0:0:0:0:
402,192,71692,1,0,0:0:0:0:
329,192,71859,1,0,0:0:0:0:
402,192,72025,128,0,73359:0:0:0:0:
475,192,72025,128,0,72692:0:0:0:0:
182,192,72025,128,0,72359:0:0:0:0:
36,192,72359,1,0,0:0:0:0:
109,192,72525,1,0,0:0:0:0:
256,192,72692,128,0,73359:0:0:0:0:
182,192,72692,128,0,73025:0:0:0:0:
329,192,73025,1,0,0:0:0:0:
475,192,73192,1,0,0:0:0:0:
109,192,73359,128,0,74692:0:0:0:0:
36,192,73359,128,0,74025:0:0:0:0:
329,192,73359,128,0,73525:0:0:0:0:
182,192,73525,128,0,73692:0:0:0:0:
402,192,73692,128,0,73859:0:0:0:0:
256,192,73859,128,0,74025:0:0:0:0:
475,192,74025,128,0,74692:0:0:0:0:
329,192,74025,128,0,74359:0:0:0:0:
182,192,74359,1,0,0:0:0:0:
36,192,74442,1,0,0:0:0:0:
402,192,74525,1,0,0:0:0:0:
256,192,74609,1,0,0:0:0:0:
329,192,74692,128,0,76025:0:0:0:0:
182,192,74692,128,0,75359:0:0:0:0:
36,192,74692,1,0,0:0:0:0:
36,192,74859,1,0,0:0:0:0:
109,192,75025,1,0,0:0:0:0:
256,192,75025,128,0,75359:0:0:0:0:
36,192,75359,128,0,76025:0:0:0:0:
475,192,75359,1,0,0:0:0:0:
475,192,75525,1,0,0:0:0:0:
256,192,75692,128,0,76025:0:0:0:0:
402,192,75692,1,0,0:0:0:0:
182,192,76025,128,0,77359:0:0:0:0:
402,192,76025,128,0,76692:0:0:0:0:
109,192,76025,128,0,76192:0:0:0:0:
475,192,76192,128,0,76359:0:0:0:0:
329,192,76359,128,0,76525:0:0:0:0:
36,192,76525,128,0,76692:0:0:0:0:
256,192,76692,128,0,77359:0:0:0:0:
109,192,76692,1,0,0:0:0:0:
109,192,76859,1,0,0:0:0:0:
475,192,77025,1,0,0:0:0:0:
329,192,77025,128,0,77359:0:0:0:0:
475,192,77359,128,0,78692:0:0:0:0:
402,192,77359,128,0,78025:0:0:0:0:
36,192,77359,1,0,0:0:0:0:
36,192,77525,1,0,0:0:0:0:
182,192,77692,1,0,0:0:0:0:
329,192,77692,128,0,78025:0:0:0:0:
109,192,78025,128,0,78692:0:0:0:0:
256,192,78025,1,0,0:0:0:0:
256,192,78192,1,0,0:0:0:0:
36,192,78359,1,0,0:0:0:0:
182,192,78359,128,0,78692:0:0:0:0:
36,192,78692,128,0,80025:0:0:0:0:
329,192,78692,128,0,79359:0:0:0:0:
402,192,78692,128,0,78859:0:0:0:0:
256,192,78859,128,0,79025:0:0:0:0:
475,192,79025,128,0,79192:0:0:0:0:
109,192,79192,128,0,79359:0:0:0:0:
182,192,79359,128,0,80025:0:0:0:0:
475,192,79359,1,0,0:0:0:0:
402,192,79442,1,0,0:0:0:0:
329,192,79525,1,0,0:0:0:0:
256,192,79609,1,0,0:0:0:0:
109,192,79692,1,0,0:0:0:0:
475,192,79692,1,0,0:0:0:0:
402,192,79775,1,0,0:0:0:0:
329,192,79859,1,0,0:0:0:0:
256,192,79942,1,0,0:0:0:0:
475,192,80025,1,0,0:0:0:0:
109,192,80025,1,0,0:0:0:0:
329,192,80025,1,0,0:0:0:0:
329,192,80525,1,0,0:0:0:0:
475,192,80692,1,0,0:0:0:0:
36,192,80692,1,0,0:0:0:0:
182,192,80692,1,0,0:0:0:0:
182,192,81192,1,0,0:0:0:0:
36,192,81359,1,0,0:0:0:0:
475,192,81359,128,0,81692:0:0:0:0:
329,192,81359,1,0,0:0:0:0:
109,192,81692,128,0,81859:0:0:0:0:
329,192,81859,128,0,82192:0:0:0:0:
182,192,82192,1,0,0:0:0:0:
36,192,82359,1,0,0:0:0:0:
402,192,82359,1,0,0:0:0:0:
256,192,82525,1,0,0:0:0:0:
475,192,82692,1,0,0:0:0:0:
329,192,82692,1,0,0:0:0:0:
109,192,82692,1,0,0:0:0:0:
256,192,83192,1,0,0:0:0:0:
36,192,83359,1,0,0:0:0:0:
182,192,83359,1,0,0:0:0:0:
402,192,83359,1,0,0:0:0:0:
475,192,83859,1,0,0:0:0:0:
36,192,84025,1,0,0:0:0:0:
402,192,84025,1,0,0:0:0:0:
182,192,84025,128,0,84359:0:0:0:0:
256,192,84192,1,0,0:0:0:0:
329,192,84359,128,0,84525:0:0:0:0:
36,192,84525,128,0,84859:0:0:0:0:
475,192,84692,1,0,0:0:0:0:
109,192,84859,1,0,0:0:0:0:
329,192,84859,1,0,0:0:0:0:
256,192,85025,1,0,0:0:0:0:
475,192,85025,1,0,0:0:0:0:
36,192,85359,1,0,0:0:0:0:
475,192,85359,128,0,85692:0:0:0:0:
329,192,85359,1,0,0:0:0:0:
109,192,85525,1,0,0:0:0:0:
402,192,85692,1,0,0:0:0:0:
182,192,85692,1,0,0:0:0:0:
329,192,85859,128,0,86025:0:0:0:0:
256,192,86025,1,0,0:0:0:0:
36,192,86025,128,0,86359:0:0:0:0:
402,192,86192,1,0,0:0:0:0:
182,192,86192,1,0,0:0:0:0:
109,192,86359,1,0,0:0:0:0:
475,192,86359,1,0,0:0:0:0:
329,192,86525,1,0,0:0:0:0:
36,192,86692,1,0,0:0:0:0:
182,192,86692,1,0,0:0:0:0:
402,192,86692,128,0,87025:0:0:0:0:
256,192,86859,1,0,0:0:0:0:
109,192,87025,1,0,0:0:0:0:
475,192,87025,128,0,87192:0:0:0:0:
329,192,87192,128,0,87525:0:0:0:0:
182,192,87192,1,0,0:0:0:0:
36,192,87359,1,0,0:0:0:0:
256,192,87359,1,0,0:0:0:0:
182,192,87525,1,0,0:0:0:0:
475,192,87692,128,0,88025:0:0:0:0:
402,192,87692,1,0,0:0:0:0:
109,192,87692,1,0,0:0:0:0:
329,192,87859,1,0,0:0:0:0:
36,192,88025,128,0,88359:0:0:0:0:
182,192,88025,1,0,0:0:0:0:
402,192,88192,1,0,0:0:0:0:
256,192,88359,1,0,0:0:0:0:
329,192,88525,128,0,88692:0:0:0:0:
109,192,88525,1,0,0:0:0:0:
36,192,88692,128,0,89025:0:0:0:0:
475,192,88692,1,0,0:0:0:0:
182,192,88859,1,0,0:0:0:0:
475,192,89025,1,0,0:0:0:0:
256,192,89025,1,0,0:0:0:0:
402,192,89192,1,0,0:0:0:0:
36,192,89359,1,0,0:0:0:0:
182,192,89359,1,0,0:0:0:0:
475,192,89359,1,0,0:0:0:0:
109,192,89525,1,0,0:0:0:0:
256,192,89525,1,0,0:0:0:0:
402,192,89525,1,0,0:0:0:0:
475,192,89692,1,0,0:0:0:0:
329,192,89692,1,0,0:0:0:0:
182,192,89692,1,0,0:0:0:0:
402,192,89859,1,0,0:0:0:0:
256,192,89859,1,0,0:0:0:0:
36,192,89859,128,0,90692:0:0:0:0:
329,192,90025,1,0,0:0:0:0:
109,192,90192,128,0,90692:0:0:0:0:
475,192,90192,1,0,0:0:0:0:
256,192,90192,1,0,0:0:0:0:
182,192,90359,128,0,90692:0:0:0:0:
329,192,90359,1,0,0:0:0:0:
402,192,90359,1,0,0:0:0:0:
475,192,90525,1,0,0:0:0:0:
329,192,90692,128,0,92025:0:0:0:0:
256,192,90692,1,0,0:0:0:0:
402,192,90692,1,0,0:0:0:0:
402,192,91025,128,0,91359:0:0:0:0:
36,192,91359,1,0,0:0:0:0:
36,192,91525,1,0,0:0:0:0:
182,192,91692,128,0,92025:0:0:0:0:
475,192,91692,1,0,0:0:0:0:
256,192,92025,128,0,93359:0:0:0:0:
475,192,92025,128,0,92192:0:0:0:0:
36,192,92192,1,0,0:0:0:0:
109,192,92359,128,0,92692:0:0:0:0:
329,192,92359,1,0,0:0:0:0:
402,192,92692,1,0,0:0:0:0:
402,192,92859,1,0,0:0:0:0:
475,192,93025,1,0,0:0:0:0:
329,192,93025,128,0,93359:0:0:0:0:
182,192,93359,128,0,94692:0:0:0:0:
402,192,93359,128,0,93692:0:0:0:0:
475,192,93692,1,0,0:0:0:0:
109,192,93692,1,0,0:0:0:0:
36,192,94025,1,0,0:0:0:0:
36,192,94192,1,0,0:0:0:0:
256,192,94359,1,0,0:0:0:0:
402,192,94359,1,0,0:0:0:0:
475,192,94525,1,0,0:0:0:0:
36,192,94525,1,0,0:0:0:0:
402,192,94692,128,0,96025:0:0:0:0:
329,192,94692,1,0,0:0:0:0:
182,192,94859,1,0,0:0:0:0:
329,192,95025,1,0,0:0:0:0:
109,192,95025,1,0,0:0:0:0:
36,192,95192,1,0,0:0:0:0:
182,192,95275,1,0,0:0:0:0:
329,192,95359,1,0,0:0:0:0:
182,192,95525,1,0,0:0:0:0:
475,192,95525,1,0,0:0:0:0:
329,192,95692,1,0,0:0:0:0:
109,192,95692,1,0,0:0:0:0:
36,192,95859,1,0,0:0:0:0:
109,192,95942,1,0,0:0:0:0:
182,192,96025,128,0,97359:0:0:0:0:
256,192,96025,128,0,96359:0:0:0:0:
36,192,96359,128,0,96692:0:0:0:0:
109,192,96692,1,0,0:0:0:0:
109,192,96859,1,0,0:0:0:0:
256,192,97025,128,0,97359:0:0:0:0:
402,192,97025,1,0,0:0:0:0:
329,192,97192,1,0,0:0:0:0:
475,192,97359,128,0,98692:0:0:0:0:
109,192,97359,128,0,98025:0:0:0:0:
402,192,98025,1,0,0:0:0:0:
329,192,98025,128,0,98692:0:0:0:0:
402,192,98192,1,0,0:0:0:0:
182,192,98359,1,0,0:0:0:0:
36,192,98359,1,0,0:0:0:0:
36,192,98692,128,0,99859:0:0:0:0:
182,192,98692,128,0,99359:0:0:0:0:
329,192,99025,128,0,99359:0:0:0:0:
475,192,99359,128,0,99859:0:0:0:0:
256,192,99359,1,0,0:0:0:0:
256,192,99525,1,0,0:0:0:0:
182,192,99692,1,0,0:0:0:0:
329,192,99692,1,0,0:0:0:0:
402,192,99859,1,0,0:0:0:0:
109,192,99859,1,0,0:0:0:0:
182,192,99859,128,0,101359:0:0:0:0:
329,192,99859,128,0,101359:0:0:0:0:
256,192,100192,1,0,0:0:0:0:
109,192,100359,1,0,0:0:0:0:
402,192,100359,1,0,0:0:0:0:
36,192,100692,1,0,0:0:0:0:
36,192,100859,1,0,0:0:0:0:
475,192,101025,1,0,0:0:0:0:
256,192,101025,1,0,0:0:0:0:
36,192,101192,1,0,0:0:0:0:
109,192,101275,1,0,0:0:0:0:
475,192,101359,128,0,102692:0:0:0:0:
256,192,101359,1,0,0:0:0:0:
402,192,101359,128,0,101692:0:0:0:0:
182,192,101692,128,0,102359:0:0:0:0:
329,192,102025,1,0,0:0:0:0:
329,192,102192,1,0,0:0:0:0:
36,192,102359,128,0,102692:0:0:0:0:
109,192,102359,1,0,0:0:0:0:
402,192,102525,1,0,0:0:0:0:
329,192,102692,128,0,104025:0:0:0:0:
256,192,102692,128,0,103359:0:0:0:0:
109,192,103025,1,0,0:0:0:0:
182,192,103359,128,0,104025:0:0:0:0:
402,192,103359,1,0,0:0:0:0:
402,192,103525,1,0,0:0:0:0:
475,192,103692,1,0,0:0:0:0:
109,192,103692,1,0,0:0:0:0:
256,192,104025,128,0,105359:0:0:0:0:
36,192,104025,128,0,105359:0:0:0:0:
109,192,104025,128,0,104359:0:0:0:0:
182,192,104359,1,0,0:0:0:0:
182,192,104692,1,0,0:0:0:0:
182,192,104859,1,0,0:0:0:0:
402,192,105025,1,0,0:0:0:0:
109,192,105025,1,0,0:0:0:0:
475,192,105192,1,0,0:0:0:0:
182,192,105192,1,0,0:0:0:0:
402,192,105359,128,0,106692:0:0:0:0:
109,192,105359,128,0,106025:0:0:0:0:
182,192,105525,1,0,0:0:0:0:
329,192,105692,1,0,0:0:0:0:
182,192,105859,1,0,0:0:0:0:
256,192,106025,128,0,106692:0:0:0:0:
475,192,106025,1,0,0:0:0:0:
36,192,106192,1,0,0:0:0:0:
475,192,106359,1,0,0:0:0:0:
109,192,106359,1,0,0:0:0:0:
36,192,106525,1,0,0:0:0:0:
182,192,106609,1,0,0:0:0:0:
109,192,106692,128,0,108025:0:0:0:0:
475,192,106692,128,0,107025:0:0:0:0:
402,192,107025,128,0,107359:0:0:0:0:
36,192,107025,1,0,0:0:0:0:
256,192,107359,128,0,107692:0:0:0:0:
182,192,107359,1,0,0:0:0:0:
402,192,107692,128,0,108025:0:0:0:0:
36,192,107692,1,0,0:0:0:0:
182,192,108025,128,0,109359:0:0:0:0:
256,192,108025,128,0,108359:0:0:0:0:
329,192,108359,128,0,108692:0:0:0:0:
475,192,108359,1,0,0:0:0:0:
109,192,108692,128,0,109025:0:0:0:0:
402,192,108692,1,0,0:0:0:0:
329,192,109025,128,0,109359:0:0:0:0:
475,192,109025,1,0,0:0:0:0:
36,192,109025,1,0,0:0:0:0:
256,192,109359,128,0,112025:0:0:0:0:
109,192,109359,128,0,111359:0:0:0:0:
402,192,109359,128,0,111359:0:0:0:0:
475,192,109359,1,0,0:0:0:0:
36,192,109359,1,0,0:0:0:0:
475,192,109525,1,0,0:0:0:0:
36,192,109525,1,0,0:0:0:0:
329,192,109692,1,0,0:0:0:0:
182,192,109692,1,0,0:0:0:0:
329,192,110025,1,0,0:0:0:0:
182,192,110025,1,0,0:0:0:0:
329,192,110192,1,0,0:0:0:0:
182,192,110192,1,0,0:0:0:0:
36,192,110359,1,0,0:0:0:0:
475,192,110359,1,0,0:0:0:0:
329,192,110692,1,0,0:0:0:0:
182,192,110692,1,0,0:0:0:0:
475,192,110859,1,0,0:0:0:0:
36,192,110859,1,0,0:0:0:0:
182,192,111025,1,0,0:0:0:0:
329,192,111025,1,0,0:0:0:0:
36,192,111192,1,0,0:0:0:0:
475,192,111192,1,0,0:0:0:0:
329,192,111359,1,0,0:0:0:0:
182,192,111359,1,0,0:0:0:0:
475,192,111525,1,0,0:0:0:0:
36,192,111525,1,0,0:0:0:0:
402,192,111609,1,0,0:0:0:0:
109,192,111609,1,0,0:0:0:0:
329,192,111692,1,0,0:0:0:0:
182,192,111692,1,0,0:0:0:0:
36,192,111775,1,0,0:0:0:0:
475,192,111775,1,0,0:0:0:0:
109,192,111859,1,0,0:0:0:0:
402,192,111859,1,0,0:0:0:0:
182,192,111942,1,0,0:0:0:0:
329,192,111942,1,0,0:0:0:0:
475,192,112025,128,0,112359:0:0:0:0:
36,192,112025,128,0,112359:0:0:0:0:
329,192,112359,1,0,0:0:0:0:
182,192,112359,1,0,0:0:0:0:
256,192,112525,1,0,0:0:0:0:
329,192,112692,128,0,113025:0:0:0:0:
182,192,112692,128,0,113025:0:0:0:0:
36,192,113025,1,0,0:0:0:0:
475,192,113025,1,0,0:0:0:0:
256,192,113192,1,0,0:0:0:0:
36,192,113359,1,0,0:0:0:0:
329,192,113359,1,0,0:0:0:0:
109,192,113525,1,0,0:0:0:0:
402,192,113525,1,0,0:0:0:0:
256,192,113692,1,0,0:0:0:0:
475,192,113859,128,0,114025:0:0:0:0:
182,192,113859,1,0,0:0:0:0:
329,192,114025,1,0,0:0:0:0:
36,192,114025,128,0,114359:0:0:0:0:
109,192,114025,1,0,0:0:0:0:
182,192,114192,1,0,0:0:0:0:
402,192,114192,1,0,0:0:0:0:
475,192,114359,1,0,0:0:0:0:
256,192,114359,128,0,114692:0:0:0:0:
475,192,114692,128,0,115025:0:0:0:0:
402,192,114692,128,0,115025:0:0:0:0:
36,192,114692,1,0,0:0:0:0:
182,192,114859,1,0,0:0:0:0:
256,192,115025,1,0,0:0:0:0:
109,192,115025,1,0,0:0:0:0:
329,192,115192,1,0,0:0:0:0:
36,192,115359,128,0,115692:0:0:0:0:
109,192,115359,128,0,115692:0:0:0:0:
475,192,115359,1,0,0:0:0:0:
329,192,115525,1,0,0:0:0:0:
256,192,115692,1,0,0:0:0:0:
402,192,115692,1,0,0:0:0:0:
475,192,115859,1,0,0:0:0:0:
109,192,116025,1,0,0:0:0:0:
402,192,116025,1,0,0:0:0:0:
182,192,116192,1,0,0:0:0:0:
329,192,116192,1,0,0:0:0:0:
475,192,116359,1,0,0:0:0:0:
256,192,116359,1,0,0:0:0:0:
36,192,116525,128,0,116692:0:0:0:0:
329,192,116525,1,0,0:0:0:0:
256,192,116692,1,0,0:0:0:0:
475,192,116692,1,0,0:0:0:0:
329,192,116859,1,0,0:0:0:0:
109,192,116859,1,0,0:0:0:0:
256,192,117025,128,0,117359:0:0:0:0:
36,192,117025,1,0,0:0:0:0:
402,192,117192,1,0,0:0:0:0:
182,192,117359,128,0,117692:0:0:0:0:
36,192,117359,128,0,117692:0:0:0:0:
475,192,117359,1,0,0:0:0:0:
329,192,117525,1,0,0:0:0:0:
256,192,117692,1,0,0:0:0:0:
402,192,117692,1,0,0:0:0:0:
109,192,117859,1,0,0:0:0:0:
475,192,118025,128,0,118359:0:0:0:0:
329,192,118025,128,0,118359:0:0:0:0:
182,192,118025,1,0,0:0:0:0:
36,192,118192,1,0,0:0:0:0:
256,192,118359,1,0,0:0:0:0:
109,192,118359,1,0,0:0:0:0:
402,192,118525,1,0,0:0:0:0:
36,192,118692,1,0,0:0:0:0:
329,192,118692,1,0,0:0:0:0:
182,192,118859,1,0,0:0:0:0:
402,192,118859,1,0,0:0:0:0:
109,192,119025,1,0,0:0:0:0:
475,192,119025,128,0,119359:0:0:0:0:
256,192,119192,1,0,0:0:0:0:
36,192,119359,1,0,0:0:0:0:
402,192,119359,1,0,0:0:0:0:
329,192,119525,1,0,0:0:0:0:
109,192,119525,1,0,0:0:0:0:
182,192,119692,1,0,0:0:0:0:
256,192,119692,128,0,120025:0:0:0:0:
36,192,120025,128,0,120359:0:0:0:0:
109,192,120025,128,0,120359:0:0:0:0:
475,192,120025,1,0,0:0:0:0:
329,192,120192,1,0,0:0:0:0:
182,192,120359,1,0,0:0:0:0:
475,192,120359,1,0,0:0:0:0:
256,192,120525,1,0,0:0:0:0:
475,192,120692,128,0,121025:0:0:0:0:
402,192,120692,128,0,121025:0:0:0:0:
36,192,120692,1,0,0:0:0:0:
182,192,120859,1,0,0:0:0:0:
329,192,121025,1,0,0:0:0:0:
36,192,121025,1,0,0:0:0:0:
256,192,121192,1,0,0:0:0:0:
475,192,121359,128,0,122692:0:0:0:0:
329,192,121359,1,0,0:0:0:0:
109,192,121359,1,0,0:0:0:0:
256,192,121525,1,0,0:0:0:0:
36,192,121525,1,0,0:0:0:0:
402,192,121692,128,0,122692:0:0:0:0:
182,192,121692,1,0,0:0:0:0:
329,192,121692,1,0,0:0:0:0:
109,192,121859,1,0,0:0:0:0:
36,192,122025,1,0,0:0:0:0:
329,192,122025,128,0,122692:0:0:0:0:
109,192,122109,1,0,0:0:0:0:
182,192,122192,1,0,0:0:0:0:
256,192,122275,1,0,0:0:0:0:
36,192,122359,1,0,0:0:0:0:
109,192,122442,1,0,0:0:0:0:
182,192,122525,1,0,0:0:0:0:
256,192,122609,1,0,0:0:0:0:
36,192,122692,128,0,123025:0:0:0:0:
182,192,122692,1,0,0:0:0:0:
256,192,122859,128,0,123025:0:0:0:0:
109,192,122859,128,0,123025:0:0:0:0:
475,192,123025,128,0,123359:0:0:0:0:
329,192,123192,128,0,123359:0:0:0:0:
182,192,123192,128,0,123359:0:0:0:0:
36,192,123359,1,0,0:0:0:0:
109,192,123442,1,0,0:0:0:0:
182,192,123525,128,0,123692:0:0:0:0:
402,192,123525,1,0,0:0:0:0:
402,192,123692,128,0,123859:0:0:0:0:
109,192,123692,128,0,123859:0:0:0:0:
329,192,123859,128,0,124025:0:0:0:0:
475,192,124025,128,0,124359:0:0:0:0:
36,192,124025,1,0,0:0:0:0:
256,192,124025,1,0,0:0:0:0:
402,192,124192,128,0,124359:0:0:0:0:
182,192,124192,128,0,124359:0:0:0:0:
36,192,124359,128,0,124692:0:0:0:0:
329,192,124525,128,0,124692:0:0:0:0:
256,192,124525,128,0,124692:0:0:0:0:
475,192,124692,1,0,0:0:0:0:
402,192,124775,1,0,0:0:0:0:
329,192,124859,1,0,0:0:0:0:
182,192,124859,128,0,125025:0:0:0:0:
109,192,125025,128,0,125192:0:0:0:0:
402,192,125025,128,0,125192:0:0:0:0:
329,192,125192,128,0,125359:0:0:0:0:
36,192,125359,128,0,125692:0:0:0:0:
475,192,125359,1,0,0:0:0:0:
402,192,125359,1,0,0:0:0:0:
182,192,125525,128,0,125692:0:0:0:0:
256,192,125525,128,0,125692:0:0:0:0:
475,192,125692,128,0,126025:0:0:0:0:
329,192,125859,128,0,126025:0:0:0:0:
109,192,125859,128,0,126025:0:0:0:0:
256,192,126025,1,0,0:0:0:0:
182,192,126109,1,0,0:0:0:0:
36,192,126192,1,0,0:0:0:0:
402,192,126192,128,0,126359:0:0:0:0:
182,192,126359,128,0,126525:0:0:0:0:
329,192,126359,128,0,126525:0:0:0:0:
109,192,126525,128,0,126692:0:0:0:0:
402,192,126692,128,0,127025:0:0:0:0:
475,192,126692,1,0,0:0:0:0:
256,192,126692,1,0,0:0:0:0:
36,192,126859,128,0,127025:0:0:0:0:
109,192,126859,128,0,127025:0:0:0:0:
182,192,127025,128,0,127359:0:0:0:0:
329,192,127192,128,0,127359:0:0:0:0:
475,192,127192,128,0,127359:0:0:0:0:
36,192,127359,1,0,0:0:0:0:
109,192,127442,1,0,0:0:0:0:
182,192,127525,1,0,0:0:0:0:
402,192,127525,128,0,127692:0:0:0:0:
36,192,127692,128,0,127859:0:0:0:0:
256,192,127692,128,0,127859:0:0:0:0:
182,192,127859,128,0,128025:0:0:0:0:
475,192,128025,128,0,128359:0:0:0:0:
109,192,128025,1,0,0:0:0:0:
329,192,128025,1,0,0:0:0:0:
402,192,128192,128,0,128359:0:0:0:0:
256,192,128192,128,0,128359:0:0:0:0:
109,192,128359,128,0,128692:0:0:0:0:
182,192,128525,128,0,128692:0:0:0:0:
329,192,128525,128,0,128692:0:0:0:0:
475,192,128692,1,0,0:0:0:0:
402,192,128775,1,0,0:0:0:0:
256,192,128859,1,0,0:0:0:0:
36,192,128859,128,0,129025:0:0:0:0:
109,192,129025,128,0,129192:0:0:0:0:
402,192,129025,128,0,129192:0:0:0:0:
475,192,129192,128,0,129359:0:0:0:0:
182,192,129359,128,0,129692:0:0:0:0:
256,192,129359,1,0,0:0:0:0:
36,192,129359,1,0,0:0:0:0:
329,192,129525,128,0,129692:0:0:0:0:
402,192,129525,128,0,129692:0:0:0:0:
36,192,129692,128,0,130025:0:0:0:0:
109,192,129859,128,0,130025:0:0:0:0:
256,192,129859,128,0,130025:0:0:0:0:
475,192,130025,1,0,0:0:0:0:
402,192,130109,1,0,0:0:0:0:
329,192,130192,1,0,0:0:0:0:
182,192,130192,128,0,130359:0:0:0:0:
475,192,130359,128,0,130525:0:0:0:0:
36,192,130359,128,0,130525:0:0:0:0:
329,192,130525,128,0,130692:0:0:0:0:
109,192,130692,128,0,131025:0:0:0:0:
182,192,130859,128,0,131025:0:0:0:0:
475,192,130859,128,0,131025:0:0:0:0:
402,192,131025,128,0,131359:0:0:0:0:
329,192,131192,128,0,131359:0:0:0:0:
36,192,131192,128,0,131359:0:0:0:0:
109,192,131359,1,0,0:0:0:0:
182,192,131442,1,0,0:0:0:0:
256,192,131525,128,0,131692:0:0:0:0:
475,192,131525,1,0,0:0:0:0:
402,192,131692,128,0,131859:0:0:0:0:
109,192,131692,128,0,131859:0:0:0:0:
256,192,131859,128,0,132025:0:0:0:0:
475,192,132025,128,0,132359:0:0:0:0:
36,192,132025,1,0,0:0:0:0:
109,192,132025,1,0,0:0:0:0:
182,192,132192,128,0,132359:0:0:0:0:
329,192,132192,128,0,132359:0:0:0:0:
36,192,132359,128,0,132692:0:0:0:0:
109,192,132525,128,0,132692:0:0:0:0:
402,192,132525,128,0,132692:0:0:0:0:
256,192,132692,128,0,133359:0:0:0:0:
475,192,132692,1,0,0:0:0:0:
329,192,132775,1,0,0:0:0:0:
182,192,132859,1,0,0:0:0:0:
36,192,132942,1,0,0:0:0:0:
475,192,133025,1,0,0:0:0:0:
329,192,133109,1,0,0:0:0:0:
182,192,133192,1,0,0:0:0:0:
36,192,133275,1,0,0:0:0:0:
475,192,133359,128,0,134692:0:0:0:0:
402,192,133359,128,0,134025:0:0:0:0:
329,192,133359,128,0,133692:0:0:0:0:
109,192,133692,128,0,134025:0:0:0:0:
182,192,133692,1,0,0:0:0:0:
256,192,134025,128,0,134692:0:0:0:0:
36,192,134025,128,0,134359:0:0:0:0:
182,192,134359,128,0,134692:0:0:0:0:
329,192,134359,1,0,0:0:0:0:
329,192,134692,128,0,136025:0:0:0:0:
109,192,134692,128,0,135359:0:0:0:0:
402,192,134692,128,0,134859:0:0:0:0:
36,192,134859,128,0,135025:0:0:0:0:
182,192,135025,128,0,135192:0:0:0:0:
475,192,135025,1,0,0:0:0:0:
256,192,135192,128,0,135359:0:0:0:0:
402,192,135359,128,0,136025:0:0:0:0:
475,192,135359,128,0,135692:0:0:0:0:
36,192,135359,1,0,0:0:0:0:
36,192,135525,1,0,0:0:0:0:
109,192,135692,128,0,136025:0:0:0:0:
182,192,135692,1,0,0:0:0:0:
36,192,136025,128,0,137359:0:0:0:0:
256,192,136025,128,0,136692:0:0:0:0:
475,192,136025,128,0,136359:0:0:0:0:
329,192,136359,128,0,136692:0:0:0:0:
182,192,136359,1,0,0:0:0:0:
109,192,136692,128,0,137359:0:0:0:0:
402,192,136692,128,0,137025:0:0:0:0:
256,192,137025,128,0,137359:0:0:0:0:
182,192,137025,1,0,0:0:0:0:
182,192,137359,128,0,138692:0:0:0:0:
475,192,137359,128,0,138025:0:0:0:0:
402,192,137359,128,0,137525:0:0:0:0:
329,192,137525,128,0,137692:0:0:0:0:
36,192,137692,128,0,137859:0:0:0:0:
109,192,137859,128,0,138025:0:0:0:0:
329,192,138025,128,0,138692:0:0:0:0:
256,192,138025,128,0,138359:0:0:0:0:
402,192,138025,1,0,0:0:0:0:
402,192,138192,1,0,0:0:0:0:
109,192,138359,128,0,138692:0:0:0:0:
475,192,138359,1,0,0:0:0:0:
402,192,138692,128,0,140025:0:0:0:0:
36,192,138692,128,0,139359:0:0:0:0:
256,192,138692,128,0,139025:0:0:0:0:
475,192,139025,128,0,139359:0:0:0:0:
109,192,139025,1,0,0:0:0:0:
182,192,139359,128,0,140025:0:0:0:0:
329,192,139359,128,0,139692:0:0:0:0:
109,192,139359,1,0,0:0:0:0:
109,192,139525,1,0,0:0:0:0:
256,192,139692,128,0,140025:0:0:0:0:
36,192,139692,1,0,0:0:0:0:
109,192,140025,128,0,141359:0:0:0:0:
329,192,140025,128,0,140692:0:0:0:0:
475,192,140025,128,0,140192:0:0:0:0:
36,192,140192,128,0,140359:0:0:0:0:
402,192,140359,128,0,140525:0:0:0:0:
182,192,140525,128,0,140692:0:0:0:0:
475,192,140692,128,0,141359:0:0:0:0:
256,192,140692,128,0,141025:0:0:0:0:
36,192,140692,1,0,0:0:0:0:
36,192,140859,1,0,0:0:0:0:
402,192,141025,128,0,141359:0:0:0:0:
182,192,141025,1,0,0:0:0:0:
256,192,141359,128,0,142692:0:0:0:0:
329,192,141359,1,0,0:0:0:0:
182,192,141359,1,0,0:0:0:0:
36,192,141359,128,0,141692:0:0:0:0:
329,192,141525,1,0,0:0:0:0:
182,192,141525,1,0,0:0:0:0:
182,192,141692,128,0,142025:0:0:0:0:
329,192,141692,128,0,142025:0:0:0:0:
475,192,141692,128,0,142025:0:0:0:0:
402,192,142025,1,0,0:0:0:0:
109,192,142025,1,0,0:0:0:0:
36,192,142025,128,0,142359:0:0:0:0:
402,192,142192,1,0,0:0:0:0:
109,192,142192,1,0,0:0:0:0:
109,192,142359,128,0,142692:0:0:0:0:
402,192,142359,128,0,142692:0:0:0:0:
329,192,142359,128,0,142692:0:0:0:0:
475,192,142692,128,0,144025:0:0:0:0:
36,192,142692,128,0,144025:0:0:0:0:
182,192,142692,1,0,0:0:0:0:
329,192,142859,1,0,0:0:0:0:
109,192,143025,1,0,0:0:0:0:
256,192,143025,1,0,0:0:0:0:
402,192,143192,1,0,0:0:0:0:
109,192,143359,1,0,0:0:0:0:
256,192,143359,1,0,0:0:0:0:
182,192,143442,1,0,0:0:0:0:
402,192,143525,1,0,0:0:0:0:
329,192,143609,1,0,0:0:0:0:
256,192,143692,1,0,0:0:0:0:
109,192,143775,1,0,0:0:0:0:
182,192,143859,1,0,0:0:0:0:
256,192,143942,1,0,0:0:0:0:
402,192,144025,128,0,144359:0:0:0:0:
109,192,144025,1,0,0:0:0:0:
329,192,144192,128,0,144359:0:0:0:0:
256,192,144275,128,0,144359:0:0:0:0:
36,192,144359,128,0,144692:0:0:0:0:
475,192,144359,1,0,0:0:0:0:
109,192,144525,128,0,144692:0:0:0:0:
182,192,144609,128,0,144692:0:0:0:0:
475,192,144692,1,0,0:0:0:0:
402,192,144775,1,0,0:0:0:0:
329,192,144859,1,0,0:0:0:0:
182,192,144859,1,0,0:0:0:0:
475,192,145025,1,0,0:0:0:0:
36,192,145025,1,0,0:0:0:0:
256,192,145025,1,0,0:0:0:0:
329,192,145192,1,0,0:0:0:0:
182,192,145192,1,0,0:0:0:0:
36,192,145359,128,0,145692:0:0:0:0:
256,192,145359,1,0,0:0:0:0:
109,192,145525,128,0,145692:0:0:0:0:
182,192,145609,128,0,145692:0:0:0:0:
402,192,145692,128,0,146025:0:0:0:0:
475,192,145692,1,0,0:0:0:0:
329,192,145859,128,0,146025:0:0:0:0:
256,192,145942,128,0,146025:0:0:0:0:
36,192,146025,1,0,0:0:0:0:
109,192,146109,1,0,0:0:0:0:
182,192,146192,1,0,0:0:0:0:
329,192,146192,1,0,0:0:0:0:
475,192,146359,1,0,0:0:0:0:
36,192,146359,1,0,0:0:0:0:
256,192,146359,128,0,146692:0:0:0:0:
475,192,146525,1,0,0:0:0:0:
36,192,146525,1,0,0:0:0:0:
402,192,146609,1,0,0:0:0:0:
109,192,146609,1,0,0:0:0:0:
329,192,146692,1,0,0:0:0:0:
182,192,146692,1,0,0:0:0:0:
475,192,146692,128,0,147025:0:0:0:0:
402,192,146859,128,0,147025:0:0:0:0:
329,192,146942,128,0,147025:0:0:0:0:
109,192,147025,128,0,147359:0:0:0:0:
36,192,147025,1,0,0:0:0:0:
182,192,147192,128,0,147359:0:0:0:0:
256,192,147275,128,0,147359:0:0:0:0:
475,192,147359,1,0,0:0:0:0:
402,192,147442,1,0,0:0:0:0:
329,192,147525,1,0,0:0:0:0:
182,192,147525,1,0,0:0:0:0:
475,192,147692,1,0,0:0:0:0:
36,192,147692,1,0,0:0:0:0:
256,192,147692,1,0,0:0:0:0:
109,192,147859,128,0,148025:0:0:0:0:
402,192,147859,128,0,148025:0:0:0:0:
475,192,148025,128,0,148359:0:0:0:0:
256,192,148025,1,0,0:0:0:0:
329,192,148192,128,0,148359:0:0:0:0:
182,192,148275,128,0,148359:0:0:0:0:
36,192,148359,128,0,148692:0:0:0:0:
182,192,148525,128,0,148692:0:0:0:0:
329,192,148609,128,0,148692:0:0:0:0:
475,192,148692,1,0,0:0:0:0:
402,192,148775,1,0,0:0:0:0:
329,192,148859,1,0,0:0:0:0:
36,192,148942,1,0,0:0:0:0:
109,192,149025,1,0,0:0:0:0:
256,192,149025,1,0,0:0:0:0:
182,192,149109,1,0,0:0:0:0:
329,192,149192,1,0,0:0:0:0:
256,192,149192,1,0,0:0:0:0:
402,192,149275,1,0,0:0:0:0:
475,192,149359,128,0,150692:0:0:0:0:
36,192,149359,128,0,149692:0:0:0:0:
256,192,149359,1,0,0:0:0:0:
329,192,149525,128,0,149692:0:0:0:0:
182,192,149609,128,0,149692:0:0:0:0:
402,192,149692,128,0,150025:0:0:0:0:
256,192,149859,128,0,150025:0:0:0:0:
109,192,149942,128,0,150025:0:0:0:0:
36,192,150025,1,0,0:0:0:0:
182,192,150109,1,0,0:0:0:0:
329,192,150192,1,0,0:0:0:0:
109,192,150192,1,0,0:0:0:0:
256,192,150359,1,0,0:0:0:0:
182,192,150359,1,0,0:0:0:0:
109,192,150525,1,0,0:0:0:0:
329,192,150525,1,0,0:0:0:0:
36,192,150692,128,0,152025:0:0:0:0:
402,192,150692,128,0,151025:0:0:0:0:
182,192,150692,1,0,0:0:0:0:
256,192,150859,128,0,151025:0:0:0:0:
109,192,150942,128,0,151025:0:0:0:0:
475,192,151025,128,0,151359:0:0:0:0:
329,192,151192,128,0,151359:0:0:0:0:
182,192,151275,128,0,151359:0:0:0:0:
109,192,151359,1,0,0:0:0:0:
256,192,151442,1,0,0:0:0:0:
402,192,151525,1,0,0:0:0:0:
182,192,151609,1,0,0:0:0:0:
329,192,151692,1,0,0:0:0:0:
475,192,151775,1,0,0:0:0:0:
109,192,151859,1,0,0:0:0:0:
402,192,151942,1,0,0:0:0:0:
256,192,152025,128,0,153359:0:0:0:0:
475,192,152025,128,0,152359:0:0:0:0:
329,192,152192,128,0,152359:0:0:0:0:
109,192,152275,128,0,152359:0:0:0:0:
36,192,152359,128,0,152692:0:0:0:0:
182,192,152525,128,0,152692:0:0:0:0:
402,192,152609,128,0,152692:0:0:0:0:
475,192,152692,1,0,0:0:0:0:
329,192,152775,1,0,0:0:0:0:
182,192,152859,1,0,0:0:0:0:
36,192,152859,1,0,0:0:0:0:
475,192,153025,1,0,0:0:0:0:
329,192,153025,1,0,0:0:0:0:
109,192,153192,1,0,0:0:0:0:
402,192,153192,1,0,0:0:0:0:
475,192,153359,128,0,156025:0:0:0:0:
36,192,153359,128,0,156025:0:0:0:0:
402,192,153359,1,0,0:0:0:0:
109,192,153359,1,0,0:0:0:0:
329,192,153442,1,0,0:0:0:0:
182,192,153442,1,0,0:0:0:0:
256,192,153525,1,0,0:0:0:0:
402,192,153609,1,0,0:0:0:0:
109,192,153609,1,0,0:0:0:0:
329,192,153692,1,0,0:0:0:0:
182,192,153692,1,0,0:0:0:0:
256,192,153775,1,0,0:0:0:0:
402,192,153859,1,0,0:0:0:0:
109,192,153859,1,0,0:0:0:0:
329,192,153942,1,0,0:0:0:0:
182,192,153942,1,0,0:0:0:0:
256,192,154025,1,0,0:0:0:0:
109,192,154025,128,0,155692:0:0:0:0:
402,192,154025,128,0,155692:0:0:0:0:
329,192,154192,1,0,0:0:0:0:
182,192,154192,1,0,0:0:0:0:
182,192,154359,128,0,154692:0:0:0:0:
329,192,154359,128,0,154692:0:0:0:0:
