osu file format v13

[General]
AudioFilename: 09 Turupeta.mp3
AudioLeadIn: 0
PreviewTime: -1
Countdown: 1
SampleSet: Soft
StackLeniency: 0.7
Mode: 3
LetterboxInBreaks: 1
SpecialStyle: 0
WidescreenStoryboard: 1

[Editor]
Bookmarks: 85359,90692
DistanceSpacing: 1
BeatDivisor: 4
GridSize: 4
TimelineZoom: 1.4

[Metadata]
Title:Tsurupettan
TitleUnicode:Tsurupettan
Artist:Silver Forest
ArtistUnicode:Silver Forest
Creator:Lokovodo
Version:4K HD
Source:
Tags:
BeatmapID:456929
BeatmapSetID:191545

[Difficulty]
HPDrainRate:7
CircleSize:4
OverallDifficulty:7
ApproachRate:5
SliderMultiplier:1.4
SliderTickRate:1

[Events]
//Background and Video events
0,0,"touhou-kimono-konpaku-youmu-yakumo-yukari-hieda-no-akyuu-kochiya-sanae-saigyouji-yuyuko-alice-margatroid-medicine-melancholy-japanese-clothes-wallpaper.jpg",0,0
Video,0,"Turupeta.avi"
//Break Periods
//Storyboard Layer 0 (Background)
//Storyboard Layer 1 (Fail)
//Storyboard Layer 2 (Pass)
//Storyboard Layer 3 (Foreground)
//Storyboard Sound Samples
//Background Colour Transformations
3,100,163,162,255

[TimingPoints]
26,333.333333333333,4,2,0,30,1,0
5359,-100,4,2,0,30,0,1
16025,-100,4,2,0,30,0,0
48025,-100,4,2,0,30,0,1
57359,-100,4,2,0,30,0,0
58692,-100,4,2,0,30,0,1
69359,-100,4,2,0,30,0,0
112025,-100,4,2,0,30,0,1
121359,-100,4,2,0,30,0,0
122692,-100,4,2,0,30,0,1
133359,-100,4,2,0,30,0,0
144025,-100,4,2,0,30,0,1
154692,-100,4,2,0,30,0,0

[HitObjects]
64,192,5359,128,0,5692:0:0:0:0:
448,192,5692,1,0,0:0:0:0:
320,192,5692,1,0,0:0:0:0:
64,192,6025,128,0,6359:0:0:0:0:
448,192,6359,1,0,0:0:0:0:
320,192,6359,1,0,0:0:0:0:
64,192,6692,1,0,0:0:0:0:
192,192,6692,1,0,0:0:0:0:
192,192,6859,1,0,0:0:0:0:
320,192,6859,1,0,0:0:0:0:
448,192,7025,1,0,0:0:0:0:
320,192,7025,1,0,0:0:0:0:
448,192,7359,1,0,0:0:0:0:
320,192,7525,1,0,0:0:0:0:
64,192,7692,1,0,0:0:0:0:
192,192,7692,1,0,0:0:0:0:
320,192,8025,128,0,8359:0:0:0:0:
64,192,8359,1,0,0:0:0:0:
448,192,8359,1,0,0:0:0:0:
320,192,8692,128,0,9025:0:0:0:0:
64,192,9025,1,0,0:0:0:0:
448,192,9025,1,0,0:0:0:0:
448,192,9359,1,0,0:0:0:0:
320,192,9359,1,0,0:0:0:0:
192,192,9525,1,0,0:0:0:0:
320,192,9525,1,0,0:0:0:0:
64,192,9692,1,0,0:0:0:0:
192,192,9692,1,0,0:0:0:0:
448,192,10025,1,0,0:0:0:0:
64,192,10025,1,0,0:0:0:0:
448,192,10192,1,0,0:0:0:0:
320,192,10275,1,0,0:0:0:0:
192,192,10359,1,0,0:0:0:0:
64,192,10525,1,0,0:0:0:0:
192,192,10609,1,0,0:0:0:0:
448,192,10692,1,0,0:0:0:0:
320,192,10692,128,0,11025:0:0:0:0:
64,192,11025,1,0,0:0:0:0:
192,192,11025,1,0,0:0:0:0:
320,192,11359,128,0,11692:0:0:0:0:
64,192,11692,1,0,0:0:0:0:
192,192,11692,1,0,0:0:0:0:
448,192,12025,1,0,0:0:0:0:
320,192,12025,1,0,0:0:0:0:
320,192,12192,1,0,0:0:0:0:
192,192,12192,1,0,0:0:0:0:
320,192,12359,1,0,0:0:0:0:
64,192,12359,1,0,0:0:0:0:
192,192,12692,1,0,0:0:0:0:
448,192,12692,1,0,0:0:0:0:
320,192,12859,1,0,0:0:0:0:
320,192,13025,128,0,13359:0:0:0:0:
64,192,13359,128,0,13692:0:0:0:0:
192,192,13692,1,0,0:0:0:0:
448,192,13692,1,0,0:0:0:0:
64,192,14025,128,0,14359:0:0:0:0:
448,192,14359,1,0,0:0:0:0:
192,192,14359,1,0,0:0:0:0:
64,192,14692,1,0,0:0:0:0:
192,192,14692,1,0,0:0:0:0:
192,192,14859,1,0,0:0:0:0:
320,192,14859,1,0,0:0:0:0:
448,192,15025,1,0,0:0:0:0:
192,192,15025,1,0,0:0:0:0:
192,192,15359,1,0,0:0:0:0:
64,192,15359,1,0,0:0:0:0:
448,192,15442,1,0,0:0:0:0:
320,192,15525,1,0,0:0:0:0:
192,192,15609,1,0,0:0:0:0:
64,192,15692,1,0,0:0:0:0:
448,192,15775,1,0,0:0:0:0:
320,192,15859,1,0,0:0:0:0:
192,192,15942,1,0,0:0:0:0:
448,192,16025,1,0,0:0:0:0:
64,192,16025,1,0,0:0:0:0:
320,192,16192,1,0,0:0:0:0:
192,192,16359,1,0,0:0:0:0:
448,192,16359,1,0,0:0:0:0:
64,192,16525,1,0,0:0:0:0:
320,192,16692,1,0,0:0:0:0:
192,192,16859,1,0,0:0:0:0:
320,192,17025,1,0,0:0:0:0:
64,192,17025,1,0,0:0:0:0:
192,192,17192,1,0,0:0:0:0:
448,192,17359,1,0,0:0:0:0:
320,192,17359,1,0,0:0:0:0:
192,192,17525,1,0,0:0:0:0:
64,192,17692,1,0,0:0:0:0:
448,192,17859,1,0,0:0:0:0:
320,192,17942,1,0,0:0:0:0:
192,192,18025,1,0,0:0:0:0:
320,192,18192,1,0,0:0:0:0:
64,192,18359,1,0,0:0:0:0:
448,192,18359,1,0,0:0:0:0:
320,192,18525,1,0,0:0:0:0:
192,192,18692,1,0,0:0:0:0:
448,192,18692,1,0,0:0:0:0:
64,192,18859,1,0,0:0:0:0:
448,192,19025,1,0,0:0:0:0:
320,192,19192,1,0,0:0:0:0:
192,192,19359,1,0,0:0:0:0:
64,192,19359,1,0,0:0:0:0:
448,192,19525,1,0,0:0:0:0:
320,192,19692,1,0,0:0:0:0:
192,192,19859,1,0,0:0:0:0:
64,192,20025,1,0,0:0:0:0:
448,192,20025,1,0,0:0:0:0:
320,192,20192,1,0,0:0:0:0:
192,192,20359,1,0,0:0:0:0:
320,192,20525,1,0,0:0:0:0:
448,192,20525,1,0,0:0:0:0:
64,192,20692,1,0,0:0:0:0:
192,192,20859,1,0,0:0:0:0:
448,192,20859,1,0,0:0:0:0:
192,192,21025,1,0,0:0:0:0:
448,192,21025,1,0,0:0:0:0:
320,192,21192,1,0,0:0:0:0:
448,192,21359,1,0,0:0:0:0:
64,192,21359,1,0,0:0:0:0:
192,192,21525,1,0,0:0:0:0:
320,192,21692,1,0,0:0:0:0:
448,192,21859,1,0,0:0:0:0:
64,192,22025,1,0,0:0:0:0:
320,192,22025,1,0,0:0:0:0:
192,192,22192,1,0,0:0:0:0:
320,192,22359,1,0,0:0:0:0:
192,192,22525,1,0,0:0:0:0:
320,192,22692,1,0,0:0:0:0:
448,192,22692,1,0,0:0:0:0:
192,192,22859,1,0,0:0:0:0:
64,192,23025,1,0,0:0:0:0:
448,192,23025,1,0,0:0:0:0:
320,192,23192,128,0,23692:0:0:0:0:
192,192,23359,1,0,0:0:0:0:
192,192,23525,1,0,0:0:0:0:
64,192,23692,1,0,0:0:0:0:
192,192,23859,1,0,0:0:0:0:
448,192,24025,1,0,0:0:0:0:
64,192,24025,1,0,0:0:0:0:
320,192,24192,1,0,0:0:0:0:
448,192,24359,1,0,0:0:0:0:
192,192,24359,1,0,0:0:0:0:
320,192,24525,1,0,0:0:0:0:
64,192,24692,1,0,0:0:0:0:
192,192,24692,1,0,0:0:0:0:
64,192,24859,1,0,0:0:0:0:
192,192,24859,1,0,0:0:0:0:
448,192,25025,1,0,0:0:0:0:
192,192,25192,1,0,0:0:0:0:
448,192,25359,1,0,0:0:0:0:
320,192,25359,1,0,0:0:0:0:
192,192,25525,1,0,0:0:0:0:
64,192,25525,1,0,0:0:0:0:
448,192,25692,1,0,0:0:0:0:
320,192,25692,1,0,0:0:0:0:
64,192,25859,128,0,26359:0:0:0:0:
192,192,26192,1,0,0:0:0:0:
192,192,26359,1,0,0:0:0:0:
320,192,26525,1,0,0:0:0:0:
448,192,26692,128,0,27025:0:0:0:0:
320,192,26692,1,0,0:0:0:0:
192,192,27025,128,0,27692:0:0:0:0:
64,192,27025,1,0,0:0:0:0:
448,192,27359,1,0,0:0:0:0:
448,192,27525,1,0,0:0:0:0:
64,192,27692,128,0,28025:0:0:0:0:
320,192,27692,1,0,0:0:0:0:
448,192,28025,128,0,28692:0:0:0:0:
192,192,28025,1,0,0:0:0:0:
64,192,28359,1,0,0:0:0:0:
320,192,28692,128,0,29359:0:0:0:0:
192,192,28692,1,0,0:0:0:0:
448,192,29025,1,0,0:0:0:0:
64,192,29359,128,0,30692:0:0:0:0:
192,192,29359,1,0,0:0:0:0:
448,192,29692,1,0,0:0:0:0:
192,192,30025,128,0,30192:0:0:0:0:
448,192,30192,128,0,30359:0:0:0:0:
192,192,30359,128,0,30525:0:0:0:0:
448,192,30525,128,0,30692:0:0:0:0:
320,192,30692,1,0,0:0:0:0:
192,192,30859,1,0,0:0:0:0:
64,192,31025,1,0,0:0:0:0:
448,192,31192,1,0,0:0:0:0:
320,192,31275,1,0,0:0:0:0:
192,192,31359,1,0,0:0:0:0:
448,192,31525,1,0,0:0:0:0:
448,192,31692,128,0,32025:0:0:0:0:
320,192,31859,1,0,0:0:0:0:
192,192,31942,1,0,0:0:0:0:
64,192,32025,128,0,33359:0:0:0:0:
320,192,32359,1,0,0:0:0:0:
192,192,32359,1,0,0:0:0:0:
192,192,32692,1,0,0:0:0:0:
192,192,32859,1,0,0:0:0:0:
320,192,33025,1,0,0:0:0:0:
448,192,33192,1,0,0:0:0:0:
320,192,33359,128,0,34692:0:0:0:0:
192,192,33692,1,0,0:0:0:0:
448,192,33692,1,0,0:0:0:0:
448,192,34025,1,0,0:0:0:0:
448,192,34192,1,0,0:0:0:0:
64,192,34359,1,0,0:0:0:0:
192,192,34525,1,0,0:0:0:0:
64,192,34692,128,0,36025:0:0:0:0:
448,192,35025,1,0,0:0:0:0:
320,192,35359,1,0,0:0:0:0:
320,192,35525,1,0,0:0:0:0:
448,192,35692,1,0,0:0:0:0:
192,192,35859,1,0,0:0:0:0:
320,192,36025,128,0,37359:0:0:0:0:
448,192,36025,1,0,0:0:0:0:
64,192,36359,1,0,0:0:0:0:
192,192,36692,1,0,0:0:0:0:
64,192,36692,1,0,0:0:0:0:
192,192,36859,1,0,0:0:0:0:
64,192,36859,1,0,0:0:0:0:
448,192,37025,1,0,0:0:0:0:
64,192,37025,1,0,0:0:0:0:
192,192,37192,1,0,0:0:0:0:
64,192,37359,128,0,38692:0:0:0:0:
192,192,37359,1,0,0:0:0:0:
448,192,37692,1,0,0:0:0:0:
192,192,38025,1,0,0:0:0:0:
192,192,38192,1,0,0:0:0:0:
320,192,38359,1,0,0:0:0:0:
448,192,38525,1,0,0:0:0:0:
192,192,38692,128,0,40025:0:0:0:0:
64,192,39025,1,0,0:0:0:0:
320,192,39192,1,0,0:0:0:0:
448,192,39359,1,0,0:0:0:0:
64,192,39525,1,0,0:0:0:0:
448,192,39692,1,0,0:0:0:0:
320,192,39859,1,0,0:0:0:0:
64,192,40025,128,0,41025:0:0:0:0:
448,192,40025,1,0,0:0:0:0:
320,192,40359,1,0,0:0:0:0:
192,192,40692,1,0,0:0:0:0:
192,192,40859,1,0,0:0:0:0:
320,192,41025,128,0,41359:0:0:0:0:
448,192,41192,1,0,0:0:0:0:
192,192,41359,128,0,42359:0:0:0:0:
64,192,41359,1,0,0:0:0:0:
64,192,41692,1,0,0:0:0:0:
320,192,41692,1,0,0:0:0:0:
320,192,42025,1,0,0:0:0:0:
64,192,42025,1,0,0:0:0:0:
320,192,42359,1,0,0:0:0:0:
64,192,42359,128,0,42692:0:0:0:0:
448,192,42525,1,0,0:0:0:0:
320,192,42609,1,0,0:0:0:0:
192,192,42692,128,0,43692:0:0:0:0:
64,192,43025,1,0,0:0:0:0:
448,192,43359,1,0,0:0:0:0:
64,192,43692,128,0,44025:0:0:0:0:
320,192,43692,1,0,0:0:0:0:
448,192,44025,128,0,44692:0:0:0:0:
192,192,44025,1,0,0:0:0:0:
64,192,44359,1,0,0:0:0:0:
320,192,44359,1,0,0:0:0:0:
64,192,44692,128,0,45359:0:0:0:0:
192,192,44859,1,0,0:0:0:0:
320,192,45025,1,0,0:0:0:0:
448,192,45359,1,0,0:0:0:0:
192,192,45359,1,0,0:0:0:0:
448,192,45525,1,0,0:0:0:0:
192,192,45525,1,0,0:0:0:0:
320,192,45692,1,0,0:0:0:0:
64,192,46025,1,0,0:0:0:0:
320,192,46025,1,0,0:0:0:0:
64,192,46192,1,0,0:0:0:0:
320,192,46192,1,0,0:0:0:0:
192,192,46359,1,0,0:0:0:0:
448,192,46692,1,0,0:0:0:0:
320,192,46692,1,0,0:0:0:0:
320,192,46859,1,0,0:0:0:0:
448,192,46859,1,0,0:0:0:0:
64,192,47025,1,0,0:0:0:0:
320,192,47192,1,0,0:0:0:0:
64,192,47359,1,0,0:0:0:0:
448,192,47359,1,0,0:0:0:0:
192,192,47442,1,0,0:0:0:0:
320,192,47525,1,0,0:0:0:0:
448,192,47609,1,0,0:0:0:0:
320,192,47692,1,0,0:0:0:0:
192,192,47775,1,0,0:0:0:0:
64,192,47859,1,0,0:0:0:0:
192,192,47942,1,0,0:0:0:0:
448,192,48025,128,0,48359:0:0:0:0:
320,192,48025,1,0,0:0:0:0:
64,192,48359,1,0,0:0:0:0:
320,192,48359,1,0,0:0:0:0:
448,192,48692,128,0,49025:0:0:0:0:
64,192,49025,1,0,0:0:0:0:
320,192,49025,1,0,0:0:0:0:
448,192,49359,1,0,0:0:0:0:
192,192,49359,1,0,0:0:0:0:
320,192,49525,1,0,0:0:0:0:
192,192,49525,1,0,0:0:0:0:
192,192,49692,1,0,0:0:0:0:
64,192,49692,1,0,0:0:0:0:
192,192,50025,1,0,0:0:0:0:
448,192,50025,1,0,0:0:0:0:
320,192,50192,1,0,0:0:0:0:
448,192,50359,1,0,0:0:0:0:
192,192,50359,1,0,0:0:0:0:
64,192,50692,128,0,51025:0:0:0:0:
448,192,51025,1,0,0:0:0:0:
192,192,51025,1,0,0:0:0:0:
64,192,51359,128,0,51692:0:0:0:0:
448,192,51692,1,0,0:0:0:0:
192,192,51692,1,0,0:0:0:0:
64,192,52025,1,0,0:0:0:0:
320,192,52025,1,0,0:0:0:0:
192,192,52192,1,0,0:0:0:0:
320,192,52192,1,0,0:0:0:0:
320,192,52359,1,0,0:0:0:0:
448,192,52359,1,0,0:0:0:0:
320,192,52692,1,0,0:0:0:0:
64,192,52692,1,0,0:0:0:0:
192,192,52859,1,0,0:0:0:0:
320,192,53025,1,0,0:0:0:0:
64,192,53025,1,0,0:0:0:0:
448,192,53359,128,0,53692:0:0:0:0:
192,192,53692,1,0,0:0:0:0:
64,192,53692,1,0,0:0:0:0:
448,192,54025,128,0,54359:0:0:0:0:
64,192,54359,1,0,0:0:0:0:
192,192,54359,1,0,0:0:0:0:
448,192,54692,1,0,0:0:0:0:
192,192,54692,1,0,0:0:0:0:
320,192,54859,1,0,0:0:0:0:
192,192,54859,1,0,0:0:0:0:
64,192,55025,1,0,0:0:0:0:
192,192,55025,1,0,0:0:0:0:
64,192,55359,1,0,0:0:0:0:
320,192,55359,1,0,0:0:0:0:
192,192,55525,1,0,0:0:0:0:
320,192,55525,1,0,0:0:0:0:
448,192,55692,1,0,0:0:0:0:
320,192,55692,1,0,0:0:0:0:
64,192,56025,128,0,56359:0:0:0:0:
448,192,56359,1,0,0:0:0:0:
320,192,56359,1,0,0:0:0:0:
64,192,56692,128,0,57025:0:0:0:0:
448,192,57025,1,0,0:0:0:0:
320,192,57025,1,0,0:0:0:0:
192,192,57359,1,0,0:0:0:0:
64,192,57359,1,0,0:0:0:0:
448,192,57525,1,0,0:0:0:0:
192,192,57692,1,0,0:0:0:0:
320,192,57692,1,0,0:0:0:0:
64,192,57859,1,0,0:0:0:0:
448,192,58025,1,0,0:0:0:0:
320,192,58025,1,0,0:0:0:0:
64,192,58192,1,0,0:0:0:0:
192,192,58275,1,0,0:0:0:0:
448,192,58359,1,0,0:0:0:0:
320,192,58525,1,0,0:0:0:0:
192,192,58609,1,0,0:0:0:0:
64,192,58692,1,0,0:0:0:0:
448,192,58692,1,0,0:0:0:0:
192,192,58859,1,0,0:0:0:0:
448,192,59025,1,0,0:0:0:0:
64,192,59025,1,0,0:0:0:0:
192,192,59192,1,0,0:0:0:0:
448,192,59359,1,0,0:0:0:0:
320,192,59442,1,0,0:0:0:0:
192,192,59525,1,0,0:0:0:0:
64,192,59609,1,0,0:0:0:0:
448,192,59692,1,0,0:0:0:0:
320,192,59692,1,0,0:0:0:0:
64,192,59859,1,0,0:0:0:0:
192,192,60025,1,0,0:0:0:0:
448,192,60025,1,0,0:0:0:0:
320,192,60192,1,0,0:0:0:0:
64,192,60359,1,0,0:0:0:0:
448,192,60359,1,0,0:0:0:0:
320,192,60525,1,0,0:0:0:0:
64,192,60692,1,0,0:0:0:0:
192,192,60775,1,0,0:0:0:0:
320,192,60859,1,0,0:0:0:0:
448,192,60942,1,0,0:0:0:0:
192,192,61025,1,0,0:0:0:0:
64,192,61025,1,0,0:0:0:0:
320,192,61192,1,0,0:0:0:0:
448,192,61359,1,0,0:0:0:0:
192,192,61359,1,0,0:0:0:0:
320,192,61525,1,0,0:0:0:0:
64,192,61692,1,0,0:0:0:0:
448,192,61692,1,0,0:0:0:0:
192,192,61859,1,0,0:0:0:0:
448,192,62025,1,0,0:0:0:0:
320,192,62109,1,0,0:0:0:0:
192,192,62192,1,0,0:0:0:0:
64,192,62275,1,0,0:0:0:0:
448,192,62359,1,0,0:0:0:0:
320,192,62359,1,0,0:0:0:0:
192,192,62525,1,0,0:0:0:0:
64,192,62692,1,0,0:0:0:0:
320,192,62692,1,0,0:0:0:0:
192,192,62859,1,0,0:0:0:0:
64,192,63025,1,0,0:0:0:0:
448,192,63025,1,0,0:0:0:0:
320,192,63192,1,0,0:0:0:0:
64,192,63359,1,0,0:0:0:0:
192,192,63442,1,0,0:0:0:0:
320,192,63525,1,0,0:0:0:0:
448,192,63609,1,0,0:0:0:0:
64,192,63692,1,0,0:0:0:0:
192,192,63692,1,0,0:0:0:0:
320,192,63859,1,0,0:0:0:0:
448,192,64025,1,0,0:0:0:0:
64,192,64025,1,0,0:0:0:0:
192,192,64192,1,0,0:0:0:0:
64,192,64359,1,0,0:0:0:0:
448,192,64359,1,0,0:0:0:0:
320,192,64525,1,0,0:0:0:0:
64,192,64692,1,0,0:0:0:0:
192,192,64775,1,0,0:0:0:0:
448,192,64859,1,0,0:0:0:0:
320,192,64942,1,0,0:0:0:0:
192,192,65025,1,0,0:0:0:0:
64,192,65025,1,0,0:0:0:0:
320,192,65192,1,0,0:0:0:0:
448,192,65359,1,0,0:0:0:0:
64,192,65359,1,0,0:0:0:0:
192,192,65525,1,0,0:0:0:0:
448,192,65692,1,0,0:0:0:0:
64,192,65692,1,0,0:0:0:0:
320,192,65859,1,0,0:0:0:0:
64,192,66025,1,0,0:0:0:0:
192,192,66109,1,0,0:0:0:0:
448,192,66192,1,0,0:0:0:0:
320,192,66275,1,0,0:0:0:0:
192,192,66359,1,0,0:0:0:0:
64,192,66359,1,0,0:0:0:0:
320,192,66525,1,0,0:0:0:0:
64,192,66692,1,0,0:0:0:0:
448,192,66692,1,0,0:0:0:0:
192,192,66859,1,0,0:0:0:0:
64,192,67025,1,0,0:0:0:0:
448,192,67025,1,0,0:0:0:0:
320,192,67192,1,0,0:0:0:0:
64,192,67359,1,0,0:0:0:0:
192,192,67442,1,0,0:0:0:0:
448,192,67525,1,0,0:0:0:0:
320,192,67609,1,0,0:0:0:0:
64,192,67692,1,0,0:0:0:0:
192,192,67692,1,0,0:0:0:0:
320,192,67859,1,0,0:0:0:0:
64,192,68025,1,0,0:0:0:0:
448,192,68025,1,0,0:0:0:0:
192,192,68192,1,0,0:0:0:0:
448,192,68359,1,0,0:0:0:0:
64,192,68359,1,0,0:0:0:0:
320,192,68525,1,0,0:0:0:0:
64,192,68692,1,0,0:0:0:0:
192,192,68775,1,0,0:0:0:0:
320,192,68859,1,0,0:0:0:0:
448,192,68942,1,0,0:0:0:0:
320,192,69025,1,0,0:0:0:0:
192,192,69109,1,0,0:0:0:0:
64,192,69192,1,0,0:0:0:0:
192,192,69275,1,0,0:0:0:0:
320,192,69359,1,0,0:0:0:0:
448,192,69359,128,0,69692:0:0:0:0:
64,192,69692,1,0,0:0:0:0:
64,192,70025,128,0,70359:0:0:0:0:
448,192,70359,1,0,0:0:0:0:
320,192,70692,1,0,0:0:0:0:
448,192,70859,1,0,0:0:0:0:
320,192,71025,1,0,0:0:0:0:
64,192,71192,1,0,0:0:0:0:
448,192,71359,128,0,71692:0:0:0:0:
192,192,71692,1,0,0:0:0:0:
64,192,72025,128,0,72359:0:0:0:0:
320,192,72359,1,0,0:0:0:0:
448,192,72692,128,0,73025:0:0:0:0:
192,192,73025,1,0,0:0:0:0:
320,192,73359,1,0,0:0:0:0:
64,192,73525,1,0,0:0:0:0:
320,192,73692,1,0,0:0:0:0:
192,192,73859,1,0,0:0:0:0:
448,192,74025,1,0,0:0:0:0:
64,192,74192,1,0,0:0:0:0:
192,192,74275,1,0,0:0:0:0:
448,192,74359,1,0,0:0:0:0:
320,192,74525,1,0,0:0:0:0:
192,192,74609,1,0,0:0:0:0:
64,192,74692,1,0,0:0:0:0:
64,192,74859,1,0,0:0:0:0:
192,192,75025,1,0,0:0:0:0:
320,192,75359,1,0,0:0:0:0:
320,192,75525,1,0,0:0:0:0:
448,192,75692,1,0,0:0:0:0:
192,192,76025,1,0,0:0:0:0:
64,192,76192,1,0,0:0:0:0:
192,192,76359,1,0,0:0:0:0:
448,192,76525,1,0,0:0:0:0:
320,192,76692,1,0,0:0:0:0:
64,192,76692,1,0,0:0:0:0:
64,192,76859,1,0,0:0:0:0:
448,192,77025,1,0,0:0:0:0:
192,192,77025,1,0,0:0:0:0:
448,192,77359,1,0,0:0:0:0:
448,192,77525,1,0,0:0:0:0:
64,192,77692,1,0,0:0:0:0:
192,192,78025,1,0,0:0:0:0:
192,192,78192,1,0,0:0:0:0:
448,192,78359,1,0,0:0:0:0:
192,192,78525,1,0,0:0:0:0:
320,192,78692,1,0,0:0:0:0:
192,192,78859,1,0,0:0:0:0:
448,192,79025,1,0,0:0:0:0:
320,192,79192,1,0,0:0:0:0:
64,192,79359,1,0,0:0:0:0:
192,192,79442,1,0,0:0:0:0:
448,192,79525,1,0,0:0:0:0:
320,192,79692,1,0,0:0:0:0:
192,192,79859,1,0,0:0:0:0:
64,192,80025,1,0,0:0:0:0:
320,192,80025,1,0,0:0:0:0:
448,192,80025,1,0,0:0:0:0:
64,192,80692,128,0,81025:0:0:0:0:
320,192,81359,128,0,81692:0:0:0:0:
448,192,81692,128,0,81859:0:0:0:0:
192,192,81859,128,0,82192:0:0:0:0:
64,192,82192,128,0,82359:0:0:0:0:
320,192,82359,1,0,0:0:0:0:
448,192,82692,128,0,83025:0:0:0:0:
64,192,83192,128,0,83359:0:0:0:0:
192,192,83359,1,0,0:0:0:0:
448,192,84025,128,0,84192:0:0:0:0:
192,192,84192,128,0,84359:0:0:0:0:
320,192,84192,1,0,0:0:0:0:
64,192,84359,128,0,84525:0:0:0:0:
320,192,84525,128,0,84859:0:0:0:0:
192,192,84859,128,0,85025:0:0:0:0:
448,192,84859,1,0,0:0:0:0:
448,192,85025,1,0,0:0:0:0:
64,192,85359,1,0,0:0:0:0:
448,192,85359,1,0,0:0:0:0:
192,192,85525,1,0,0:0:0:0:
64,192,85692,1,0,0:0:0:0:
320,192,85692,1,0,0:0:0:0:
192,192,85859,1,0,0:0:0:0:
448,192,86025,1,0,0:0:0:0:
320,192,86025,1,0,0:0:0:0:
64,192,86192,1,0,0:0:0:0:
192,192,86359,1,0,0:0:0:0:
448,192,86525,1,0,0:0:0:0:
192,192,86692,1,0,0:0:0:0:
64,192,86692,1,0,0:0:0:0:
320,192,86859,1,0,0:0:0:0:
64,192,87025,1,0,0:0:0:0:
448,192,87192,128,0,87692:0:0:0:0:
192,192,87359,1,0,0:0:0:0:
64,192,87525,1,0,0:0:0:0:
192,192,87692,1,0,0:0:0:0:
448,192,88025,1,0,0:0:0:0:
64,192,88025,1,0,0:0:0:0:
320,192,88192,1,0,0:0:0:0:
448,192,88359,1,0,0:0:0:0:
192,192,88359,1,0,0:0:0:0:
320,192,88525,1,0,0:0:0:0:
192,192,88692,1,0,0:0:0:0:
64,192,88692,1,0,0:0:0:0:
448,192,88859,1,0,0:0:0:0:
192,192,89025,1,0,0:0:0:0:
64,192,89192,1,0,0:0:0:0:
320,192,89359,1,0,0:0:0:0:
448,192,89359,1,0,0:0:0:0:
192,192,89525,1,0,0:0:0:0:
64,192,89525,1,0,0:0:0:0:
448,192,89692,1,0,0:0:0:0:
320,192,89692,1,0,0:0:0:0:
64,192,89859,128,0,90192:0:0:0:0:
192,192,90025,1,0,0:0:0:0:
448,192,90192,128,0,90359:0:0:0:0:
320,192,90359,1,0,0:0:0:0:
192,192,90525,1,0,0:0:0:0:
64,192,90692,128,0,92025:0:0:0:0:
448,192,90692,1,0,0:0:0:0:
320,192,91025,128,0,91359:0:0:0:0:
192,192,91359,1,0,0:0:0:0:
192,192,91525,1,0,0:0:0:0:
320,192,91692,1,0,0:0:0:0:
448,192,91859,1,0,0:0:0:0:
192,192,92025,128,0,93359:0:0:0:0:
448,192,92192,1,0,0:0:0:0:
64,192,92359,1,0,0:0:0:0:
448,192,92692,1,0,0:0:0:0:
448,192,92859,1,0,0:0:0:0:
64,192,93025,1,0,0:0:0:0:
448,192,93359,128,0,94692:0:0:0:0:
320,192,93359,1,0,0:0:0:0:
64,192,93692,128,0,94025:0:0:0:0:
192,192,94025,1,0,0:0:0:0:
192,192,94192,1,0,0:0:0:0:
320,192,94359,1,0,0:0:0:0:
64,192,94525,1,0,0:0:0:0:
320,192,94692,1,0,0:0:0:0:
64,192,94859,1,0,0:0:0:0:
320,192,95025,1,0,0:0:0:0:
64,192,95192,1,0,0:0:0:0:
192,192,95275,1,0,0:0:0:0:
448,192,95359,1,0,0:0:0:0:
320,192,95525,1,0,0:0:0:0:
448,192,95692,1,0,0:0:0:0:
64,192,95692,1,0,0:0:0:0:
320,192,95859,1,0,0:0:0:0:
192,192,95942,1,0,0:0:0:0:
64,192,96025,128,0,97359:0:0:0:0:
448,192,96025,1,0,0:0:0:0:
320,192,96359,128,0,96692:0:0:0:0:
448,192,96692,1,0,0:0:0:0:
448,192,96859,1,0,0:0:0:0:
192,192,97025,1,0,0:0:0:0:
320,192,97359,128,0,98692:0:0:0:0:
448,192,97525,1,0,0:0:0:0:
192,192,97692,128,0,98025:0:0:0:0:
64,192,98025,1,0,0:0:0:0:
64,192,98192,1,0,0:0:0:0:
448,192,98359,1,0,0:0:0:0:
192,192,98692,128,0,99025:0:0:0:0:
448,192,99025,128,0,99359:0:0:0:0:
64,192,99359,128,0,100025:0:0:0:0:
320,192,99359,1,0,0:0:0:0:
320,192,99525,1,0,0:0:0:0:
448,192,99692,1,0,0:0:0:0:
192,192,99859,1,0,0:0:0:0:
448,192,100025,128,0,101359:0:0:0:0:
320,192,100192,1,0,0:0:0:0:
64,192,100359,128,0,100692:0:0:0:0:
320,192,100692,1,0,0:0:0:0:
320,192,100859,1,0,0:0:0:0:
192,192,101025,1,0,0:0:0:0:
64,192,101192,1,0,0:0:0:0:
192,192,101275,1,0,0:0:0:0:
320,192,101359,128,0,102692:0:0:0:0:
64,192,101692,128,0,102025:0:0:0:0:
192,192,102025,1,0,0:0:0:0:
192,192,102192,1,0,0:0:0:0:
448,192,102359,1,0,0:0:0:0:
64,192,102692,128,0,104025:0:0:0:0:
448,192,102859,1,0,0:0:0:0:
192,192,103025,128,0,103359:0:0:0:0:
448,192,103359,1,0,0:0:0:0:
448,192,103525,1,0,0:0:0:0:
320,192,103692,1,0,0:0:0:0:
320,192,104025,128,0,105359:0:0:0:0:
448,192,104359,128,0,104692:0:0:0:0:
64,192,104692,1,0,0:0:0:0:
64,192,104859,1,0,0:0:0:0:
192,192,105025,1,0,0:0:0:0:
64,192,105192,1,0,0:0:0:0:
448,192,105359,1,0,0:0:0:0:
192,192,105525,1,0,0:0:0:0:
64,192,105692,1,0,0:0:0:0:
448,192,105859,1,0,0:0:0:0:
320,192,105942,1,0,0:0:0:0:
64,192,106025,1,0,0:0:0:0:
192,192,106192,1,0,0:0:0:0:
320,192,106359,1,0,0:0:0:0:
448,192,106359,1,0,0:0:0:0:
64,192,106525,1,0,0:0:0:0:
192,192,106609,1,0,0:0:0:0:
320,192,106692,1,0,0:0:0:0:
448,192,106692,128,0,108025:0:0:0:0:
64,192,107025,128,0,107359:0:0:0:0:
320,192,107359,1,0,0:0:0:0:
320,192,107525,1,0,0:0:0:0:
192,192,107692,1,0,0:0:0:0:
320,192,108025,128,0,108359:0:0:0:0:
64,192,108359,1,0,0:0:0:0:
448,192,108359,128,0,108692:0:0:0:0:
192,192,108692,128,0,109025:0:0:0:0:
64,192,108859,1,0,0:0:0:0:
320,192,109025,128,0,109359:0:0:0:0:
448,192,109025,1,0,0:0:0:0:
64,192,109359,1,0,0:0:0:0:
192,192,109359,1,0,0:0:0:0:
64,192,109525,1,0,0:0:0:0:
192,192,109525,1,0,0:0:0:0:
320,192,109692,1,0,0:0:0:0:
448,192,110025,1,0,0:0:0:0:
320,192,110025,1,0,0:0:0:0:
448,192,110192,1,0,0:0:0:0:
320,192,110192,1,0,0:0:0:0:
192,192,110359,1,0,0:0:0:0:
448,192,110692,1,0,0:0:0:0:
64,192,110692,1,0,0:0:0:0:
320,192,110859,1,0,0:0:0:0:
448,192,111025,1,0,0:0:0:0:
64,192,111025,1,0,0:0:0:0:
192,192,111192,1,0,0:0:0:0:
448,192,111359,1,0,0:0:0:0:
64,192,111359,1,0,0:0:0:0:
320,192,111442,1,0,0:0:0:0:
192,192,111525,1,0,0:0:0:0:
448,192,111609,1,0,0:0:0:0:
64,192,111609,1,0,0:0:0:0:
320,192,111692,1,0,0:0:0:0:
192,192,111775,1,0,0:0:0:0:
64,192,111859,1,0,0:0:0:0:
192,192,111942,1,0,0:0:0:0:
448,192,112025,128,0,112359:0:0:0:0:
320,192,112025,1,0,0:0:0:0:
320,192,112359,1,0,0:0:0:0:
64,192,112359,1,0,0:0:0:0:
448,192,112692,128,0,113025:0:0:0:0:
64,192,113025,1,0,0:0:0:0:
320,192,113025,1,0,0:0:0:0:
64,192,113359,1,0,0:0:0:0:
192,192,113359,1,0,0:0:0:0:
320,192,113525,1,0,0:0:0:0:
192,192,113525,1,0,0:0:0:0:
320,192,113692,1,0,0:0:0:0:
448,192,113692,1,0,0:0:0:0:
448,192,114025,1,0,0:0:0:0:
192,192,114025,1,0,0:0:0:0:
320,192,114192,1,0,0:0:0:0:
448,192,114359,1,0,0:0:0:0:
64,192,114359,1,0,0:0:0:0:
448,192,114692,128,0,115026:0:0:0:0:
320,192,115026,1,0,0:0:0:0:
64,192,115026,1,0,0:0:0:0:
64,192,115359,128,0,115692:0:0:0:0:
448,192,115692,1,0,0:0:0:0:
192,192,115692,1,0,0:0:0:0:
448,192,116025,1,0,0:0:0:0:
320,192,116025,1,0,0:0:0:0:
192,192,116192,1,0,0:0:0:0:
320,192,116192,1,0,0:0:0:0:
192,192,116359,1,0,0:0:0:0:
64,192,116359,1,0,0:0:0:0:
64,192,116692,1,0,0:0:0:0:
320,192,116692,1,0,0:0:0:0:
192,192,116859,1,0,0:0:0:0:
448,192,117025,1,0,0:0:0:0:
64,192,117026,1,0,0:0:0:0:
448,192,117359,128,0,117692:0:0:0:0:
192,192,117692,1,0,0:0:0:0:
64,192,117692,1,0,0:0:0:0:
448,192,118025,128,0,118359:0:0:0:0:
192,192,118359,1,0,0:0:0:0:
64,192,118359,1,0,0:0:0:0:
192,192,118692,1,0,0:0:0:0:
448,192,118692,1,0,0:0:0:0:
192,192,118859,1,0,0:0:0:0:
320,192,118859,1,0,0:0:0:0:
320,192,119025,1,0,0:0:0:0:
64,192,119025,1,0,0:0:0:0:
64,192,119359,1,0,0:0:0:0:
320,192,119359,1,0,0:0:0:0:
192,192,119525,1,0,0:0:0:0:
320,192,119525,1,0,0:0:0:0:
448,192,119692,1,0,0:0:0:0:
192,192,119692,1,0,0:0:0:0:
64,192,120025,128,0,120358:0:0:0:0:
448,192,120358,1,0,0:0:0:0:
320,192,120358,1,0,0:0:0:0:
64,192,120691,128,0,121025:0:0:0:0:
448,192,121025,1,0,0:0:0:0:
320,192,121025,1,0,0:0:0:0:
64,192,121358,1,0,0:0:0:0:
320,192,121358,1,0,0:0:0:0:
192,192,121525,1,0,0:0:0:0:
320,192,121692,1,0,0:0:0:0:
448,192,121692,1,0,0:0:0:0:
64,192,121859,1,0,0:0:0:0:
448,192,122025,1,0,0:0:0:0:
192,192,122025,1,0,0:0:0:0:
448,192,122192,1,0,0:0:0:0:
320,192,122275,1,0,0:0:0:0:
64,192,122358,1,0,0:0:0:0:
448,192,122525,1,0,0:0:0:0:
320,192,122609,1,0,0:0:0:0:
64,192,122692,1,0,0:0:0:0:
192,192,122692,1,0,0:0:0:0:
320,192,122859,1,0,0:0:0:0:
448,192,123025,1,0,0:0:0:0:
64,192,123025,1,0,0:0:0:0:
192,192,123192,1,0,0:0:0:0:
448,192,123359,1,0,0:0:0:0:
320,192,123442,1,0,0:0:0:0:
192,192,123525,1,0,0:0:0:0:
64,192,123609,1,0,0:0:0:0:
320,192,123692,1,0,0:0:0:0:
448,192,123692,1,0,0:0:0:0:
64,192,123859,1,0,0:0:0:0:
448,192,124025,1,0,0:0:0:0:
320,192,124025,1,0,0:0:0:0:
192,192,124192,1,0,0:0:0:0:
64,192,124359,1,0,0:0:0:0:
448,192,124359,1,0,0:0:0:0:
320,192,124525,1,0,0:0:0:0:
64,192,124692,1,0,0:0:0:0:
192,192,124775,1,0,0:0:0:0:
320,192,124859,1,0,0:0:0:0:
448,192,124942,1,0,0:0:0:0:
64,192,125025,1,0,0:0:0:0:
192,192,125025,1,0,0:0:0:0:
320,192,125192,1,0,0:0:0:0:
448,192,125359,1,0,0:0:0:0:
192,192,125359,1,0,0:0:0:0:
320,192,125525,1,0,0:0:0:0:
64,192,125692,1,0,0:0:0:0:
448,192,125692,1,0,0:0:0:0:
192,192,125859,1,0,0:0:0:0:
448,192,126025,1,0,0:0:0:0:
320,192,126109,1,0,0:0:0:0:
192,192,126192,1,0,0:0:0:0:
64,192,126275,1,0,0:0:0:0:
448,192,126359,1,0,0:0:0:0:
320,192,126359,1,0,0:0:0:0:
192,192,126525,1,0,0:0:0:0:
320,192,126692,1,0,0:0:0:0:
64,192,126692,1,0,0:0:0:0:
192,192,126859,1,0,0:0:0:0:
448,192,127025,1,0,0:0:0:0:
64,192,127025,1,0,0:0:0:0:
320,192,127192,1,0,0:0:0:0:
64,192,127359,1,0,0:0:0:0:
192,192,127442,1,0,0:0:0:0:
320,192,127525,1,0,0:0:0:0:
448,192,127609,1,0,0:0:0:0:
64,192,127692,1,0,0:0:0:0:
192,192,127692,1,0,0:0:0:0:
320,192,127859,1,0,0:0:0:0:
448,192,128025,1,0,0:0:0:0:
64,192,128025,1,0,0:0:0:0:
192,192,128192,1,0,0:0:0:0:
64,192,128359,1,0,0:0:0:0:
448,192,128359,1,0,0:0:0:0:
320,192,128525,1,0,0:0:0:0:
64,192,128692,1,0,0:0:0:0:
192,192,128775,1,0,0:0:0:0:
448,192,128859,1,0,0:0:0:0:
320,192,128942,1,0,0:0:0:0:
64,192,129025,1,0,0:0:0:0:
192,192,129025,1,0,0:0:0:0:
320,192,129192,1,0,0:0:0:0:
448,192,129359,1,0,0:0:0:0:
64,192,129359,1,0,0:0:0:0:
192,192,129525,1,0,0:0:0:0:
64,192,129692,1,0,0:0:0:0:
448,192,129692,1,0,0:0:0:0:
320,192,129859,1,0,0:0:0:0:
64,192,130025,1,0,0:0:0:0:
192,192,130109,1,0,0:0:0:0:
448,192,130192,1,0,0:0:0:0:
320,192,130275,1,0,0:0:0:0:
192,192,130359,1,0,0:0:0:0:
64,192,130359,1,0,0:0:0:0:
320,192,130525,1,0,0:0:0:0:
64,192,130692,1,0,0:0:0:0:
448,192,130692,1,0,0:0:0:0:
192,192,130859,1,0,0:0:0:0:
448,192,131025,1,0,0:0:0:0:
64,192,131025,1,0,0:0:0:0:
320,192,131192,1,0,0:0:0:0:
64,192,131359,1,0,0:0:0:0:
192,192,131442,1,0,0:0:0:0:
448,192,131525,1,0,0:0:0:0:
320,192,131609,1,0,0:0:0:0:
64,192,131692,1,0,0:0:0:0:
192,192,131692,1,0,0:0:0:0:
320,192,131859,1,0,0:0:0:0:
448,192,132025,1,0,0:0:0:0:
64,192,132025,1,0,0:0:0:0:
192,192,132192,1,0,0:0:0:0:
448,192,132359,1,0,0:0:0:0:
64,192,132359,1,0,0:0:0:0:
320,192,132525,1,0,0:0:0:0:
64,192,132692,1,0,0:0:0:0:
192,192,132775,1,0,0:0:0:0:
448,192,132859,1,0,0:0:0:0:
320,192,132942,1,0,0:0:0:0:
64,192,133025,1,0,0:0:0:0:
192,192,133109,1,0,0:0:0:0:
320,192,133192,1,0,0:0:0:0:
448,192,133275,1,0,0:0:0:0:
192,192,133359,1,0,0:0:0:0:
64,192,133359,128,0,133692:0:0:0:0:
320,192,133692,1,0,0:0:0:0:
192,192,134025,128,0,134359:0:0:0:0:
448,192,134025,1,0,0:0:0:0:
64,192,134359,1,0,0:0:0:0:
448,192,134692,1,0,0:0:0:0:
320,192,134859,1,0,0:0:0:0:
64,192,135025,1,0,0:0:0:0:
192,192,135192,1,0,0:0:0:0:
448,192,135359,128,0,135692:0:0:0:0:
320,192,135359,1,0,0:0:0:0:
64,192,135525,1,0,0:0:0:0:
192,192,135692,1,0,0:0:0:0:
320,192,136025,128,0,136359:0:0:0:0:
448,192,136025,1,0,0:0:0:0:
64,192,136359,1,0,0:0:0:0:
192,192,136692,128,0,137025:0:0:0:0:
64,192,136692,1,0,0:0:0:0:
448,192,137025,1,0,0:0:0:0:
64,192,137359,1,0,0:0:0:0:
192,192,137525,1,0,0:0:0:0:
448,192,137692,1,0,0:0:0:0:
320,192,137859,1,0,0:0:0:0:
448,192,138025,1,0,0:0:0:0:
192,192,138025,1,0,0:0:0:0:
192,192,138192,1,0,0:0:0:0:
320,192,138359,1,0,0:0:0:0:
448,192,138359,1,0,0:0:0:0:
64,192,138692,1,0,0:0:0:0:
64,192,138859,1,0,0:0:0:0:
320,192,139025,1,0,0:0:0:0:
192,192,139359,1,0,0:0:0:0:
192,192,139525,1,0,0:0:0:0:
448,192,139692,1,0,0:0:0:0:
64,192,140025,1,0,0:0:0:0:
192,192,140192,1,0,0:0:0:0:
448,192,140359,1,0,0:0:0:0:
320,192,140525,1,0,0:0:0:0:
192,192,140692,1,0,0:0:0:0:
192,192,140859,1,0,0:0:0:0:
320,192,141025,1,0,0:0:0:0:
448,192,141359,1,0,0:0:0:0:
448,192,141525,1,0,0:0:0:0:
192,192,141692,1,0,0:0:0:0:
320,192,142025,1,0,0:0:0:0:
320,192,142192,1,0,0:0:0:0:
64,192,142359,1,0,0:0:0:0:
320,192,142692,1,0,0:0:0:0:
64,192,142859,1,0,0:0:0:0:
192,192,143025,1,0,0:0:0:0:
320,192,143192,1,0,0:0:0:0:
448,192,143359,1,0,0:0:0:0:
448,192,143525,1,0,0:0:0:0:
320,192,143692,1,0,0:0:0:0:
192,192,143859,1,0,0:0:0:0:
448,192,144025,1,0,0:0:0:0:
64,192,144025,1,0,0:0:0:0:
320,192,144192,1,0,0:0:0:0:
448,192,144359,1,0,0:0:0:0:
192,192,144359,1,0,0:0:0:0:
320,192,144525,1,0,0:0:0:0:
64,192,144692,1,0,0:0:0:0:
192,192,144775,1,0,0:0:0:0:
448,192,144859,1,0,0:0:0:0:
320,192,144942,1,0,0:0:0:0:
192,192,145025,1,0,0:0:0:0:
64,192,145025,1,0,0:0:0:0:
320,192,145192,1,0,0:0:0:0:
448,192,145359,1,0,0:0:0:0:
64,192,145359,1,0,0:0:0:0:
192,192,145525,1,0,0:0:0:0:
320,192,145692,1,0,0:0:0:0:
64,192,145692,1,0,0:0:0:0:
192,192,145859,1,0,0:0:0:0:
448,192,146025,1,0,0:0:0:0:
320,192,146109,1,0,0:0:0:0:
64,192,146192,1,0,0:0:0:0:
192,192,146275,1,0,0:0:0:0:
448,192,146359,1,0,0:0:0:0:
320,192,146359,1,0,0:0:0:0:
192,192,146525,1,0,0:0:0:0:
320,192,146609,1,0,0:0:0:0:
64,192,146692,1,0,0:0:0:0:
448,192,146692,1,0,0:0:0:0:
192,192,146859,1,0,0:0:0:0:
64,192,147025,1,0,0:0:0:0:
448,192,147025,1,0,0:0:0:0:
320,192,147192,1,0,0:0:0:0:
64,192,147359,1,0,0:0:0:0:
192,192,147442,1,0,0:0:0:0:
448,192,147525,1,0,0:0:0:0:
320,192,147525,1,0,0:0:0:0:
192,192,147692,1,0,0:0:0:0:
64,192,147692,1,0,0:0:0:0:
448,192,147859,1,0,0:0:0:0:
64,192,148025,1,0,0:0:0:0:
320,192,148025,1,0,0:0:0:0:
192,192,148192,1,0,0:0:0:0:
448,192,148359,1,0,0:0:0:0:
320,192,148359,1,0,0:0:0:0:
192,192,148525,1,0,0:0:0:0:
64,192,148692,1,0,0:0:0:0:
448,192,148775,1,0,0:0:0:0:
192,192,148859,1,0,0:0:0:0:
320,192,148942,1,0,0:0:0:0:
64,192,149025,1,0,0:0:0:0:
448,192,149109,1,0,0:0:0:0:
320,192,149192,1,0,0:0:0:0:
192,192,149192,1,0,0:0:0:0:
64,192,149359,1,0,0:0:0:0:
448,192,149359,1,0,0:0:0:0:
320,192,149525,1,0,0:0:0:0:
448,192,149692,1,0,0:0:0:0:
64,192,149692,1,0,0:0:0:0:
192,192,149859,1,0,0:0:0:0:
448,192,150025,1,0,0:0:0:0:
320,192,150109,1,0,0:0:0:0:
192,192,150192,1,0,0:0:0:0:
64,192,150275,1,0,0:0:0:0:
448,192,150359,1,0,0:0:0:0:
320,192,150359,1,0,0:0:0:0:
192,192,150525,1,0,0:0:0:0:
320,192,150692,1,0,0:0:0:0:
64,192,150692,1,0,0:0:0:0:
448,192,150859,1,0,0:0:0:0:
192,192,151025,1,0,0:0:0:0:
320,192,151025,1,0,0:0:0:0:
64,192,151192,1,0,0:0:0:0:
448,192,151359,1,0,0:0:0:0:
192,192,151359,1,0,0:0:0:0:
320,192,151525,1,0,0:0:0:0:
192,192,151609,1,0,0:0:0:0:
64,192,151692,1,0,0:0:0:0:
448,192,151859,1,0,0:0:0:0:
320,192,151942,1,0,0:0:0:0:
192,192,152025,1,0,0:0:0:0:
64,192,152025,1,0,0:0:0:0:
448,192,152192,1,0,0:0:0:0:
320,192,152359,1,0,0:0:0:0:
64,192,152359,1,0,0:0:0:0:
192,192,152525,1,0,0:0:0:0:
448,192,152692,1,0,0:0:0:0:
320,192,152775,1,0,0:0:0:0:
64,192,152859,1,0,0:0:0:0:
192,192,152859,1,0,0:0:0:0:
448,192,153025,1,0,0:0:0:0:
320,192,153025,1,0,0:0:0:0:
192,192,153192,1,0,0:0:0:0:
64,192,153359,1,0,0:0:0:0:
320,192,153359,1,0,0:0:0:0:
448,192,153525,1,0,0:0:0:0:
192,192,153609,1,0,0:0:0:0:
320,192,153692,1,0,0:0:0:0:
64,192,153775,1,0,0:0:0:0:
192,192,153859,1,0,0:0:0:0:
320,192,153942,1,0,0:0:0:0:
448,192,154025,1,0,0:0:0:0:
64,192,154025,1,0,0:0:0:0:
192,192,154192,1,0,0:0:0:0:
320,192,154192,1,0,0:0:0:0:
448,192,154359,128,0,156025:0:0:0:0:
64,192,154359,128,0,156025:0:0:0:0:
