osu file format v9

[General]
AudioFilename: Silver Forest - Seishoujo Sacrifice.mp3
AudioLeadIn: 0
PreviewTime: 50004
Countdown: 0
SampleSet: Normal
StackLeniency: 0.7
Mode: 0
LetterboxInBreaks: 1

[Editor]
Bookmarks: 25813,37241
DistanceSpacing: 0.7
BeatDivisor: 2
GridSize: 8

[Metadata]
Title:Seishoujo Sacrifice
Artist:Silver Forest
Creator:Muya
Version:Easy
Source:Touhou
Tags:sayuri komeiji satori s i r i r u dksslqj

[Difficulty]
HPDrainRate:3
CircleSize:3
OverallDifficulty:2
ApproachRate:3
SliderMultiplier:0.8
SliderTickRate:0.5

[Events]
//Background and Video events
0,0,"BG.png"
//Break Periods
2,26000,35788
2,73143,82931
2,107428,117217
//Storyboard Layer 0 (Background)
//Storyboard Layer 1 (Fail)
//Storyboard Layer 2 (Pass)
//Storyboard Layer 3 (Foreground)
//Storyboard Sound Samples
//Background Colour Transformations
3,100,163,162,255

[TimingPoints]
2943,357.142857142857,4,1,0,70,1,0
25800,-100,4,2,0,70,0,0
50085,-100,4,1,0,70,0,1
61469,-100,4,1,0,70,0,0
61514,-100,4,1,0,70,0,1
61559,-100,4,1,0,70,0,0
72943,-100,4,1,0,70,0,1
72987,-100,4,1,0,70,0,0
131514,-100,4,1,0,70,0,1
142898,-100,4,1,0,70,0,0
142943,-100,4,1,0,70,0,1
142987,-100,4,1,0,70,0,0
154371,-100,4,1,0,70,0,1
154416,-100,4,1,0,70,0,0

[Colours]
Combo1 : 0,255,128
Combo2 : 255,255,128
Combo3 : 255,128,255

[HitObjects]
48,48,14371,2,0,B|32:128|48:208,1,160,4|8
144,256,15800,2,0,B|160:176|144:96,1,160,0|8
256,104,17228,2,0,B|272:24,2,80,0|0|8
216,208,18657,2,0,B|280:272|360:272,1,160,0|8
456,224,20085,6,0,B|472:144|456:64,1,160,4|8
352,104,21514,2,0,B|272:96,2,80,0|0|8
360,216,22942,1,0
256,264,23657,1,8
256,192,24371,12,4,25800
16,56,37228,6,0,B|0:136|16:216,1,160,4|8
112,272,38657,2,0,B|128:192|112:112,1,160,0|8
176,24,40085,2,0,B|256:40|336:24,1,160,0|8
400,112,41514,2,0,B|448:176,1,80
408,216,42228,2,0,B|456:280,1,80,8|0
424,328,42942,6,0,B|344:344|264:328,1,160,0|8
304,224,44371,2,0,B|225:208|145:224,1,160,0|8
184,328,45800,5,4
80,288,46514,1,8
40,184,47228,2,0,B|24:104|40:24,1,160,0|8
136,80,48657,2,0,B|232:96|264:64|376:80,1,240,0|8
416,48,50085,6,0,B|464:112|448:200,1,160,4|8
336,224,51514,2,0,B|288:160|304:72,1,160,0|8
264,32,52585,2,0,B|184:16,2,80,0|0|0
240,80,53657,2,0,B|160:96,1,80,8|0
104,88,54371,2,0,B|80:157|104:245,1,160,0|8
200,304,55800,6,0,B|224:352|272:368|312:368,2,120,4|0|8
200,248,57228,2,0,B|224:200|272:184|312:184,2,120,0|0|8
248,280,58657,1,4
344,336,59371,1,8
440,280,60085,2,0,B|464:200|440:120,1,160,0|8
352,48,61514,6,0,B|272:32|192:48,1,160,4|8
272,128,62942,2,0,B|193:143|113:127,1,160,0|8
56,144,64014,2,0,B|0:200,2,80
96,184,65085,2,0,B|96:264,1,80,8|0
64,312,65800,2,0,B|144:328|224:312,1,160,0|8
328,352,67228,6,0,B|376:360|424:352|472:304|480:256|472:208,1,240,4|8
432,168,68657,2,0,B|384:160|336:168|288:216|280:264|288:312,1,240,0|8
232,328,70085,1,4
128,368,70800,1,8
24,320,71514,2,0,B|8:232|24:160,1,160,0|8
120,104,72943,1,4
176,184,84371,6,0,B|152:264|200:336,1,160,4|0
312,336,85800,2,0,B|360:263|336:183,1,160,0|0
256,192,87228,12,0,89371
336,200,90085,6,0,B|360:120|312:48,1,160,4|0
200,48,91514,2,0,B|152:121|176:201,1,160,0|0
256,192,92943,12,0,95085
464,336,95800,2,0,B|480:256|464:176,1,160,4|8
368,128,97228,2,0,B|352:208|368:288,1,160,0|8
256,280,98657,2,0,B|240:360,2,80,0|0|8
296,176,100085,2,0,B|232:112|152:112,1,160,0|8
56,160,101514,6,0,B|40:240|56:320,1,160,4|8
160,280,102943,2,0,B|240:288,2,80,0|0|8
152,168,104371,1,0
256,120,105085,1,8
256,192,105800,12,4,107228
496,328,118657,6,0,B|512:248|496:168,1,160,4|8
400,112,120085,2,0,B|384:192|400:272,1,160,0|8
336,360,121514,2,0,B|256:344|176:360,1,160,0|8
112,272,122943,2,0,B|64:208,1,80
104,168,123657,2,0,B|56:104,1,80,8|0
88,56,124371,6,0,B|168:40|248:56,1,160,0|8
208,160,125800,2,0,B|287:176|367:160,1,160,0|8
328,56,127228,5,4
432,96,127943,1,8
472,200,128657,2,0,B|488:280|472:360,1,160,0|8
376,304,130085,2,0,B|280:288|248:320|136:304,1,240,0|8
96,336,131514,6,0,B|48:272|64:184,1,160,4|8
176,160,132943,2,0,B|224:224|208:312,1,160,0|8
248,352,134014,2,0,B|328:368,2,80,0|0|0
272,304,135085,2,0,B|352:288,1,80,8|0
408,296,135800,2,0,B|432:227|408:139,1,160,0|8
312,80,137228,6,0,B|288:32|240:16|200:16,2,120,4|0|8
312,136,138657,2,0,B|288:184|240:200|200:200,2,120,0|0|8
264,104,140085,1,4
168,48,140800,1,8
72,104,141514,2,0,B|48:184|72:264,1,160,0|8
160,336,142943,6,0,B|240:352|320:336,1,160,4|8
240,256,144371,2,0,B|319:241|399:257,1,160,0|8
456,240,145443,2,0,B|512:184,2,80
416,200,146514,2,0,B|416:120,1,80,8|0
448,72,147228,2,0,B|368:56|288:72,1,160,0|8
184,32,148657,6,0,B|136:24|88:32|40:80|32:128|40:176,1,240,4|8
80,216,150085,2,0,B|128:224|176:216|224:168|232:120|224:72,1,240,0|8
280,56,151514,1,4
384,16,152228,1,8
488,64,152943,2,0,B|504:152|488:224,1,160,0|8
392,280,154371,1,4
