osu file format v7

[General]
AudioFilename: SakaseSakase.mp3
AudioLeadIn: 1500
PreviewTime: 42130
Countdown: 0
SampleSet: Normal
StackLeniency: 0.6
Mode: 0
LetterboxInBreaks: 1

[Editor]
Bookmarks: 60620,70220,120620
DistanceSpacing: 0.800000011920929
BeatDivisor: 4
GridSize: 8

[Metadata]
Title:Sakase * Sakase
Artist:Silver Forest
Creator:MegaManEXE
Version:Normal
Source:Touhou
Tags:Border of Life Saigyouji Yuyuko Shihori

[Difficulty]
HPDrainRate:3
CircleSize:3
OverallDifficulty:4
SliderMultiplier:1.3
SliderTickRate:1

[Events]
//Background and Video events
0,0,"ok rack.jpg"
//Break Periods
2,60929,69610
//Storyboard Layer 0 (Background)
//Storyboard Layer 1 (Fail)
//Storyboard Layer 2 (Pass)
//Storyboard Layer 3 (Foreground)
//Storyboard Sound Samples
Sample,30330,3,"clap.wav",70
Sample,30930,3,"clap.wav",70
Sample,31530,3,"clap.wav",70
Sample,32130,3,"clap.wav",70
Sample,32730,3,"clap.wav",70
Sample,33330,3,"clap.wav",70
Sample,35130,3,"clap.wav",70
Sample,35730,3,"clap.wav",70
Sample,36330,3,"clap.wav",70
Sample,36930,3,"clap.wav",70
Sample,37530,3,"clap.wav",70
Sample,38130,3,"clap.wav",70
Sample,42330,3,"clap.wav",70
Sample,42930,3,"clap.wav",70
Sample,43530,3,"clap.wav",70
Sample,44130,3,"clap.wav",70
Sample,44730,3,"clap.wav",70
Sample,45330,3,"clap.wav",70
Sample,47130,3,"clap.wav",70
Sample,47730,3,"clap.wav",70
Sample,48330,3,"clap.wav",70
Sample,48930,3,"clap.wav",70
Sample,49530,3,"clap.wav",70
Sample,50130,3,"clap.wav",70
Sample,50730,3,"clap.wav",70
Sample,51930,3,"clap.wav",70
Sample,52530,3,"clap.wav",70
Sample,53130,3,"clap.wav",70
Sample,53730,3,"clap.wav",70
Sample,54330,3,"clap.wav",70
Sample,54930,3,"clap.wav",70
Sample,56730,3,"clap.wav",70
Sample,57330,3,"clap.wav",70
Sample,57930,3,"clap.wav",70
Sample,58530,3,"clap.wav",70
Sample,59130,3,"clap.wav",70
Sample,59730,3,"clap.wav",70
//Background Colour Transformations
3,100,0,0,0

[TimingPoints]
130,600,4,1,0,70,1,0
5080,-100,4,1,0,55,0,0
5980,-100,4,1,0,70,0,0
70780,-100,4,2,1,100,0,0
79855,-100,4,1,0,70,0,0

[Colours]
Combo1 : 255,255,255
Combo2 : 158,214,254
Combo3 : 243,95,233
Combo4 : 192,139,235

[HitObjects]
256,336,1330,2,0,L|256:232,1,97.5
208,120,2530,5,4
256,96,2830,1,4
304,120,3130,1,4
368,200,3730,6,0,B|393:248|369:296,1,97.5
344,248,4480,2,0,L|272:248,1,65
224,192,5230,5,8
96,192,5830,1,8
47,111,6130,6,0,L|151:111,1,97.5
272,72,7330,5,4
320,80,7630,1,4
360,104,7930,1,4
280,176,8530,6,0,B|259:223|281:274,1,97.5
328,272,9280,2,0,B|346:302|328:338,1,65
40,240,10930,5,4
112,200,11380,1,4
208,240,11980,2,0,B|271:269|337:240,1,130,4|0
408,128,13030,6,0,L|480:128,2,65,0|4|0
352,128,13930,1,0
384,56,14380,2,0,B|303:31|221:57,1,162.5
152,128,15730,5,4
104,192,16180,1,4
104,296,16780,2,0,B|168:272|186:196,1,130,4|0
256,280,17830,6,0,L|256:352,2,65
256,224,18730,1,0
318,177,19180,2,0,B|294:137|254:105|219:135|193:179,1,162.5
256,48,20530,5,4
336,48,20980,1,4
440,48,21580,2,0,B|472:112|439:177,1,130,4|0
368,280,22630,6,0,B|323:339|249:322,1,130
253,322,23530,1,0
280,248,23980,2,0,B|312:168|410:160,1,162.5
328,64,25330,5,4
256,96,25780,1,4
160,144,26380,2,0,L|96:176,2,65,4|0|0
256,192,27430,5,0
256,192,27730,2,0,B|232:272|137:293,1,162.5,4|0
88,296,28780,2,0,L|48:232,2,65
88,296,29530,1,0
168,176,30130,6,0,L|256:272,1,130,0|0
344,216,31330,2,0,L|256:120,1,130,0|0
152,120,32530,5,0
99,209,33130,1,0
203,209,33730,1,0
440,96,34930,6,0,B|378:65|312:97,1,130
314,199,36130,2,0,B|376:230|442:198,1,130
472,296,37330,5,0
376,344,37930,1,0
280,296,38530,1,0
256,72,39880,6,0,L|256:32,4,32.5,4|0|4|0|4
256,128,40780,2,0,B|256:296,1,162.5
144,264,42130,5,0
34,217,42730,1,0
81,106,43330,1,0
191,153,43930,1,0
304,192,44530,6,0,L|440:192,2,130
112,120,46930,6,0,B|97:192|164:234,1,130
128,328,48130,2,0,B|197:351|248:296,1,130
256,192,49330,5,0
360,192,49930,1,0
408,192,50230,1,0
456,192,50530,1,0
272,104,51730,6,0,B|192:128|149:82,1,130
104,176,52930,2,0,B|184:152|227:198,1,130
256,296,54130,5,0
256,192,54730,1,0
256,88,55330,1,0
448,312,56530,6,0,B|382:338|318:310,1,130
232,264,57730,1,0
144,312,58330,1,0
56,264,58930,5,0
24,224,59230,1,0
56,184,59530,1,0
24,144,59830,1,0
56,72,60280,6,0,B|56:32,3,32.5,4|4|4|4
296,32,70930,5,2
216,32,71380,1,2
193,133,71980,2,0,B|256:159|323:132,1,130,2|2
368,192,73030,5,0
368,240,73330,1,0
368,288,73630,2,0,B|320:312|272:288,1,97.5
224,272,74380,5,0
176,288,74680,1,0
128,272,74980,2,0,B|128:232,2,32.5
56,192,75730,5,2
104,128,76180,1,2
208,128,76780,1,2
256,104,77080,1,0
256,56,77380,1,2
304,80,77680,6,0,B|304:152,1,65
340,181,78280,1,0
376,144,78580,2,0,B|376:72,1,65
256,336,80530,5,4
256,256,80980,1,4
256,152,81580,2,0,B|256:72,1,65,4|0
256,32,82180,1,0
256,32,82330,1,4
177,99,82930,6,0,B|106:138|106:243,1,162.5
106,288,83980,1,0
151,313,84280,1,0
197,289,84580,2,0,B|196:252,2,32.5
256,344,85330,5,4
328,312,85780,1,4
424,272,86380,2,0,B|424:200,1,65,4|0
424,152,86980,1,0
424,152,87130,1,4
352,48,87730,6,0,B|271:9|189:51,1,162.5
144,64,88780,2,0,L|80:24,2,65
144,64,89530,1,0
56,192,90130,5,0
160,216,90730,1,0
240,280,91330,2,0,B|280:334|359:317,1,130
403,224,92530,5,0
329,150,93130,1,0
255,76,93730,1,0
48,112,94930,6,0,B|74:179|146:195,1,130
59,253,96130,2,0,B|103:310|176:305,1,130
256,248,97330,5,0
256,144,97930,1,0
256,40,98530,1,0
416,96,99880,6,0,B|416:56,4,32.5,4|0|4|0|4
416,152,100780,2,0,B|456:232|415:309,1,162.5,4|0
312,328,102130,6,0,B|246:360|184:326,1,130
120,248,103330,2,0,B|186:216|248:250,1,130
256,152,104530,5,0
216,120,104830,1,0
232,72,105130,1,0
280,72,105430,1,0
296,120,105730,1,0
256,256,106930,5,0
336,192,107530,1,0
256,128,108130,1,0
176,192,108730,1,0
96,320,109330,6,0,B|56:264,1,65,0|0
95,230,109930,2,0,B|135:174,1,65,0|0
95,140,110530,1,0
440,144,111730,6,0,B|368:154|336:224,1,130
288,128,112930,2,0,B|226:167|227:244,1,130
136,280,114130,5,0
104,240,114430,1,0
88,192,114730,1,0
104,144,115030,1,0
136,104,115330,1,0
256,296,116530,5,0
256,88,117730,1,0
136,192,118930,5,0
184,192,119230,1,0
232,192,119530,1,0
280,192,119830,1,0
360,192,120280,6,0,B|400:192,3,32.5,4|4|4|4
