osu file format v7

[General]
AudioFilename: SakaseSakase.mp3
AudioLeadIn: 1500
PreviewTime: 42130
Countdown: 0
SampleSet: Normal
StackLeniency: 0.6
Mode: 0
LetterboxInBreaks: 1

[Editor]
Bookmarks: 60620,70220,120620
DistanceSpacing: 1
BeatDivisor: 4
GridSize: 8

[Metadata]
Title:Sakase * Sakase
Artist:Silver Forest
Creator:MegaManEXE
Version:Lunatic
Source:Touhou
Tags:Border of Life Saigyouji Yuyuko Shihori

[Difficulty]
HPDrainRate:7
CircleSize:5
OverallDifficulty:8
SliderMultiplier:1.7
SliderTickRate:1

[Events]
//Background and Video events
0,0,"nice rack.jpg"
//Break Periods
2,60930,69580
//Storyboard Layer 0 (Background)
//Storyboard Layer 1 (Fail)
//Storyboard Layer 2 (Pass)
//Storyboard Layer 3 (Foreground)
//Storyboard Sound Samples
//Background Colour Transformations
3,100,0,0,0

[TimingPoints]
130,300,4,1,0,70,1,0
5080,-100,4,1,0,55,0,0
5980,-100,4,1,0,70,0,0
70780,-100,4,2,1,100,0,0
79855,-100,4,1,0,70,0,0

[Colours]
Combo1 : 255,255,255
Combo2 : 158,214,254
Combo3 : 243,95,233
Combo4 : 192,139,235

[HitObjects]
256,64,730,1,0
256,80,805,1,0
256,96,880,1,0
256,112,955,1,0
256,128,1030,1,0
360,192,1180,5,0
352,208,1255,1,0
344,224,1330,2,0,L|296:288|200:288,1,170
206,288,1780,1,0
48,288,2080,1,0
128,288,2230,1,0
88,224,2380,1,0
48,160,2530,5,4
336,160,2830,1,4
48,112,3130,1,4
336,112,3430,1,4
256,352,3730,5,0
192,304,3880,1,0
256,352,4030,1,0
320,304,4180,1,0
256,168,4480,5,0
192,208,4630,1,0
320,208,4780,1,0
56,56,5230,5,8
456,328,5830,1,8
456,136,6130,6,0,B|368:136,1,85
320,80,6430,2,0,B|408:80,1,85
408,232,6880,1,0
328,232,7030,1,0
368,296,7180,1,0
288,296,7330,5,4
49,204,7630,1,4
245,48,7930,1,4
288,296,8230,1,4
184,184,8530,6,0,B|184:96,1,85
120,56,8830,2,0,B|120:144,1,85
120,296,9280,1,0
192,264,9430,1,0
264,232,9580,1,0
416,48,9880,5,0
488,184,10180,1,0
448,120,10330,1,0
432,128,10405,1,0
416,136,10480,1,0
400,144,10555,1,0
384,152,10630,1,0
184,352,10930,5,4
120,312,11080,1,0
184,272,11230,1,0
184,192,11380,1,4
120,232,11530,1,0
120,152,11680,1,0
256,40,11980,5,4
256,192,12280,1,0
256,344,12580,1,0
256,344,12730,1,4
472,272,13030,6,0,L|400:272|376:248|304:248,1,170
232,248,13480,1,0
152,248,13630,1,0
72,248,13780,1,0
152,248,13930,1,0
232,248,14080,1,0
168,136,14380,6,0,L|256:136|328:72,1,170
168,40,14980,1,0
88,40,15130,1,0
40,104,15280,1,0
208,336,15730,6,0,B|128:296,2,85,4|0|0
304,336,16180,2,0,B|384:296,2,85,4|0|0
256,192,16780,5,4
176,64,17080,1,0
328,64,17380,1,0
256,112,17530,1,4
451,244,17830,5,0
396,298,17980,2,0,B|308:298,1,85
256,352,18280,1,0
201,297,18430,2,0,B|113:297,1,85
61,242,18730,1,0
61,242,18880,1,0
128,96,19180,5,0
384,96,19480,1,0
256,320,19780,1,0
256,256,19930,1,0
256,240,20005,1,0
256,224,20080,1,0
256,208,20155,1,0
256,192,20230,1,0
256,40,20530,5,4
240,112,20680,2,0,B|176:48,1,85
256,40,20980,1,4
331,52,21130,2,0,B|267:116,1,85
448,288,21580,5,4
256,328,21880,1,0
64,288,22180,1,0
64,288,22330,1,4
256,104,22630,6,0,B|256:16,2,85
320,152,23080,1,0
320,232,23230,1,0
256,272,23380,1,0
192,232,23530,1,0
192,152,23680,1,0
56,312,23980,5,0
56,72,24280,1,0
256,192,24580,1,0
256,192,24730,1,0
256,192,24880,1,0
400,56,25330,5,4
472,88,25480,1,0
400,56,25630,1,0
408,136,25780,1,4
472,88,25930,1,0
408,136,26080,1,0
256,96,26380,5,4
256,288,26680,1,0
88,192,26980,1,0
88,192,27130,1,4
408,352,27430,6,0,B|488:312,1,85
336,288,27730,2,0,B|256:248,1,85,0|0
408,224,28030,2,0,B|488:184,1,85
336,152,28330,2,0,B|256:112,1,85
56,48,28780,5,0
256,48,29080,1,0
160,224,29380,1,0
160,224,29530,1,0
160,208,29605,1,0
160,192,29680,1,0
160,176,29755,1,0
160,160,29830,1,0
432,224,30130,6,0,L|392:280|352:272|312:328,1,170,0|8
256,216,30580,1,0
195,321,30730,2,0,L|159:271|119:279|79:223,1,170,0|8
172,56,31330,6,0,L|256:31|340:56,1,170,0|8
256,144,31780,1,0
335,232,31930,2,0,L|256:255|172:230,1,170,0|8
32,192,32530,5,0
256,32,32830,1,8
480,192,33130,1,0
256,352,33430,1,8
32,192,33730,2,0,B|144:144|248:264|368:192,1,340
59,333,34930,6,0,L|123:277|59:221,1,170,0|8
59,69,35530,1,0
123,117,35680,1,0
59,165,35830,1,8
453,51,36130,6,0,L|389:107|453:163,1,170,0|8
453,315,36730,1,0
389,267,36880,1,0
453,219,37030,1,8
256,40,37330,5,0
120,104,37630,1,8
256,168,37930,1,0
392,104,38230,1,8
256,40,38530,2,0,B|144:112|256:176|376:240|254:319,1,340
96,48,39880,5,4
176,96,40030,1,0
256,144,40180,1,4
336,96,40330,1,0
416,48,40480,1,4
336,264,40780,5,4
176,264,41080,1,4
256,144,41380,1,4
256,200,41530,1,0
256,216,41605,1,0
256,232,41680,1,0
256,248,41755,1,0
256,264,41830,1,0
36,137,42130,5,0
90,82,42280,2,0,B|26:18,2,85,0|8|0
144,136,42730,1,0
89,190,42880,1,0
151,233,43030,2,0,B|87:297,1,85,8|0
145,347,43330,5,0
199,292,43480,2,0,B|263:356,2,85,0|8|0
253,237,43930,1,0
307,291,44080,1,0
383,291,44230,2,0,B|455:219,1,85,8|0
376,72,44530,5,0
136,72,44830,1,8
136,312,45130,1,0
376,312,45430,1,8
376,72,45730,2,0,B|255:194,1,170,0|8
40,192,46330,5,0
53,200,46405,1,0
67,208,46480,1,0
81,216,46555,1,0
95,224,46630,1,0
109,232,46705,1,0
123,240,46780,1,0
217,352,46930,5,0
293,352,47080,1,0
347,297,47230,1,8
292,242,47380,2,0,B|204:242,1,85
248,176,47680,2,0,B|336:176,1,85,0|8
387,230,47980,1,0
387,153,48130,6,0,B|443:81,1,85
384,31,48430,2,0,B|328:103,1,85,8|0
277,44,48730,1,0
200,44,48880,1,0
157,111,49030,1,8
237,111,49180,1,0
256,192,49330,5,0
40,256,49630,1,8
256,192,49930,1,0
472,256,50230,1,8
376,96,50530,5,0
136,96,50830,1,8
213,320,51130,1,0
225,307,51205,1,0
239,298,51280,1,0
255,294,51355,1,0
271,297,51430,1,0
285,305,51505,1,0
297,316,51580,1,0
424,240,51730,6,0,B|424:152,1,85
376,96,52030,1,8
424,32,52180,1,0
376,96,52330,1,0
328,32,52480,1,0
288,96,52630,2,0,B|288:184,1,85,8|0
240,240,52930,6,0,B|152:240,1,85
80,240,53230,1,8
120,176,53380,1,0
200,176,53530,1,0
160,112,53680,1,0
160,32,53830,2,0,B|248:32,1,85,8|0
321,32,54130,5,0
382,263,54430,1,8
151,324,54730,1,0
88,93,55030,1,8
256,326,55330,5,0
16,326,55630,1,8
185,158,55930,1,0
169,150,56005,1,0
153,142,56080,1,0
137,135,56155,1,0
121,142,56230,1,0
105,150,56305,1,0
89,158,56380,1,0
136,280,56530,6,0,L|208:280|232:256|304:256,1,170,0|8
376,256,56980,1,0
456,256,57130,1,0
416,192,57280,1,0
336,192,57430,2,0,L|264:192|240:168|168:168,1,170,8|0
96,168,57880,1,0
136,104,58030,1,8
216,104,58180,1,0
296,104,58330,2,0,L|368:104|392:80|464:80,1,170,0|8
392,192,58930,5,0
120,192,59230,1,8
432,144,59530,1,0
80,144,59830,1,8
256,108,60280,5,4
171,192,60430,1,4
255,276,60580,1,4
339,191,60730,1,4
256,192,70330,5,0
256,192,70405,1,0
256,192,70480,1,0
256,192,70555,1,0
256,192,70630,1,0
256,112,70930,5,2
192,152,71080,1,0
192,232,71230,1,0
256,272,71380,1,2
320,232,71530,1,0
320,152,71680,1,0
88,192,71980,5,2
256,192,72280,1,0
424,192,72580,1,2
424,192,72730,1,0
216,152,73030,6,0,L|148:84,1,85,0|2
216,232,73330,2,0,L|153:294,1,85
296,232,73630,2,0,L|358:294,1,85,0|2
296,152,73930,2,0,L|358:89,1,85
256,344,74380,5,2
256,192,74680,1,0
256,40,74980,1,2
216,104,75130,1,0
296,104,75280,1,0
32,256,75730,6,0,L|64:336,2,85,2|0|0
32,128,76180,2,0,L|64:48,2,85,2|0|0
176,192,76780,5,2
328,192,77080,1,0
480,192,77380,2,0,L|480:288,1,85,2|0
424,328,77680,5,0
384,264,77830,1,0
344,328,77980,1,2
264,328,78130,1,0
304,264,78280,1,0
344,200,78430,1,0
304,136,78580,1,2
344,72,78730,1,0
384,136,78880,1,0
168,200,79180,6,0,L|256:216|336:200,2,170,2|0|2
32,160,79930,5,0
32,176,80005,1,0
32,192,80080,1,0
32,208,80155,1,0
32,224,80230,1,0
355,100,80530,5,4
300,154,80680,2,0,L|212:154,1,85,0|0
160,99,80980,1,4
214,44,81130,2,0,L|302:44,1,85,0|0
440,256,81580,5,4
256,352,81880,1,0
72,256,82180,1,0
72,256,82330,1,4
256,120,82630,6,0,B|256:208,2,85
256,40,83080,1,0
320,88,83230,1,0
296,160,83380,1,0
216,160,83530,1,0
192,88,83680,1,0
32,224,83980,6,0,L|32:312|104:352,1,170
256,352,84580,1,0
256,272,84730,1,0
192,224,84880,1,0
411,33,85330,5,4
356,87,85480,1,0
301,32,85630,2,0,L|213:32,1,85,0|4
161,86,85930,1,0
106,31,86080,1,0
256,344,86380,5,4
256,192,86680,1,0
256,40,86980,2,0,L|256:128,1,85,0|4
216,192,87280,5,0
296,192,87430,1,0
328,256,87580,2,0,B|280:336,1,85
256,256,87880,1,0
224,328,88030,2,0,B|180:255,1,85
256,256,88330,1,0
256,176,88480,1,0
481,329,88780,5,0
328,329,89080,1,0
405,195,89380,1,0
405,115,89530,1,0
405,99,89605,1,0
405,83,89680,1,0
405,67,89755,1,0
405,51,89830,6,0,L|405:227,1,170,0|0
328,221,90280,5,0
273,166,90430,1,8
218,220,90580,1,0
163,165,90730,2,0,L|108:165|132:103|72:103,1,170,0|8
216,32,91330,5,0
296,32,91480,1,0
256,96,91630,1,8
336,96,91780,1,0
376,32,91930,2,0,L|431:32|407:94|467:94,1,170,0|8
392,280,92530,5,0
157,331,92830,1,8
108,96,93130,1,0
343,46,93430,1,8
108,96,93730,2,0,B|144:224|240:184|336:144|376:256,1,340
32,336,94930,6,0,L|88:272|88:184,1,170,0|8
160,48,95530,1,0
192,120,95680,1,0
256,80,95830,1,8
480,336,96130,6,0,L|424:272|424:184,1,170,0|8
352,48,96730,1,0
320,120,96880,1,0
256,80,97030,1,8
256,328,97330,5,0
48,256,97630,1,8
256,192,97930,1,0
464,128,98230,1,8
256,64,98530,2,0,B|142:124|256:200|369:274|253:346,1,340
136,96,99880,5,4
208,40,100030,1,0
256,120,100180,1,4
304,40,100330,1,0
376,96,100480,1,4
144,232,100780,5,4
256,336,101080,1,4
368,232,101380,1,4
288,232,101530,1,0
272,232,101605,1,0
256,232,101680,1,0
240,232,101755,1,0
224,232,101830,1,0
464,144,102130,5,0
392,112,102280,2,0,B|392:24,2,85,0|8|0
320,144,102730,1,0
248,112,102880,1,0
176,80,103030,2,0,B|176:168,1,85,8|0
104,136,103330,5,0
32,104,103480,2,0,B|32:8,2,85,0|8|0
32,184,103930,1,0
104,216,104080,1,0
176,248,104230,2,0,B|264:248,1,85,8|0
264,328,104530,5,0
445,284,104830,1,8
445,96,105130,1,0
264,40,105430,1,8
152,192,105730,2,0,L|328:192,1,170,0|8
144,320,106330,5,0
152,312,106405,1,0
160,304,106480,1,0
168,296,106555,1,0
176,288,106630,1,0
184,280,106705,1,0
192,272,106780,1,0
128,160,106930,5,0
192,120,107080,1,0
256,160,107230,1,8
320,120,107380,2,0,B|320:208,1,85
384,248,107680,2,0,B|384:160,1,85,0|8
448,120,107980,1,0
448,40,108130,6,0,B|368:72,1,85
296,40,108430,2,0,B|216:72,1,85,8|0
216,152,108730,1,0
161,206,108880,1,0
215,260,109030,1,8
269,205,109180,1,0
320,312,109330,5,0
352,72,109630,1,8
384,312,109930,1,0
416,72,110230,1,8
352,192,110530,5,0
160,192,110830,1,8
256,24,111130,1,0
256,40,111205,1,0
256,56,111280,1,0
256,72,111355,1,0
256,88,111430,1,0
256,104,111505,1,0
256,120,111580,1,0
256,216,111730,6,0,B|256:304,1,85
328,288,112030,1,8
296,360,112180,1,0
216,360,112330,1,0
192,288,112480,1,0
256,248,112630,2,0,B|256:160,1,85,8|0
184,128,112930,6,0,B|184:216,1,85
112,248,113230,1,8
40,216,113380,1,0
112,184,113530,1,0
40,152,113680,1,0
112,120,113830,2,0,B|112:32,1,85,8|0
256,32,114130,5,0
415,191,114430,1,8
255,350,114730,1,0
95,190,115030,1,8
256,32,115330,5,0
415,191,115630,1,8
256,351,115930,1,0
256,336,116005,1,0
256,320,116080,1,0
256,304,116155,1,0
256,288,116230,1,0
256,272,116305,1,0
256,256,116380,1,0
304,192,116530,6,0,L|256:120|212:193,1,170,0|8
136,192,116980,1,0
176,128,117130,1,0
216,64,117280,1,0
296,64,117430,2,0,L|344:136|388:63,1,170,8|0
464,64,117880,1,0
432,136,118030,1,8
392,200,118180,1,0
352,264,118330,2,0,L|304:336|260:263,1,170,0|8
128,192,118930,5,0
384,192,119230,1,8
88,240,119530,1,0
424,240,119830,1,8
256,32,120280,5,4
256,128,120430,1,4
256,224,120580,1,4
256,320,120730,1,4
