osu file format v9

[General]
AudioFilename: Silver Forest - Sadistic Love.mp3
AudioLeadIn: 0
PreviewTime: 36013
Countdown: 1
SampleSet: Normal
StackLeniency: 0.3
Mode: 0
LetterboxInBreaks: 1

[Editor]
Bookmarks: 11727,36013,58870,70298,94584,117441,128870,151727,174584,199584,218156,235298
DistanceSpacing: 0.9
BeatDivisor: 4
GridSize: 8

[Metadata]
Title:Sadistic Love
Artist:Silver Forest
Creator:ouranhshc
Version:Easy
Source:Touhou
Tags:Kochiya Sanae scarlethana

[Difficulty]
HPDrainRate:2
CircleSize:3
OverallDifficulty:2
ApproachRate:2
SliderMultiplier:0.9
SliderTickRate:1

[Events]
//Background and Video events
0,0,"konachan-com-73160-black_hair-houjuu_nue-red_eyes-ribbons-short_hair-shushio-thighhighs-touhou-weapon-wings.jpg"
//Break Periods
2,59070,68738
2,117641,127310
2,151927,161596
//Storyboard Layer 0 (Background)
//Storyboard Layer 1 (Fail)
//Storyboard Layer 2 (Pass)
//Storyboard Layer 3 (Foreground)
//Storyboard Sound Samples
//Background Colour Transformations
3,100,163,162,255

[TimingPoints]
299,357.142857142857,4,1,1,80,1,0
29495,-100,4,1,0,80,0,0
29674,-100,4,1,1,80,0,0
35209,-100,4,1,0,80,0,0
35388,-100,4,1,1,80,0,0
82352,-100,4,1,0,80,0,0
82531,-100,4,1,1,80,0,0
88066,-100,4,1,0,80,0,0
88245,-100,4,1,1,80,0,0
93423,-100,4,1,0,80,0,0
93959,-100,4,1,1,80,0,0
128870,-133.333333333333,4,1,0,60,0,0
134584,-133.333333333333,4,2,0,70,0,0
140298,-133.333333333333,4,1,0,60,0,0
146013,-133.333333333333,4,2,0,70,0,0
163156,-133.333333333333,4,1,0,80,0,0
168870,-133.333333333333,4,1,1,90,0,0
171727,-133.333333333333,4,1,1,100,0,0
174584,-100,4,1,1,80,0,0
174584,-100,4,1,1,80,0,0
180923,-100,4,1,0,80,0,0
181102,-100,4,1,1,80,0,0
186281,-100,4,1,0,80,0,0
188156,357.142857142857,4,1,0,100,1,0

[Colours]
Combo1 : 100,202,111
Combo2 : 243,50,108
Combo3 : 69,38,247

[HitObjects]
56,48,11727,2,0,B|144:80|232:48,2,180,4|0|0
32,192,13870,1,0
40,272,14227,1,0
56,352,14584,6,0,B|96:400|176:400|216:352,2,180,4|4|0
200,272,16727,1,0
192,112,17441,6,0,B|376:112,1,180,4|0
496,216,18870,2,0,B|312:216,1,180
184,312,20298,2,0,B|368:312,2,180,4|0|0
24,312,22441,1,0
136,192,23156,5,0
248,72,23870,1,0
88,40,24584,1,0
152,96,24941,1,8
216,152,25298,1,0
256,312,26013,6,0,B|312:336|392:280|376:208,2,180,4|0|0
176,312,27798,1,8
96,288,28156,2,0,B|48:256|48:200,1,90,0|8
72,136,28870,6,0,B|88:56|176:64,2,135,4|0|8
152,144,30298,1,4
312,144,31013,1,0
448,224,31727,6,0,B|496:136|448:48,1,180,4|0
312,144,33156,2,0,B|264:232|312:320,1,180,4|0
152,344,34584,6,0,B|16:360,2,135,4|4|8
128,264,36013,6,0,B|88:184,1,90,4|8
48,112,36727,2,0,B|96:16|200:56,2,180
200,160,38870,6,0,B|256:208|304:104|368:160,1,180,4|0
440,192,39941,1,8
464,272,40298,2,0,B|472:336|416:392|344:376,1,180
192,352,41727,6,0,B|192:168,1,180,4|0
160,96,42798,1,8
104,160,43156,2,0,B|104:344,1,180
264,360,44584,6,0,B|304:384|392:352|376:264,1,180,4|0
296,288,45656,1,8
216,296,46013,2,0,B|216:112,1,180
88,16,47441,6,0,B|272:16,1,180,4|0
352,16,48513,1,8
312,88,48870,2,0,B|312:272,1,180
168,344,50298,6,0,B|96:344|120:288|96:232|168:232,1,180,4|0
248,232,51370,1,8
320,272,51727,2,0,B|336:224|312:184,1,90,0|8
240,144,52441,1,0
192,8,53156,6,0,B|376:8,1,180,4|0
456,16,54227,1,8
480,96,54584,2,0,B|480:280,2,180,0|0|4
352,200,56727,5,0
296,256,57084,1,8
320,336,57441,2,0,B|264:344|232:312,3,90,0|8|0|8
208,240,58870,5,4
256,56,70298,6,0,B|144:56|112:144,1,180,4|0
136,224,71370,1,8
56,248,71727,2,0,B|96:328|176:312|208:264,1,180
272,312,72798,1,8
336,360,73156,6,0,B|456:216,1,180,4|0
456,56,74584,2,0,B|336:200,1,180,4|0
256,336,76013,6,0,B|168:360|128:288|144:240,2,180,4|0|0
416,296,78156,1,0
376,224,78513,1,8
456,224,78870,6,0,B|456:168|400:144,1,90,4|8
472,96,79584,2,0,B|432:56|376:80,1,90,0|8
328,128,80298,2,0,B|144:128,1,180
208,280,81727,6,0,B|80:344,2,135,4|0|8
280,320,83156,2,0,B|304:256|264:192|192:200,1,180,4|0
72,96,84584,6,0,B|136:16|232:40,2,180,4|0|0
56,176,86370,1,8
136,176,86727,2,0,B|232:176,1,90,0|8
296,216,87441,6,0,B|424:272,2,135,4|0|8
296,136,88870,1,4
432,40,89584,1,0
496,184,90298,6,0,B|400:224|392:320,1,180,4|0
232,352,91727,2,0,B|328:312|336:216,1,180,4|0
176,192,93156,6,0,B|40:192,2,135,4|0|8
248,152,94584,6,0,B|320:152|352:64|304:16,1,180,4|0
248,72,95656,1,8
184,16,96013,2,0,B|0:16,1,180
56,168,97441,6,0,B|80:272|184:272,1,180,4|0
264,272,98513,1,8
248,352,98870,2,0,B|296:360|328:320,1,90,0|8
344,240,99584,1,0
256,104,100298,6,0,B|272:40|376:40|392:104,1,180,4|0
424,176,101370,1,8
400,256,101727,2,0,B|216:256,1,180
136,256,102798,1,8
56,232,103156,6,0,B|48:304|96:352|184:336,2,180,4|0|0
72,152,104941,1,8
112,80,105298,1,0
112,80,105656,1,8
184,40,106013,6,0,B|368:40,2,180,4|0|0
104,64,107798,1,8
88,144,108156,1,0
168,288,108870,6,0,B|256:320|344:288,1,180,4|0
376,216,109941,1,8
440,272,110298,2,0,B|464:232|456:184,2,90,0|8|0
384,120,111727,6,0,B|200:120,1,180,4|0
184,40,112798,1,8
264,40,113156,2,0,B|336:120|264:200,1,180,4|0
112,248,114584,6,0,B|136:352|256:352,1,180,4|0
296,296,115656,1,8
256,192,116013,12,0,117441
152,32,128870,6,0,B|152:168,1,134.999995976687,4|0
232,72,130298,2,0,B|232:208,1,134.999995976687
312,120,131727,2,0,B|312:256,1,134.999995976687
392,168,133156,2,0,B|392:304,1,134.999995976687
288,360,134584,6,0,B|208:384|136:352|112:256|144:200,3,269.999991953373,4|0|0|0
216,112,139584,1,0
312,40,140298,6,0,B|448:40,1,134.999995976687,4|0
360,128,141727,2,0,B|224:128,1,134.999995976687
312,216,143156,2,0,B|448:216,1,134.999995976687
360,304,144584,2,0,B|224:304,1,134.999995976687
104,272,146013,6,0,B|64:208|88:128|168:88|240:128,3,269.999991953373,4|0|0|0
360,104,151013,1,0
416,208,151727,5,4
88,328,163156,6,0,B|192:240,1,134.999995976687,4|0
184,120,164584,2,0,B|80:208,1,134.999995976687
64,88,166013,6,0,B|88:24|168:16,1,134.999995976687
288,16,167441,2,0,B|424:16,1,134.999995976687
464,128,168870,5,12
384,216,169584,1,8
376,96,170298,1,8
296,192,171013,1,8
176,192,171727,5,12
264,272,172441,1,8
144,272,173156,1,8
240,352,173870,1,8
392,304,174584,6,0,B|496:296|512:176,2,180,4|0|0
232,304,176727,1,0
88,240,177441,6,0,B|32:160|72:64,1,180,4|0
144,32,178513,1,8
256,152,179227,1,0
216,224,179584,1,8
296,224,179941,1,0
336,296,180298,6,0,B|472:296,2,135,4|0|8
256,296,181727,1,0
96,280,182441,1,0
96,104,183156,6,0,B|208:120|216:240,1,180,4|0
376,216,184584,2,0,B|264:200|256:80,1,180,4|0
408,32,186013,6,0,B|496:192,2,180,4|0|0
256,32,188156,5,4
